#TITLE:Energy;
#SUBTITLE:;
#ARTIST:Mighty Mouth;
#TITLETRANSLIT:;
#SUBTITLETRANSLIT:;
#ARTISTTRANSLIT:;
#CREDIT:;
#BANNER:Energy-bn.png;
#BACKGROUND:Energy-bg.png;
#LYRICSPATH:;
#CDTITLE:;
#MUSIC:Energy.mp3;
#OFFSET:1.120;
#SAMPLESTART:65.050;
#SAMPLELENGTH:13.700;
#SELECTABLE:YES;
#BPMS:0.000=155.000;
#STOPS:;
#BGCHANGES:2.500=Energy.avi=1.000=1=0=0,
99999=-nosongbg-=1.000=0=0=0 // don't automatically add -songbackground-
;

//---------------dance-single - ----------------
#NOTES:
     dance-single:
     :
     Beginner:
     2:
     0.154,0.191,0.067,0.000,0.000:
0000
0000
0000
0000
,
0000
0000
0000
0000
,
0000
0000
0000
0000
,
0000
0000
0000
0000
,
1000
0000
0000
0000
,
0000
0000
0000
0000
,
0010
0000
0000
0000
,
0010
0000
0000
0000
,
0100
0000
0000
0000
,
0001
0001
0001
0000
,
1001
0000
0010
0000
,
1000
0000
0001
0000
,
1000
0000
0100
0000
,
0010
0000
0010
0000
,
0001
0001
0000
0000
,
0100
0000
0000
0000
,
0001
0001
0000
0000
,
0100
0000
0000
0000
,
1001
0000
0000
0000
,
1000
0000
0000
0000
,
0010
0000
0010
0000
,
0010
0000
0000
0000
,
1000
0000
0000
0000
,
0100
0000
0000
0000
,
0010
0000
0000
0000
,
0001
0001
0001
0000
,
0001
0000
1000
0000
,
0010
0000
0000
0000
,
1000
0000
0100
0000
,
1000
0000
1000
0000
,
0001
0000
0001
0000
,
0100
0000
0100
0000
,
0010
0000
0000
0000
,
0100
0000
0000
0000
,
0001
0000
0000
1000
,
1000
0000
0000
0100
,
0100
0000
1000
0000
,
0010
0000
0010
0000
,
0100
0000
0000
0001
,
0001
0000
0000
1000
,
1000
0000
0010
0000
,
0010
0000
1000
0000
,
0000
0000
0000
0000
,
0100
0000
1000
0000
,
0001
0000
1000
0000
,
0010
0000
0010
0000
,
0100
0000
0001
0000
,
1000
1000
1000
0000
,
0100
0000
0000
0000
,
1000
1000
1000
0000
,
0100
0000
0000
0000
,
1001
0000
0100
0000
,
0010
0000
0010
0000
,
1000
0000
0001
0000
,
0010
0000
0100
0000
,
0010
0010
0010
0000
,
0001
0000
0000
0000
,
0010
0010
0010
0000
,
0001
0000
0000
0000
,
1001
1001
0000
0000
,
0100
0000
0000
0000
,
1001
1001
0000
0000
,
0100
0000
0000
0000
,
1000
0000
0000
0000
,
0001
0000
0000
0000
,
0100
0000
0000
0000
,
0010
0010
0010
0010
;

//---------------dance-single - ----------------
#NOTES:
     dance-single:
     :
     Medium:
     7:
     0.427,0.479,0.343,0.295,0.000:
0000
0000
0000
0000
,
0000
0000
0000
0000
,
0000
0000
0000
0000
,
0000
0000
0000
0000
,
1000
0000
0000
0001
0100
0000
0000
0010
,
0000
0010
0000
0000
0100
0000
0000
0000
,
0001
0000
0000
0010
0100
0000
0000
1000
,
0000
1000
0000
0000
0010
0000
0000
0000
,
1000
0000
0001
0000
,
1001
0110
1001
0110
,
2000
0000
3100
0000
1000
0010
1000
0000
,
0002
0000
0103
0000
0010
0100
0010
0000
,
2000
0000
3001
0000
0010
0100
0010
0000
,
0002
0000
1003
0000
0010
1000
0100
0000
,
0002
0000
1003
0200
0000
0000
0300
0000
,
0010
1000
0100
0010
,
0002
0000
1003
0200
0000
0000
0300
0000
,
1001
0110
1001
0110
,
1000
0000
0001
0000
0100
0000
0010
0100
,
0001
0100
0010
0000
,
0100
0000
0001
0000
1000
0000
0100
1000
,
0010
1000
0001
0010
,
2002
3003
0010
1000
,
0202
0303
0010
0001
,
2200
3300
0010
1000
,
0001
0100
0001
0000
1000
0100
1000
0000
,
0001
0001
1000
1000
,
0010
0100
0010
0100
0000
0000
0000
0000
,
0101
1100
0001
1000
,
1010
0011
1000
0001
,
0000
0100
0010
0000
0110
0000
0110
0000
,
0000
0001
1000
0000
1001
0000
1001
0000
,
0100
0000
1000
0000
0010
1000
0100
0000
,
0010
0000
0001
0000
1000
0001
0100
0000
,
0020
1030
0000
1000
,
0002
0103
0000
0001
,
0100
0010
1000
0100
,
0010
0000
0001
0000
0100
0010
0100
0000
,
0001
0000
0001
1000
0000
1000
0001
0000
,
1000
0000
1000
0001
0000
0001
1000
0000
,
0001
0000
0100
0000
0010
1000
0010
0000
,
1100
0101
0011
1010
,
0000
0000
0000
0110
,
0002
0000
0013
0000
0001
0100
0001
0000
,
2000
0000
3010
0000
0100
0010
0100
0000
,
0002
0000
1003
0000
0100
0010
0100
0000
,
2000
0000
3001
0000
0100
0001
0010
0000
,
2000
0000
3001
0020
0000
0000
0030
0000
,
0100
0001
0010
0100
,
2000
0000
3001
0020
0000
0000
0030
0000
,
1001
1100
1001
0101
,
2000
0000
3001
0000
0100
0010
1000
0000
,
0002
0000
1003
0000
0010
1000
0001
0000
,
0020
0000
0030
0000
0100
0010
0100
0010
,
0001
0000
0001
0000
1000
0100
1000
0000
,
0002
0000
1003
0200
0000
0000
0300
0000
,
0001
1000
0001
0100
,
0002
0000
1003
0200
0000
0000
0300
0000
,
0011
1100
0101
1010
,
0001
0001
0001
0000
0000
0000
0000
0000
,
0100
0010
1000
0001
,
1000
1000
1000
0000
0000
0000
0000
0000
,
0100
0010
0000
0000
0000
0000
0000
0000
,
0001
0000
0000
1000
0100
0000
0000
0010
,
0000
0010
0000
0000
1000
0000
0000
0000
,
0001
0000
0000
0100
0001
0000
0000
0000
,
0101
1100
0011
1010
,
0001
0000
0000
0000
;

//---------------dance-single - ----------------
#NOTES:
     dance-single:
     :
     Hard:
     11:
     0.570,0.542,0.381,0.324,0.033:
0000
0000
0000
0000
,
0000
0000
0000
0000
,
0000
0000
0000
0000
,
0000
0000
0000
0000
,
1000
0000
0000
0001
0100
0000
0000
0010
,
0000
0010
0000
0010
1000
0000
0100
0000
,
0001
0000
0000
1000
0100
0000
0000
0010
,
0000
0010
0000
0010
0001
0100
0000
0001
,
1000
0000
0001
0000
,
0101
1100
0011
1010
,
0001
1000
0001
0001
1000
0001
1000
1000
,
0002
0000
1003
0001
1000
1000
0001
1000
,
0002
0000
1003
0001
1000
1000
0001
0001
,
1000
0001
1000
1000
0001
1000
0001
1000
,
0020
0000
0130
0020
0000
0000
0130
0000
,
0001
0010
0100
1000
0002
0000
1003
0000
,
0200
0000
0310
0200
0000
0000
1300
0000
,
0011
1010
0101
1010
,
0001
1000
0100
1000
0020
0000
0130
0000
,
0001
0100
0010
1000
0002
0000
1003
0000
,
0100
1000
0100
0010
0001
1000
0010
0100
,
0000
0001
0100
0010
1000
1000
0001
0001
,
0202
0000
0303
1000
0001
0000
0010
0000
,
2200
0000
3300
0001
1000
0000
0010
0000
,
2002
0000
3003
0000
0001
0100
0010
1000
,
0100
0010
0001
0010
0100
1000
0001
0000
,
0010
0010
0001
0001
1000
1000
0010
0010
,
0100
0000
0000
0001
0000
0000
2000
0000
0000
0000
0000
0000
3100
0000
0000
0000
,
1000
0001
0100
0010
0100
0001
1000
0000
,
0001
0010
0100
0010
0001
1000
0010
0000
,
1000
0000
0100
0000
1000
0000
0010
0000
0100
0000
0000
0101
0000
0000
0101
0000
,
0000
0000
0001
0000
0100
0000
0010
0000
1000
0000
0000
1010
0000
0000
1010
0000
,
0000
0100
0001
1000
0100
1000
0010
0100
,
0001
0010
0100
1000
0000
0001
0010
0000
,
2100
0000
0000
0010
0000
0000
3001
0000
0000
0000
0000
0000
1001
0000
0000
0000
,
0102
0000
0000
0010
0000
0000
1003
0000
0000
0000
0001
0000
1000
0000
0000
0000
,
0010
1000
0100
1000
0001
0010
0001
1000
,
0001
0100
0010
0100
0001
1000
0100
0000
,
0012
0000
0000
0100
0000
0000
1003
0000
0000
0000
0000
0000
1001
0000
0000
0000
,
2100
0000
0000
0010
0000
0000
3001
0000
0000
0000
1000
0000
0001
0000
0000
0000
,
0100
0010
0100
0001
0010
0100
1000
0001
,
0101
1001
1100
0011
,
0200
0000
0000
0310
,
1000
0001
1000
1000
0001
1000
0001
0001
,
2000
0000
3001
1000
0001
0001
1000
0001
,
2000
0000
3001
1000
0001
0001
1000
1000
,
0001
1000
0001
0001
1000
0001
1000
0001
,
0200
0000
0310
0200
0000
0000
0310
0000
,
1000
0100
0010
0001
2000
0000
3001
0000
,
0020
0000
0130
0020
0000
0000
0031
0000
,
1100
0101
1010
0011
,
1000
0001
0100
0100
0010
1000
0100
0100
,
0020
0000
0031
1000
0010
0100
0001
1000
,
0020
0000
1030
0100
0010
0001
1000
0001
,
0100
0010
1000
0100
0010
0001
1000
0010
,
0200
0000
0310
0200
0000
0000
0301
0000
,
0100
0010
0100
0001
1001
0000
0110
0000
,
0020
0000
0130
0020
0000
0000
0031
0000
,
1100
0101
0011
1010
,
1000
0100
0001
0000
0000
0000
0000
0000
,
0100
0001
1000
0001
0100
0010
1000
0000
,
0001
0100
1000
0000
0000
0000
0000
0000
,
0010
1001
0000
0000
0000
0000
0000
0000
,
0100
0000
0000
0001
1000
0000
0000
0100
,
0000
0100
0000
0100
0010
0100
0000
1000
,
0000
0000
0001
0000
1000
0100
0000
0000
,
1010
0101
0011
1100
,
0010
0000
0000
0000
;

//---------------dance-single - ----------------
#NOTES:
     dance-single:
     :
     Challenge:
     14:
     0.725,0.830,0.352,0.143,0.310: // measure 1
0000
0000
0000
0000
,  // measure 2
0000
0000
0000
0000
,  // measure 3
0000
0000
0000
0000
,  // measure 4
0000
0000
0000
0000
,  // measure 5
1000
0000
0000
0001
0100
0001
1000
0100
,  // measure 6
0000
0100
0000
0010
0001
0000
1100
0000
,  // measure 7
0101
0000
0000
1000
0001
0100
0010
1000
,  // measure 8
0000
1000
0000
0001
1000
0010
0000
0100
,  // measure 9
0000
0000
0100
0000
0001
0000
0000
0000
1000
0000
0100
1000
0000
0000
0001
0000
,  // measure 10
0101
0000
0100
0000
1010
0000
0100
0001
0100
0001
1000
0010
0100
0000
0001
0000
,  // measure 11
2001
0000
3100
1000
0010
0100
0001
0010
,  // measure 12
0002
0000
0103
0001
0100
0010
1000
0001
,  // measure 13
2000
0000
3100
1000
0010
0100
0001
0010
,  // measure 14
0100
0010
0001
1000
0010
0100
0001
1000
,  // measure 15
0010
0100
0000
0000
0001
0000
0010
0100
0000
0000
1000
0000
0100
0000
1000
0000
,  // measure 16
0010
0100
0001
0010
0100
1000
0001
0100
,  // measure 17
0001
1000
0000
0000
0010
0000
1000
0001
0000
0000
1000
0000
0100
0000
1000
0000
,  // measure 18
1010
0000
0100
0000
0101
0000
1000
0100
1000
0010
0100
0001
1000
0000
0001
0000
,  // measure 19
0100
0010
1000
0100
0010
0001
1000
0010
,  // measure 20
0100
0001
1000
0001
0100
0000
0001
0100
,  // measure 21
0010
0000
1000
0100
1000
0000
0001
0000
0100
0000
0010
0000
1000
0000
0001
0000
,  // measure 22
0000
0010
0100
0010
0001
1000
0010
0100
,  // measure 23
2002
0000
3003
0100
1000
0010
0100
0001
,  // measure 24
0220
0000
0000
0000
0330
0000
1000
0000
0001
0000
0100
0010
0100
0000
0001
0000
,  // measure 25
2020
0000
0000
0000
0000
0000
3030
0000
1000
0000
0001
0100
0001
0000
1000
0000
,  // measure 26
0010
0100
0001
1000
0010
1000
0001
0000
,  // measure 27
1000
0010
0001
0010
1000
0010
0001
0010
,  // measure 28
2000
0000
0000
0010
0000
0000
0002
0000
0000
0000
3003
0000
1001
0000
0000
0000
,  // measure 29
0100
0000
0001
0000
1000
0000
0010
0000
0100
0000
0001
0010
0100
0010
0001
0000
,  // measure 30
1000
0100
0010
0100
1000
0000
0001
1000
0100
0000
0010
0001
1000
0000
1010
0000
,  // measure 31
0000
0000
0100
0000
0001
0000
1000
0000
0101
0000
0000
0101
0000
0000
0101
0000
,  // measure 32
0000
0000
0010
0000
0100
0000
0001
0000
1100
0000
0000
1100
0000
0000
1100
0000
,  // measure 33
0000
0000
0010
0000
1000
0000
0100
0000
0010
0000
0001
0000
1000
0000
0010
0100
,  // measure 34
0010
1000
0001
1001
0000
0100
0001
1000
,  // measure 35
0020
0000
0000
1000
0000
0000
0130
0000
0000
0000
0100
0000
0010
0000
1000
0000
,  // measure 36
0002
0000
0000
0010
0000
0000
0103
0000
0000
0000
0100
0000
0001
0000
1000
0000
,  // measure 37
0100
0010
0001
1000
0010
0100
0010
1000
,  // measure 38
0100
0010
0001
1000
1010
0100
1001
0000
,  // measure 39
2000
0000
0000
0100
0000
0000
3010
0000
0000
0000
1000
0000
0100
0000
0010
0000
,  // measure 40
0002
0000
0000
0100
0000
0000
0013
0000
0000
0000
0010
0000
0001
0000
0100
0000
,  // measure 41
0010
0000
1000
0001
0100
0010
0100
0001
,  // measure 42
1001
0100
1010
0100
0101
0010
1100
0000
,  // measure 43
0001
1000
0001
1000
0001
1000
0001
1000
0001
0000
0100
0000
0010
0000
1000
0000
,  // measure 44
1100
1000
0001
0010
0100
0010
0001
1000
,  // measure 45
0010
0100
0001
0010
1000
0010
0001
1000
,  // measure 46
0010
0001
0010
0100
0010
1000
0001
0010
,  // measure 47
1000
0010
0100
1000
0010
0100
0001
0010
,  // measure 48
0100
1000
0000
0000
0010
0000
1000
0100
0000
0000
0010
0000
1000
0000
0100
0000
,  // measure 49
0010
0001
1000
0010
0100
0001
1000
0010
,  // measure 50
0100
0001
0000
0000
0010
0000
0001
0100
0000
0000
0010
0000
0100
0000
0001
0000
,  // measure 51
0101
0000
0100
0000
0110
0000
0001
0100
0010
1000
0100
0010
0001
0000
1000
0000
,  // measure 52
0010
0000
0100
0001
0100
0000
0010
1000
0100
0000
1000
0000
0001
0010
0100
1000
,  // measure 53
0001
0000
1000
0100
1000
0000
0010
0000
0100
0001
0100
0000
0010
0000
1000
0001
,  // measure 54
0010
0000
0000
0010
0001
0000
0010
0100
1000
0000
0001
0000
0100
0000
0010
0100
,  // measure 55
0001
0000
1000
0000
0100
0000
0010
0000
0001
0010
0100
1000
0001
0000
0100
0000
,  // measure 56
0010
1000
0000
0000
0100
0000
1000
0010
0000
0000
1000
0000
0100
0000
1000
0000
,  // measure 57
0010
0100
0001
0010
0100
0000
0010
0000
0001
0000
1000
0000
0010
0000
0100
0000
,  // measure 58
0001
0010
0000
0000
0100
0000
0010
0001
0000
0000
0100
0000
0001
0000
0010
0000
,  // measure 59
0001
0010
0100
1000
0001
0000
0100
0000
0010
1000
0100
0010
0001
0000
1000
0000
,  // measure 60
1010
1010
1001
0000
0100
0000
0001
0000
,  // measure 61
1000
0100
0001
0010
,  // measure 62
0011
0011
1001
0000
0010
0000
1000
0000
,  // measure 63
0001
1001
0000
0000
0010
0100
0001
1000
,  // measure 64
0100
0000
0000
0010
0001
1000
0000
0010
,  // measure 65
0000
0001
0000
1000
0100
0001
0100
1000
,  // measure 66
0000
0000
0010
0000
0100
0000
0000
0000
0001
0000
1000
0001
0000
0000
0000
0000
,  // measure 67
1100
0000
1000
0000
1001
0000
0100
0010
0100
0001
1000
0100
0010
0000
0001
0000
,  // measure 68
0100
0000
0000
0000
;

//---------------dance-single - ----------------
#NOTES:
     dance-single:
     :
     Easy:
     4:
     0.288,0.351,0.076,0.114,0.000:
0000
0000
0000
0000
,
0000
0000
0000
0000
,
0000
0000
0000
0000
,
0000
0000
0000
0000
,
1000
0000
0000
0000
,
0001
0001
0001
0000
,
0010
0000
0000
0000
,
0100
0100
0100
0000
,
1000
0000
0001
0000
,
0100
0010
0100
0010
,
2000
3100
1000
0010
,
0200
0301
0010
0001
,
2000
3100
1000
0010
,
0100
0100
0001
0000
,
1001
0000
0100
0100
0000
0000
0000
0000
,
0001
1000
0010
0000
,
1001
0000
0100
0100
0000
0000
0000
0000
,
1000
0100
0001
0000
,
0110
0001
1000
1000
,
0010
1000
0001
0000
,
0100
0001
1000
1000
,
0100
1000
0001
0000
,
0200
0300
0010
0100
,
0002
0003
0010
0100
,
2000
3000
0010
1000
,
0001
0001
1000
0000
,
0010
0010
1000
1000
,
0001
1000
0001
0000
,
0100
0100
0001
0000
,
1000
1000
0100
0000
,
0001
1000
0010
0010
,
0000
1000
0001
0100
,
0100
0000
0001
0000
,
0010
0100
1000
0000
,
0001
0001
0001
0000
,
1000
1000
1000
0000
,
0010
0010
1000
0001
,
0100
0100
0001
0000
,
1000
1000
1000
0000
,
0001
0001
0001
0000
,
0100
0001
1000
1000
,
0100
0100
0100
0100
,
0000
0000
0000
1001
,
0020
1030
0001
0100
,
0020
1030
0001
0010
,
0200
1300
0010
1000
,
0001
0001
0100
0000
,
1001
0000
0010
0010
0000
0000
0000
0000
,
1000
0100
0001
0000
,
1001
0000
0010
0010
0000
0000
0000
0000
,
0001
0100
1000
0000
,
0020
1030
0001
0010
,
0200
0310
0001
1000
,
0002
0103
0010
0100
,
0001
1000
1000
0000
,
1001
0000
0010
0010
0000
0000
0000
0000
,
1000
0010
0001
0000
,
1001
0000
0010
0010
0000
0000
0000
0000
,
0001
0010
1000
0000
,
0100
0100
0100
0000
0000
0000
0000
0000
,
1000
0000
0000
0000
,
0001
0001
0001
0000
0000
0000
0000
0000
,
0100
0000
0000
0000
,
0001
0000
0000
0000
,
1000
1000
1000
0000
,
0010
0000
0000
0000
,
1000
0100
0001
0100
,
1000
0000
0000
0000
;
