#TITLE:D Gang;
#SUBTITLE:;
#ARTIST:BanYa;
#TITLETRANSLIT:;
#SUBTITLETRANSLIT:;
#ARTISTTRANSLIT:;
#CREDIT:;
#BANNER:D Gang-banner.png;
#BACKGROUND:D Gang-bg.png;
#LYRICSPATH:;
#CDTITLE:cdtitle.png;
#MUSIC:D Gang.mp3;
#OFFSET:-0.100;
#SAMPLESTART:44.921;
#SAMPLELENGTH:17.980;
#SELECTABLE:YES;
#BPMS:0.000=150.000;
#STOPS:169.500=0.800
,183.500=0.800
;
#BGCHANGES:-0.060=D Gang.avi=1.000=0=0=0,
99999=-nosongbg-=1.000=0=0=0 // don't automatically add -songbackground-
;

//---------------dance-single - ----------------
#NOTES:
     dance-single:
     :
     Beginner:
     3:
     0.165,0.206,0.126,0.000,0.000:
0000
0000
0000
0000
,
0000
0000
0000
0000
,
0000
0000
0000
0000
,
0000
0000
0000
0000
,
1000
0000
0001
0000
,
0100
0100
0000
0000
,
0001
0000
0010
0000
,
0001
0001
0000
0000
,
1000
0000
0010
0000
,
0100
0100
0000
0000
,
1000
0000
0001
0000
,
0010
0010
0000
0000
,
0001
0000
0100
0000
,
1000
1000
0000
0000
,
0010
0000
1000
0000
,
0001
0001
0000
0000
,
0100
0000
0000
0000
,
0001
0000
1000
0000
,
0010
0000
0000
0000
,
1001
0000
0000
0000
,
0100
0000
0000
0000
,
1000
1000
1000
0000
,
0100
0000
0000
0000
,
0001
0001
0001
0000
,
0100
0000
0000
0000
,
0010
0000
0000
0000
,
1001
0000
0000
0000
,
1001
0000
0000
0000
,
0010
0000
1000
0000
,
0100
0100
0100
0000
,
0100
0000
1000
0000
,
0001
0001
0001
0000
,
0001
0000
0100
0000
,
0010
0010
0010
0000
,
0010
0000
1000
0000
,
0100
0100
0100
0000
,
0010
0000
0001
0000
,
1000
1000
1000
0000
,
1000
0000
0001
0000
,
0100
0100
0100
0000
,
0000
0000
0000
0000
,
1001
0000
1001
0000
,
1001
0000
0000
0000
,
0000
0000
0001
0001
,
0000
0000
0110
0000
,
0110
0000
0110
0000
,
0000
0000
0000
0000
,
1000
1000
0000
0000
,
0110
0000
0100
0000
,
0100
0000
0001
0000
,
1001
0000
1000
0000
,
1000
0000
0100
0000
,
0010
0010
0010
0010
,
0010
0010
0000
0000
,
0100
0000
0000
0000
,
1000
0000
0000
0000
,
1001
0000
0000
0000
;

//---------------dance-single - ----------------
#NOTES:
     dance-single:
     :
     Medium:
     7:
     0.325,0.382,0.084,0.115,0.021:
0000
0000
0000
0000
,
0000
0000
0000
0000
,
0000
0000
0000
0000
,
0000
0000
0000
0000
,
1000
0000
0100
0010
0001
0000
1000
0000
,
0001
0000
0100
0010
0000
0000
0000
0000
,
0100
0000
0001
1000
0010
0000
0100
0000
,
0001
0000
1000
0100
0000
0000
0000
0000
,
0010
0000
0001
1000
0100
0000
1000
0000
,
0010
0000
0100
0001
0000
0000
0000
0000
,
1000
0000
0100
1000
0010
0000
0100
0000
,
0001
0000
0010
0100
0000
0000
0000
0000
,
1000
0000
0100
1000
0001
0000
1000
0000
,
0010
0000
0100
0100
0000
0000
0000
0000
,
0010
0000
0100
0001
1000
0000
0001
0000
,
0010
0000
0001
0001
0000
0000
0000
0000
,
1100
0000
0000
1100
0000
0000
0000
0000
,
0010
1000
0001
0000
,
0101
0000
0000
0101
0000
0000
0000
0000
,
2002
0000
0000
3003
,
0010
1000
0001
0100
,
0010
0100
0001
0000
,
0010
0001
1000
1000
,
0100
1000
0010
0000
,
0200
0000
0000
0000
,
0320
0000
0000
0000
,
1030
0000
0000
0001
0000
0000
1001
0000
,
0200
0000
0000
0300
,
1000
0000
0001
0001
0100
0000
0010
0010
,
1000
0000
0100
0100
0000
0000
0000
0000
,
1000
0000
0100
0100
0010
0000
0001
0001
,
1000
0000
0010
0010
0000
0000
0000
0000
,
1000
0000
0100
0010
0001
0000
1000
0000
,
0001
0100
0010
1000
0000
0000
0000
0000
,
0100
0000
0001
1000
0010
0000
0100
0000
,
0001
0010
0100
1000
0000
0000
0000
0000
,
0010
0000
0100
0100
0001
0000
1000
0000
,
0100
0100
1000
1000
0000
0000
0000
0000
,
0010
0000
0100
0100
0001
0000
1000
0000
,
0001
0001
0010
0010
0000
0000
0000
0000
,
0000
0000
0000
0000
,
1000
0100
0010
0001
,
1000
0100
0010
0001
0001
0000
0100
0000
,
0010
0000
1000
0000
0001
0100
0010
1000
,
0000
0000
0100
0001
,
1000
0000
0010
0000
0100
0001
1000
0010
,
0010
1000
0001
0100
,
0010
1000
0001
0100
0000
0000
0000
0000
,
0002
0013
0020
0130
,
0200
0000
1300
1000
0000
0000
0000
0000
,
2000
3010
0020
0130
,
0200
0000
0301
0001
0000
0000
0000
0000
,
1000
0100
1000
0100
1000
0100
1000
0100
,
1000
0100
1000
0100
0000
0000
0000
0000
,
1000
0000
0001
0000
0100
0000
0010
0000
0100
0000
0001
0000
,
1000
0000
0110
0000
0000
0001
0000
0000
,
0110
0000
0000
0000
;

//---------------dance-single - ----------------
#NOTES:
     dance-single:
     :
     Hard:
     11:
     0.525,0.588,0.231,0.168,0.089:
0000
0000
0000
0000
,
0000
0000
0000
0000
,
0000
0000
0000
0000
,
0000
0000
0000
0000
,
0001
0001
0010
0001
1000
1000
0100
1000
,
0010
0010
0100
0001
0000
0000
0000
0000
,
1000
1000
0100
1000
0010
0010
1000
0001
,
0010
0010
0100
1000
0000
0000
0000
0000
,
0001
0001
0001
0010
0100
0100
0100
1000
,
0010
0010
0010
0100
0000
0000
0000
0000
,
0001
0001
1000
0010
1000
1000
0100
1000
,
0001
0001
0010
0100
0000
0000
0000
0000
,
1000
1000
1000
1000
0100
0100
0100
0100
,
0010
0010
0001
1000
0000
0000
0000
0000
,
0010
0010
1000
0001
1000
1000
0100
1000
,
0001
0001
0001
0001
0000
0000
0000
0000
,
1000
0010
0000
1000
0010
0000
0101
0000
,
1000
0010
1000
0001
0100
0010
1000
0000
,
0001
0100
0000
0001
0100
0000
1010
0000
,
0100
0001
0010
0100
1000
0010
0100
0000
,
0020
0000
2030
0000
3100
1000
0010
0100
,
0002
0000
2003
0000
3100
1000
0010
0100
,
0002
0000
0023
0000
0130
0010
0001
1000
,
0020
0000
2030
0000
3001
0100
0010
1000
,
0220
0000
0000
0330
,
1000
0000
1000
0000
0100
0010
0000
0000
0001
0000
0001
0000
0100
0010
0000
0000
,
2200
0000
3300
0202
0000
0303
2002
0003
,
3100
0000
0000
1000
0010
0000
1000
0000
0001
0000
0100
0000
0010
0000
0000
0000
,
1000
0100
0010
0001
1000
0100
0010
0001
,
1000
0100
0010
0001
0000
0000
0000
0000
,
0001
0100
0010
1000
0001
0100
0010
1000
,
0001
0100
0010
1000
0000
0000
0000
0000
,
0001
0001
0010
0100
0001
0001
0010
0100
,
0001
0001
0010
0100
0000
0000
0000
0000
,
1000
1000
0010
0100
1000
1000
0010
0100
,
1000
1000
0010
0100
0000
0000
0000
0000
,
0001
0001
0001
0001
1000
1000
1000
1000
,
0100
0010
0100
0010
0000
0000
0000
0000
,
1000
1000
1000
1000
0001
0001
0001
0001
,
0100
0010
0100
0010
0000
0000
0000
0000
,
0000
0000
0000
0000
0000
0000
0000
0000
1000
0000
0000
0100
0000
0000
0001
0000
,
1001
0100
0010
0100
1001
0100
0010
0100
,
1001
0100
0010
1000
0110
0001
1000
0001
,
0110
0001
1000
0001
0110
0001
1000
0100
,
0000
0000
0000
0000
0011
0010
0010
0010
,
0110
0010
0010
0010
1010
0010
0001
1000
,
0110
0100
0100
0100
1100
0100
0100
0100
,
0101
0001
1000
0100
0000
0000
0000
0000
,
1000
0000
0010
0000
0100
0000
0001
1000
0000
0010
0000
1000
0001
0000
0100
0000
,
0010
0000
1000
0000
0100
0010
0000
0001
0000
0000
0000
0000
0000
0000
0000
0000
,
0100
0000
0100
0000
0001
1000
0000
0001
0000
0000
0000
0000
0000
0000
0000
0000
,
0100
0000
0100
0000
0001
1000
0000
0001
0000
0000
0000
0000
0000
0000
0000
0000
,
1000
1000
0100
1000
0010
0010
1000
0001
,
0100
0100
0010
0100
0001
0001
0010
0001
,
0100
0000
0001
0000
1000
0000
0010
0000
0100
0000
0001
0000
,
1001
0000
0110
0000
0000
1001
0000
0000
,
0110
0000
0000
0000
;

//---------------dance-single - ----------------
#NOTES:
     dance-single:
     :
     Easy:
     5:
     0.232,0.323,0.094,0.294,0.000:
0000
0000
0000
0000
,
0000
0000
0000
0000
,
0000
0000
0000
0000
,
0000
0000
0000
0000
,
0200
0310
0200
0310
,
0200
0310
0000
0000
,
2000
3100
2000
3100
,
2000
3100
0000
0000
,
0002
0103
0002
0103
,
0002
0103
0000
0000
,
0020
0130
0020
0130
,
0020
0130
0000
0000
,
0002
1003
0002
1003
,
0002
1003
0000
0000
,
2000
3010
2000
3010
,
2000
3010
0000
0000
,
0110
0000
0000
0110
0000
0000
0000
0000
,
1000
0000
0001
0000
,
0110
0000
0000
0110
0000
0000
0000
0000
,
0001
0000
1000
0000
,
0200
0000
1300
0000
,
0010
0000
0010
0000
,
0200
0000
0301
0000
,
1000
0000
1000
0000
,
1001
0000
0000
0000
,
0100
0000
0000
0000
,
0110
0000
0000
0000
,
1001
0000
0000
0000
,
0200
0010
0000
0010
,
0000
0310
0000
0000
,
0020
0100
0000
0100
,
0000
0130
0000
0000
,
2000
0001
0000
0001
,
0000
3001
0000
0000
,
0002
1000
0000
1000
,
0000
1003
0000
0000
,
0200
0010
0000
0010
,
0000
0301
0000
0000
,
0002
0010
0000
0010
,
0000
1003
0000
0000
,
0000
0000
0000
0000
,
1000
0000
0001
0000
,
0100
0000
0010
0010
1000
0000
0000
0000
,
0001
0000
0000
0000
0010
0000
0100
0100
,
0000
0000
1000
0000
,
0001
0000
0000
0000
0100
0000
0001
0001
,
1000
0000
0100
0000
,
0010
0000
0100
0100
0000
0000
0000
0000
,
0010
0001
1000
0001
,
0010
0001
0000
0000
,
1000
0100
1000
0010
,
1000
0100
0000
0000
,
2002
0000
0000
0000
,
0000
0000
0000
3003
,
0010
0000
0000
0000
,
0100
0000
0100
0000
0000
0100
0000
0000
,
0110
0000
0000
0000
;

//---------------dance-single - ----------------
#NOTES:
     dance-single:
     :
     Challenge:
     16:
     0.780,0.970,0.189,0.021,0.950: // measure 1
0000
0000
0000
0000
,  // measure 2
0000
0000
0000
0000
,  // measure 3
0000
0000
0000
0000
,  // measure 4
1000
0000
0000
0010
1000
0100
1000
0000
0010
0100
0001
0010
0100
0000
1000
0000
,  // measure 5
0001
0000
0001
0100
0010
0000
0010
1000
0100
0000
0100
0010
0001
0000
0001
1000
,  // measure 6
0010
0000
0010
0100
0001
0000
1000
0000
0000
0000
0000
0000
0000
0000
0000
0000
,  // measure 7
0100
0000
0100
1000
0010
0000
0010
0100
0001
0000
0001
0010
1000
0000
1000
0010
,  // measure 8
0001
0000
0001
1000
0100
0000
1000
0000
0000
0000
0000
0000
0000
0000
0000
0000
,  // measure 9
0010
0000
0010
1000
0001
0000
0001
0100
0010
0000
0010
1000
0100
0000
0100
0010
,  // measure 10
0001
0000
0001
1000
0100
0000
0010
0000
0000
0000
0000
0000
0000
0000
0000
0000
,  // measure 11
0001
0000
0001
1000
0010
0000
0010
0100
1000
0000
1000
0100
0001
0000
0001
0010
,  // measure 12
0100
0000
0100
1000
0010
0000
0100
0000
0000
0000
0000
0000
0000
0000
0000
0000
,  // measure 13
0010
0000
1000
0100
1000
0000
0001
1000
0001
0000
0100
0010
0100
0000
0001
1000
,  // measure 14
0001
0000
0010
0100
1000
0000
0001
0000
0000
0000
0000
0000
0000
0000
0000
0000
,  // measure 15
0100
0000
0001
0010
0001
0000
1000
0001
1000
0000
0100
0010
0100
0000
1000
0100
,  // measure 16
1000
0000
0001
1000
0100
0000
0010
0000
0001
0000
1000
0000
0010
0000
0100
0000
,  // measure 17
0001
0010
0100
1000
0000
0000
0001
0010
0100
1000
0000
0000
0110
0000
0000
0000
,  // measure 18
0001
0000
1000
0100
0000
1000
0010
0000
1000
0000
0001
0000
0100
0000
0010
0000
,  // measure 19
1000
0100
0010
0001
0000
0000
1000
0100
0010
0001
0000
0000
0110
0000
0000
0000
,  // measure 20
0001
0000
1000
0010
0000
0100
0001
0000
0010
0000
0100
0000
1000
0000
0001
0000
,  // measure 21
0110
0100
0001
0010
0100
1000
0010
0100
,  // measure 22
0101
0100
0010
1000
0001
0010
0100
1000
,  // measure 23
1100
1000
0010
0100
0001
0010
0100
1000
,  // measure 24
1010
1000
0001
0100
0010
0100
0001
1000
,  // measure 25
0220
0000
0000
0330
,  // measure 26
0001
0000
0001
0000
1000
0100
1000
0100
0010
0000
0010
0000
0001
1000
0001
1000
,  // measure 27
0010
0000
0000
1100
0000
0000
0001
0000
,  // measure 28
0100
0000
0000
0010
1000
0000
0100
0000
0010
0001
0010
0100
1000
0000
0001
0000
,  // measure 29
0100
0010
0100
0010
1000
0100
0010
0001
1000
0010
1000
0010
0100
0001
0010
0100
,  // measure 30
1000
0001
1000
0001
0100
0010
1000
0000
0000
0000
0000
0000
0000
0000
0000
0000
,  // measure 31
1000
0100
1000
0100
0010
0001
1000
0010
0100
0001
0100
0001
1000
0010
0100
0001
,  // measure 32
1000
0100
1000
0100
0010
0001
1000
0000
0000
0000
0000
0000
0000
0000
0000
0000
,  // measure 33
0001
0100
0001
0100
0010
1000
0100
0010
0001
1000
0001
1000
0010
0100
0001
0010
,  // measure 34
0100
1000
0100
1000
0010
0100
0001
0000
0000
0000
0000
0000
0000
0000
0000
0000
,  // measure 35
1000
0010
1000
0010
0100
0001
0010
0100
1000
0001
1000
0001
0100
0010
1000
0001
,  // measure 36
0010
0100
0010
0100
1000
0001
0010
0000
0000
0000
0000
0000
0000
0000
0000
0000
,  // measure 37
0001
0010
0100
1000
0001
0010
0100
1000
0001
0010
0100
1000
0001
0010
0100
1000
,  // measure 38
0001
0010
0100
1000
0001
0010
0100
0000
0000
0000
0000
0000
0000
0000
0000
0000
,  // measure 39
1000
0010
0100
0001
1000
0010
0100
0001
1000
0010
0100
0001
1000
0010
0100
0001
,  // measure 40
1000
0010
0100
0001
1000
0010
0100
0000
0000
0000
0000
0000
0000
0000
0000
0000
,  // measure 41
0000
0000
0000
0000
0000
0000
0000
0000
0101
0000
0000
1001
0000
0000
1100
0000
,  // measure 42
0010
0000
1000
0100
1000
0001
0100
0001
0010
0000
0100
0010
0001
1000
0010
0100
,  // measure 43
0001
0000
1000
0100
0010
0001
1000
0000
1000
0000
0100
1000
0010
0100
0001
0010
,  // measure 44
0100
0000
0010
0001
1000
0010
0100
0001
0010
0000
0001
1000
0010
0100
0001
0000
,  // measure 45
0000
0000
0000
0000
0000
0000
0000
0000
0100
0000
0001
0010
0001
1000
0010
1000
,  // measure 46
0100
0000
0010
0100
1000
0001
0100
0010
1000
0000
0001
0010
0100
1000
0001
0000
,  // measure 47
0001
0000
0010
0001
0100
0010
1000
0100
0010
0000
0100
1000
0001
0100
0010
1000
,  // measure 48
0100
0000
1000
0001
0100
0010
1000
0000
0000
0000
0000
0000
0000
0000
0000
0000
,  // measure 49
0001
0000
0001
0000
0001
0000
0001
0100
1000
0100
0001
1000
0100
0000
0100
0000
,  // measure 50
1000
0000
1000
0000
0100
0010
0000
0001
0000
0000
0000
0000
0000
0000
0000
0000
,  // measure 51
0100
0000
0100
0000
0001
1000
0000
0001
0000
0000
0000
0000
0000
0000
0000
0000
,  // measure 52
0100
0000
0100
0000
1000
0001
0000
1000
0000
0000
0000
0000
0000
0000
0000
0000
,  // measure 53
0010
1000
0100
0010
0001
0100
0010
1000
0100
0010
0001
1000
0010
1000
0001
0010
,  // measure 54
0100
0010
0001
1000
0010
0100
0001
0010
0100
1000
0001
0100
0010
0100
0001
1000
,  // measure 55
0010
0000
1100
0000
0010
0000
0101
0000
1000
0000
0011
0000
,  // measure 56
1100
0000
1001
0000
0000
0101
0000
0000
,  // measure 57
1100
0000
0000
0000
;
