#TITLE:Young, Wild & Free;
#SUBTITLE:;
#ARTIST:B.A.P;
#TITLETRANSLIT:;
#SUBTITLETRANSLIT:;
#ARTISTTRANSLIT:;
#GENRE:For Drew P;
#CREDIT:;
#BANNER:Young, Wild & Free.png;
#BACKGROUND:Young, Wild & Free-bg.png;
#LYRICSPATH:;
#CDTITLE:;
#MUSIC:Young, Wild & Free.ogg;
#OFFSET:0.000000;
#SAMPLESTART:54.534267;
#SAMPLELENGTH:13.714000;
#SELECTABLE:YES;
#BPMS:0.000000=165.000000
;
#STOPS:
;
#BGCHANGES:8.000=Young Wild & Free.avi=1.000=0=0=1=====,
99999=-nosongbg-=1.000=0=0=0 // don't automatically add -songbackground-
;
#KEYSOUNDS:;
#ATTACKS:;

//---------------dance-single - ----------------
#NOTES:
     dance-single:
     :
     Hard:
     8:
     0.643073,0.712212,0.281796,0.289022,0.046966,544.000000,39.000000,40.000000,0.000000,0.000000,0.000000,0.643073,0.712212,0.281796,0.289022,0.046966,544.000000,39.000000,40.000000,0.000000,0.000000,0.000000:
// measure 0
0000
0000
0000
0000
,  // measure 1
0000
0000
0000
0000
,  // measure 2
0000
0000
0000
0000
,  // measure 3
0000
0000
0000
0000
,  // measure 4
1000
0100
0010
0001
1001
0000
0001
0100
,  // measure 5
0000
0010
1000
0000
0001
0000
0100
0000
,  // measure 6
0002
0000
0013
0100
2000
0000
3010
0100
,  // measure 7
0002
0000
1003
0100
0020
0000
0031
1000
,  // measure 8
0020
0000
0130
0001
2000
0000
3100
0010
,  // measure 9
0001
0001
1000
0001
0200
0000
0310
0000
,  // measure 10
2000
0000
3001
0010
0200
0000
1300
0001
,  // measure 11
0200
0000
0301
1000
0020
0000
0130
0000
,  // measure 12
0001
1000
0100
0010
0001
1000
0010
0100
,  // measure 13
0001
0010
0100
1000
0010
0100
0001
0000
,  // measure 14
1200
0000
0310
0000
1000
0100
1000
0000
,  // measure 15
0010
0100
0010
1000
0000
1000
0100
0010
,  // measure 16
0011
0000
1001
0000
1000
0100
0001
0000
,  // measure 17
1010
0000
1001
0000
0001
0010
1000
0000
,  // measure 18
0012
0000
1003
0000
0000
0010
0100
0010
,  // measure 19
1000
0100
0010
0001
1000
0000
0011
0000
,  // measure 20
2010
0000
3001
0100
0010
0100
0001
1000
,  // measure 21
0100
1100
0101
1001
,  // measure 22
0010
0100
0010
0010
1000
0100
0010
0001
,  // measure 23
1000
0000
0000
1000
0010
0000
0200
0000
0000
0000
0301
0000
1000
0000
0001
0000
,  // measure 24
0100
0010
0100
0100
0001
0010
0100
1000
,  // measure 25
0001
0000
0000
0001
0100
0000
0020
0000
0000
0000
1030
0000
0001
0000
1000
0000
,  // measure 26
0020
0000
0230
0000
0301
1000
0100
0000
,  // measure 27
0020
0000
0032
0000
1003
0010
0100
0000
,  // measure 28
0001
0010
0001
1000
0010
1000
0001
0100
,  // measure 29
0000
0010
0000
1010
0000
0101
0000
0000
,  // measure 30
2000
0000
0000
3200
0000
0000
0310
0001
,  // measure 31
0000
0001
1000
0000
0010
1000
0001
0000
,  // measure 32
0101
1000
0000
0100
0000
1000
0100
0010
,  // measure 33
0000
0100
0000
1000
0010
0100
0001
0000
,  // measure 34
1002
0000
0000
0023
0000
0000
0130
1000
,  // measure 35
0000
1000
0001
0000
0100
0001
1000
0000
,  // measure 36
0001
0100
1000
0001
0010
1000
0100
0010
,  // measure 37
0100
0000
0110
1001
,  // measure 38
1100
0100
0010
0001
1000
0000
0001
0100
,  // measure 39
0010
1000
0001
0000
1000
0010
0100
0001
,  // measure 40
0000
1000
1000
0100
0010
0010
0001
1000
,  // measure 41
0010
0100
0001
1000
0010
1000
0001
0000
,  // measure 42
0102
1003
0001
0100
,  // measure 43
2100
3001
1000
0100
,  // measure 44
1000
1000
0100
1000
0010
0010
0100
0001
,  // measure 45
1000
1000
0100
0010
0001
0001
1000
0000
,  // measure 46
0011
0010
0100
1000
0001
0000
1000
0010
,  // measure 47
0100
0001
1000
0000
0001
0100
0010
1000
,  // measure 48
0000
0001
0001
0010
0100
0100
1000
0001
,  // measure 49
0100
0010
1000
0001
0100
0001
1000
0000
,  // measure 50
2010
3001
1000
0010
,  // measure 51
0012
1003
0001
0010
,  // measure 52
0001
0001
0010
0001
0100
0100
0010
1000
,  // measure 53
0001
0001
0010
0100
1000
1000
0001
0001
,  // measure 54
0200
0000
0000
0302
,  // measure 55
0000
0000
0000
0000
1003
0100
1000
0100
,  // measure 56
0020
0000
0000
0032
,  // measure 57
0000
0000
0000
0000
1003
0010
1000
0010
,  // measure 58
0100
0000
0001
1000
0000
0000
1100
0000
,  // measure 59
0000
0001
0000
0000
1000
0010
0100
0000
,  // measure 60
0001
0000
1000
0100
0000
0001
1000
0000
,  // measure 61
0010
0100
0000
0001
1000
0000
0101
0000
,  // measure 62
1100
0000
0100
0000
0010
0000
0001
1000
0001
0000
0100
0000
0010
0000
1000
0000
,  // measure 63
0100
1000
0010
0100
0001
0010
0100
0000
,  // measure 64
1000
0000
0001
0000
0010
0000
0001
1000
0001
0000
0100
0000
0010
0000
1000
0000
,  // measure 65
0100
0010
0001
1000
0010
0100
0001
0000
,  // measure 66
1001
0000
0001
0000
0100
0000
0010
1000
0010
0000
0100
0000
0001
0000
1000
0000
,  // measure 67
0100
0000
0010
0000
0001
0000
1000
0000
0010
0100
0010
0000
1000
0000
0100
0010
,  // measure 68
0100
0000
1000
0000
0001
0000
0100
0000
0010
0000
1000
0000
0001
0010
0001
0000
,  // measure 69
0000
0000
1000
0100
1000
0000
0000
0000
0001
0000
0100
0000
0010
0000
0000
0000
,  // measure 70
1002
0000
0000
0023
0000
0000
0130
1000
,  // measure 71
0000
1000
0001
0000
0100
0001
1000
0000
,  // measure 72
1010
0001
0000
0010
0000
0001
0010
0100
,  // measure 73
0000
0010
0000
0001
0100
0010
1000
0000
,  // measure 74
2001
0000
0000
3200
0000
0000
0310
0001
,  // measure 75
0000
0001
1000
0000
0010
1000
0001
0000
,  // measure 76
1000
0010
0001
1000
0100
0001
0010
0100
,  // measure 77
0010
0000
0110
1001
,  // measure 78
0011
0010
0100
1000
0001
0000
1000
0010
,  // measure 79
0100
0001
1000
0000
0001
0100
0010
1000
,  // measure 80
0000
0001
0001
0010
0100
0100
1000
0001
,  // measure 81
0100
0010
1000
0001
0100
0001
1000
0000
,  // measure 82
2010
0000
0000
0000
3001
0000
0000
0000
1000
0100
0000
0000
0010
0000
0000
0000
,  // measure 83
0012
0000
0000
0000
1003
0000
0000
0000
0001
1000
0000
0000
0010
0000
0100
0000
,  // measure 84
0001
0001
0010
0001
0100
0100
0010
1000
,  // measure 85
0001
0001
0010
0100
1000
1000
0001
0000
,  // measure 86
1100
0100
0010
0001
1000
0000
0001
0100
,  // measure 87
0010
1000
0001
0000
1000
0010
0100
0001
,  // measure 88
0000
1000
1000
0100
0010
0010
0001
1000
,  // measure 89
0010
0100
0001
1000
0010
1000
0001
0000
,  // measure 90
0102
0000
0000
0000
1003
0000
0000
0000
0001
1000
0000
0000
0100
0000
0000
0000
,  // measure 91
2100
0000
0000
0000
3001
0000
0000
0000
1000
0001
0000
0000
0100
0000
0010
0000
,  // measure 92
1000
1000
0100
1000
0010
0010
0100
0001
,  // measure 93
1000
1000
0100
0010
0001
0010
1000
0010
;

//---------------dance-single - ----------------
#NOTES:
     dance-single:
     :
     Challenge:
     11:
     0.909386,0.949616,0.354051,0.093932,0.722554,819.000000,49.000000,13.000000,0.000000,0.000000,0.000000,0.909386,0.949616,0.354051,0.093932,0.722554,819.000000,49.000000,13.000000,0.000000,0.000000,0.000000:
0000
0000
0000
0000
,
0000
0000
0000
0000
,
0000
0000
0000
0000
,
0000
0000
0000
0000
,
1000
0000
0001
0100
0001
0100
0010
1000
0001
0000
0000
0000
1000
0000
0100
0000
,
0000
0000
0100
0010
0100
0000
0000
0000
1100
0000
0000
0000
0011
0000
0000
0000
,
1000
0100
1000
0000
0010
0000
1000
0000
0001
0100
0001
0000
1000
0000
0001
0000
,
0010
0100
0010
0000
0001
0000
1000
0000
0010
0100
0010
0000
1000
0000
0001
0000
,
0010
0100
1000
0000
0001
0000
0100
0000
0010
1000
0001
0000
0010
0000
0100
0000
,
1000
0010
0100
0001
0101
0000
1010
0000
,
0001
0100
0001
0000
0010
0000
0100
0000
1000
0100
1000
0000
0010
0000
0100
0000
,
0001
1000
0001
0000
0010
0000
0100
0000
1000
0100
1000
0000
0010
0000
0100
0000
,
0002
0000
0000
0000
,
0000
0000
0000
0003
,
1000
0100
1000
0100
1000
0100
0010
0001
1000
0000
0000
0000
0001
0000
0100
0000
,
1000
0100
0001
1000
1100
0100
0010
0000
,
0001
0010
0000
0000
0001
0010
0000
0000
0001
0010
0100
1000
0001
0000
0000
0000
,
1000
0010
0000
0000
1000
0010
0000
0000
1000
0010
0100
0001
1000
0000
0000
0000
,
0001
0100
0001
0100
0001
0000
1000
0000
1001
0000
0000
0000
1000
0100
0010
0000
,
0001
0000
0100
0000
0100
0000
0010
0000
0110
0000
0000
0000
0100
0001
0100
0001
,
1000
0100
1000
0100
0010
0000
0000
0000
1001
0000
1000
0000
0100
1000
0010
0000
,
0000
0100
0101
0001
1001
1000
1100
0100
,
1000
0100
1000
0100
0010
0001
0010
0001
0100
0000
0000
0000
0001
1000
0001
0000
,
0010
0000
0000
0010
0100
0000
2000
0000
0100
0000
0000
0000
3001
0000
0000
0000
,
0001
0010
0001
0010
0100
1000
0100
1000
0010
0000
0000
0000
1000
0001
1000
0000
,
0100
0000
0000
0100
0010
0000
0002
0000
0010
0000
0000
0000
1003
0000
0000
0000
,
0001
0100
0010
0100
0001
0000
1000
0000
0100
0000
0010
0000
0001
0000
1000
0000
,
0010
0100
0001
0100
0010
0000
1000
0000
0100
0000
0010
0000
0001
0000
0000
0000
,
1000
0010
1000
0010
1000
0010
0100
0001
1000
0000
0000
0000
0001
0010
0100
1000
,
0001
0000
0101
0100
0110
0010
1010
0000
,
1000
0000
0010
0100
0001
0000
1000
0000
0100
0000
1000
0000
0100
0000
0010
0000
,
0011
0001
1000
0001
1000
0001
1000
0010
,
0100
0001
0100
0000
0000
0000
0001
0010
0100
0000
1000
0000
0010
0100
0001
0000
,
1000
0100
1000
0000
0001
0100
0001
0000
1000
0000
0010
0000
0100
0000
0100
0000
,
0001
0000
0100
0010
1000
0000
0001
0000
0010
0000
0001
0000
0010
0000
0100
0000
,
1100
1000
0001
1000
0001
1000
0001
0100
,
0010
1000
0001
0000
1000
0000
0100
0010
0001
0000
1000
0000
0001
1000
0010
0000
,
0000
0000
1001
1001
,
0100
0001
0100
0010
1000
0100
1000
0001
0010
0100
1000
0001
1000
0010
0100
0001
,
1000
0000
0000
0000
0110
0000
0000
0000
1000
0010
1000
0010
0100
0001
0100
0001
,
1000
0001
0001
1000
0010
0010
0100
0001
,
1000
0000
0100
0000
1200
0000
0000
0000
0320
0000
0000
0000
0031
1000
0001
0000
,
0100
0010
0100
0010
1000
0000
0100
0000
1000
0000
0000
0000
0010
0000
1000
0000
,
0001
0100
0001
0100
0010
0000
1000
0000
0001
0000
0000
0000
0010
0000
0001
0000
,
1000
0100
1000
0100
0010
0001
1000
0010
0100
0001
0100
0001
1000
0100
0010
0001
,
1000
0010
0100
0001
0101
0000
1001
0000
,
0010
1000
0010
0100
0001
0010
0001
1000
0100
0010
0001
1000
0001
0100
0010
1000
,
0001
0000
0000
0000
0110
0000
0000
0000
0001
0100
0001
0100
0010
1000
0010
1000
,
0001
1000
1000
0001
0100
0100
0010
1000
,
0001
0000
0010
0000
0021
0000
0000
0000
0230
0000
0000
0000
1300
0001
1000
0000
,
0010
0100
0010
0100
0001
0000
0010
0000
0001
0000
0000
0000
0100
0000
0001
0000
,
1000
0010
1000
0010
0100
0000
0001
0000
1000
0000
0000
0000
0100
0000
1000
0000
,
0001
0010
0001
0010
0100
1000
0001
0100
0010
1000
0010
1000
0001
0010
0100
1000
,
0001
0100
0010
1000
1010
0000
1001
0000
,
0101
0000
0100
0100
0001
1000
1000
0100
,
0100
0100
0010
0001
1000
1000
1000
0000
,
1100
0000
0100
1000
1000
1000
0001
0010
,
0010
0010
0001
0001
0100
0100
0010
0000
,
2000
0010
3010
0200
0001
0301
1000
0100
,
1100
0000
0000
0000
0011
0000
0000
0000
1000
0000
0001
0000
1000
0000
0010
0100
,
0001
0000
1000
0000
0001
0000
0010
0100
1000
0000
0001
0000
1000
0000
0010
0100
,
0001
0000
0010
0100
1000
0000
0010
0100
0001
0000
1000
0000
0001
0000
0000
0000
,
1000
0010
1000
0010
1000
0010
0100
0001
1000
0000
0001
0000
0010
0100
0010
0000
,
0001
0000
0010
0000
0100
0000
1000
0000
0010
0000
0100
0000
0001
0000
1000
0100
,
0010
0000
0001
0000
1000
0010
0100
0000
0001
0000
1000
0100
0010
0000
0001
0000
,
1000
0010
1000
0010
0100
0000
0001
0000
1001
0000
0100
0000
1001
0000
0000
0000
,
0100
0000
0010
0000
1000
0100
1000
0000
0001
0100
0001
0000
1000
0010
1000
0000
,
0001
0010
0001
0000
1000
0100
1000
0000
0001
1000
0001
0000
1000
0001
1000
0000
,
0010
0000
0100
0000
0001
0100
0001
0100
0010
0000
0000
0000
1000
0000
1100
0000
,
0000
0101
0100
0010
1010
1000
1001
0000
,
0001
0000
0100
0010
1000
0000
0001
0000
0010
0000
0001
0000
0010
0000
0100
0000
,
1100
1000
0001
1000
0001
1000
0001
0100
,
0010
1000
0010
0000
0000
0000
1000
0100
0010
0000
0001
0000
0100
0010
1000
0000
,
0001
0010
0001
0000
1000
0010
1000
0000
0001
0000
0100
0000
0010
0000
0010
0000
,
1000
0000
0010
0100
0001
0000
1000
0000
0100
0000
1000
0000
0100
0000
0010
0000
,
0011
0001
1000
0001
1000
0001
1000
0010
,
0100
0001
1000
0000
0001
0000
0010
0100
1000
0000
0001
0000
1000
0001
0100
0000
,
0000
0000
1001
1001
,
0010
1000
0010
0100
0001
0010
0001
1000
0100
0010
0001
1000
0001
0100
0010
1000
,
0001
0000
0000
0000
0110
0000
0000
0000
0001
0100
0001
0100
0010
1000
0010
1000
,
0001
1000
1000
0001
0100
0100
0010
1000
,
0001
0000
0010
0000
0021
0000
0000
0000
0230
0000
0000
0000
1300
0001
1000
0000
,
0010
0100
0010
0100
0001
0000
0010
0000
0001
0000
0000
0000
0100
0000
0001
0000
,
1000
0010
1000
0010
0100
0000
0001
0000
1000
0000
0000
0000
0100
0000
1000
0000
,
0001
0010
0001
0010
0100
1000
0001
0100
0010
1000
0010
1000
0001
0010
0100
1000
,
0001
0100
0010
1000
1010
0000
1001
0000
,
0100
0001
0100
0010
1000
0100
1000
0001
0010
0100
1000
0001
1000
0010
0100
0001
,
1000
0000
0000
0000
0110
0000
0000
0000
1000
0010
1000
0010
0100
0001
0100
0001
,
1000
0001
0001
1000
0010
0010
0100
0001
,
1000
0000
0100
0000
1200
0000
0000
0000
0320
0000
0000
0000
0031
1000
0001
0000
,
0100
0010
0100
0010
1000
0000
0100
0000
1000
0000
0000
0000
0010
0000
1000
0000
,
0001
0100
0001
0100
0010
0000
1000
0000
0001
0000
0000
0000
0010
0000
0001
0000
,
1000
0100
1000
0100
0010
0001
1000
0010
0100
0001
0100
0001
1000
0100
0010
0001
,
1000
0010
0100
0101
0001
1001
1000
1100
;

//---------------dance-double - ----------------
#NOTES:
     dance-double:
     :
     Challenge:
     8:
     0.637912,0.678297,0.426307,0.411856,0.007226,502.000000,59.000000,57.000000,0.000000,0.000000,0.000000,0.637912,0.678297,0.426307,0.411856,0.007226,502.000000,59.000000,57.000000,0.000000,0.000000,0.000000:
00000000
00000000
00000000
00000000
,
00000000
00000000
00000000
00000000
,
00000000
00000000
00000000
00000000
,
00000000
00000000
00000000
00000000
,
10000000
00100000
01000000
00010000
01010000
00000000
10000000
01000000
,
00000000
01000000
01000000
00000000
00000000
00000000
00000000
00000000
,
20000000
00000000
31000000
00100000
00020000
00000000
01030000
00100000
,
00020000
00000000
00130000
00010000
00002000
00000000
00013000
00000000
,
00020000
00000000
00031000
00010000
00000200
00000000
00001300
00000010
,
00000100
00000001
00001000
00000100
00000010
00000001
00001000
00000000
,
00000002
00000000
00000013
00000100
00002000
00000000
00003010
00000100
,
00002000
00000000
00003100
00001000
00020000
00000000
00031000
00000000
,
00002000
00000000
00013000
00001000
00200000
00000000
00310000
01000000
,
00100000
10000000
00010000
00100000
01000000
10000000
00010000
00000000
,
21000000
00000000
30010000
00000000
10000000
01000000
00100000
00000000
,
01000000
10000000
00010000
01000000
00000000
01000000
00100000
10000000
,
10100000
00000000
00110000
00000000
00010000
00100000
00001000
00000000
,
00101000
00000000
00011000
00000000
00000010
00001000
00000001
00000000
,
00000011
00000000
00001100
00000000
00000001
00000100
00000010
00000100
,
00000001
00001000
00000100
00000020
00000000
00000030
00000011
00000000
,
00001100
00000000
00001000
00000100
00000100
00001000
00000010
00000100
,
00000001
00000101
00001001
00001100
,
00000100
00010000
00001000
01000000
00010000
00010000
10000000
00100000
,
01000000
00000000
00000000
01000000
00010000
00000000
10000000
00000000
00010000
00000000
00000000
00000000
10010000
00000000
00000000
00000000
,
11000000
00000000
10000000
01000000
00100000
00010000
10000000
00010000
,
01000000
00000000
00000000
01000000
00100000
00000000
10000000
00000000
00100000
00000000
00000000
00000000
10100000
00000000
00000000
00000000
,
00010000
01000000
00000000
01010000
00000000
00010000
01000000
00001000
,
00010000
00001000
00010000
00000100
00000010
00000001
00001000
00000000
,
00000001
00000100
00000000
00000101
00000000
00001010
00000000
00001001
,
00000000
00000000
00001000
00000100
00000010
00000001
00001000
00000000
,
00001002
00000000
00000003
00001020
00000000
00000030
00010200
00000000
,
00000300
00012000
00000000
00003000
00010000
00001000
00010000
00000000
,
00001000
00010000
01000000
10000000
00010000
00000000
10000000
01000000
,
00010000
01000000
10000000
00000000
00010000
10000000
00010000
00000000
,
20010000
00000000
30000000
02010000
00000000
03000000
00201000
00000000
,
00300000
00021000
00000000
00030000
00001000
00010000
00001000
00000000
,
00010000
00001000
00000010
00000001
00001000
00000010
00000100
00000001
,
00001000
00000000
00000101
00001010
,
00001001
00000001
00000010
00000100
00001000
00000000
00001000
00000010
,
00000100
00000001
00001000
00000000
00000010
00000100
00000010
00000100
,
00000000
00000001
00000001
00001000
00001000
00000100
00000010
00000001
,
00000000
00000100
00000120
00000000
00002030
00000000
00003002
00000000
,
00001003
00000100
00010000
00000000
00001000
00010000
00000100
00000000
,
00001000
00000100
00000010
00000001
00001000
00000010
00000100
00000000
,
00000002
00000000
00000103
00000010
00002000
00000000
00003100
00010000
,
00002000
00000000
00103000
00010000
00110000
00000000
10100000
00000000
,
10010000
10000000
01000000
00100000
00010000
00000000
00010000
01000000
,
00100000
10000000
00010000
00000000
01000000
00100000
01000000
00100000
,
00000000
10000000
10000000
00010000
00010000
00100000
01000000
10000000
,
00000000
00100000
02100000
00000000
03020000
00000000
20030000
00000000
,
30010000
00100000
00001000
00000000
00010000
00001000
00100000
00000000
,
00010000
00100000
01000000
10000000
00010000
01000000
00100000
00000000
,
20000000
00000000
30100000
01000000
00020000
00000000
00130000
00001000
,
00020000
00000000
00030100
00001000
00001100
00000000
00000101
00000000
,
00002002
00000000
00000000
00003003
,
00000020
00000000
00000000
00000030
,
00000001
00000100
00001000
00000010
,
00000001
00000000
00000000
00000000
,
00001000
00000000
00000000
00000010
00000000
00000000
00001010
00000000
,
00000001
00000000
00001000
00000100
00000010
00000000
00000001
00000000
,
00001000
00000100
00001000
00000000
00000100
00010000
00000100
00000000
,
00010000
00001000
00010000
00000000
00001000
01000000
00001000
00000000
,
01010000
01000000
00000000
00100000
00000000
10000000
01000000
00100000
,
00000000
00100000
00000000
00010000
10000000
00010000
01000000
00000000
,
00100000
00100000
00000000
10000000
01000000
00100000
00010000
00010000
,
00000000
00100000
00001000
01000000
00001000
00000100
00000001
00001000
,
00001010
00000010
00000000
00000100
00000000
00000001
00000010
00000100
,
00000000
00000100
00000000
00001000
00000001
00001000
00000010
00000000
,
00000100
00000100
00000000
00000001
00000010
00000100
00001000
00001000
,
00000000
00000100
00010000
00000010
00010000
00100000
10000000
00010000
,
20010000
00000000
30000000
02010000
00000000
03000000
00201000
00000000
,
00300000
00021000
00000000
00030000
00001000
00010000
00001000
00000000
,
00010000
00001000
00000010
00000001
00001000
00000000
00000001
00000010
,
00001000
00000010
00000001
00000000
00001000
00000001
00001000
00000000
,
00001002
00000000
00000003
00001020
00000000
00000030
00010200
00000000
,
00000300
00012000
00000000
00003000
00010000
00001000
00010000
00000000
,
00001000
00010000
01000000
10000000
00010000
01000000
00100000
10000000
,
00010000
00000000
10100000
01010000
,
10010000
10000000
01000000
00100000
00010000
00000000
00010000
01000000
,
00100000
10000000
00010000
00000000
01000000
00100000
01000000
00100000
,
00000000
10000000
10000000
00010000
00010000
00100000
01000000
10000000
,
00000000
00100000
02100000
00000000
03020000
00000000
20030000
00000000
,
30010000
00100000
00001000
00000000
00010000
00001000
00100000
00000000
,
00010000
00100000
01000000
10000000
00010000
01000000
00100000
00000000
,
20000000
00000000
30100000
01000000
00020000
00000000
00130000
00001000
,
00020000
00000000
00030100
00001000
00001100
00000000
00000101
00000000
,
00001001
00000001
00000010
00000100
00001000
00000000
00001000
00000010
,
00000100
00000001
00001000
00000000
00000010
00000100
00000010
00000100
,
00000000
00000001
00000001
00001000
00001000
00000100
00000010
00000001
,
00000000
00000100
00000120
00000000
00002030
00000000
00003002
00000000
,
00001003
00000100
00010000
00000000
00001000
00010000
00000100
00000000
,
00001000
00000100
00000010
00000001
00001000
00000010
00000100
00000000
,
00000002
00000000
00000103
00000010
00002000
00000000
00003100
00010000
,
00002000
00000000
00103000
00010000
00100000
00100000
00010000
11000000
;

//---------------dance-single - ----------------
#NOTES:
     dance-single:
     :
     Medium:
     6:
     0.348890,0.509400,0.180638,0.028902,0.000000,309.000000,25.000000,4.000000,0.000000,0.000000,0.000000,0.348890,0.509400,0.180638,0.028902,0.000000,309.000000,25.000000,4.000000,0.000000,0.000000,0.000000:
0000
0000
0000
0000
,
0000
0000
0000
0000
,
0000
0000
0000
0000
,
0000
0000
0000
0000
,
0100
0010
1000
0100
,
0010
0001
1000
0000
,
0101
0100
1010
0010
,
1100
0100
0011
0000
,
1001
0001
0110
0100
,
1001
1000
0110
0000
,
0011
0000
0100
1000
0010
0000
0100
0001
,
0010
0000
0100
1000
0010
0000
0000
0000
,
2002
0000
0000
0000
,
0000
0000
0000
3003
,
1000
0001
0100
0100
,
0010
1000
0010
0000
1000
0000
0000
0000
,
0001
0000
1000
0000
0100
0010
0100
0000
,
1000
0000
0001
0000
0100
0010
0100
0000
,
0001
1000
0100
0000
,
0010
0001
0010
0000
0001
0000
0000
0000
,
0100
0001
1000
0000
,
0010
1000
0010
0000
1000
0000
0000
0000
,
0001
1000
0010
0100
,
0001
1000
0100
0010
0001
0000
0000
0000
,
1000
0001
0100
0010
,
1000
0100
0010
0001
1000
0000
0000
0000
,
0010
1000
0001
0100
,
0010
1000
0100
0010
,
0001
1000
0010
0100
,
0001
1000
0001
0000
0100
0000
0000
0000
,
0001
0000
0000
1000
0000
0000
0010
0000
,
0000
0100
0000
0000
0001
0000
0000
0000
,
1000
0100
0000
0100
0000
0100
1000
0100
,
0000
0100
0000
0100
1000
0000
0000
0000
,
1000
0000
0000
0010
0000
0000
0100
0000
,
0000
0001
0000
0000
1000
0000
0000
0000
,
0001
0010
0000
0010
0000
0010
0001
0000
,
0011
0000
0000
0000
,
1001
0100
1000
0010
,
0100
0000
0001
0000
1000
0100
0010
0001
,
0000
1000
0001
0100
,
0100
0010
1000
0000
,
0001
1000
0010
0100
,
0001
1000
0100
0000
,
1000
0000
1000
0100
0010
0000
0010
0001
,
1000
0000
1010
0101
,
1001
0010
0001
0100
,
0010
0000
1000
0000
0001
0010
0100
1000
,
0000
0001
1000
0010
,
0010
0100
0001
0000
,
1000
0001
0100
0010
,
1000
0001
0010
0000
,
0001
0000
0001
0010
0100
0000
0100
1000
,
0001
0000
0101
1001
,
2000
0000
0000
0000
,
0000
0000
0000
3000
,
0002
0000
0000
0000
,
0000
0000
0000
0003
,
0100
0000
0000
0100
0000
0000
0100
0000
,
0100
0000
0000
0000
,
0010
0000
0000
0010
0000
0000
0010
0000
,
0010
0000
0000
0000
,
1000
0000
0000
0001
0000
0000
0010
0000
,
0000
0001
0000
0000
1000
0000
0000
0000
,
0001
0000
0000
0100
0000
0000
0010
0000
,
0000
1000
0000
0000
0001
0000
0000
0000
,
1000
0000
0000
0001
0000
0000
0010
0000
,
0000
0100
0000
0000
1000
0000
0000
0000
,
0010
1000
0001
0100
,
0010
1000
0001
0000
,
1000
0000
0000
0100
0000
0000
0010
0000
,
0000
0001
0000
0000
1000
0000
0000
0000
,
0001
0100
0000
0100
0000
0100
0010
0100
,
0000
0100
0000
0100
0010
0000
0000
0000
,
0100
0000
0000
0001
0000
0000
1000
0000
,
0000
0100
0000
0000
0010
0000
0000
0000
,
0001
1000
0000
1000
0000
1000
0010
0000
,
1001
0000
0000
0000
,
1001
0010
0001
0100
,
0010
0000
1000
0000
0001
0010
0100
1000
,
0000
0001
1000
0010
,
0010
0100
0001
0000
,
1000
0001
0100
0010
,
1000
0001
0010
0000
,
0001
0000
0001
0010
0100
0000
0100
1000
,
0001
0000
0101
1010
,
1001
0100
1000
0010
,
0100
0000
0001
0000
1000
0100
0010
0001
,
0000
1000
0001
0100
,
0100
0010
1000
0000
,
0001
1000
0010
0100
,
0001
1000
0100
0000
,
1000
0000
1000
0100
0010
0000
0010
0001
,
1000
0000
1010
1001
,
0101
0000
0000
0000
;

//---------------dance-single - ----------------
#NOTES:
     dance-single:
     :
     Easy:
     4:
     0.216766,0.305640,0.050579,0.014451,0.000000,201.000000,7.000000,2.000000,0.000000,0.000000,0.000000,0.216766,0.305640,0.050579,0.014451,0.000000,201.000000,7.000000,2.000000,0.000000,0.000000,0.000000:
0000
0000
0000
0000
,
0000
0000
0000
0000
,
0000
0000
0000
0000
,
0000
0000
0000
0000
,
1000
0000
0001
0000
,
0100
0000
0000
0000
,
0010
0000
0010
0000
,
0010
0000
0010
0000
,
1000
0000
1000
0000
,
1000
0000
1000
0000
,
0100
0000
0100
0000
,
0100
0000
0100
0000
,
2002
0000
0000
0000
,
0000
0000
3003
0000
,
0100
0000
0001
0000
,
1000
1000
1000
0000
,
0100
0000
1000
0000
,
0010
0100
0010
0100
,
0001
0000
1000
0000
,
0100
0100
0100
0000
,
0010
0000
0001
0000
,
1000
1000
1000
0000
,
0010
0000
0100
0000
,
0001
0010
0100
0000
,
1000
0000
0001
0000
,
0100
0010
1000
0000
,
0001
0100
0001
0000
,
1000
0000
0001
0000
,
1000
0100
1000
0000
,
0001
0000
1000
0000
,
0010
0000
1000
0000
,
0001
0000
0100
0000
,
0001
1000
0001
1000
,
0001
1000
0001
0000
,
1000
0000
0001
0000
,
0010
0000
0100
0000
,
1000
0001
1000
0001
,
1000
0000
0000
0000
,
1001
0000
1000
0000
,
0001
0000
0100
0010
,
1000
0000
0100
0000
,
0010
0001
1000
0000
,
0010
0000
0100
0000
,
0001
0000
1000
0000
,
0100
0100
0100
0010
,
0010
0001
1000
0000
,
1001
0000
1000
0000
,
0010
0000
0100
0001
,
1000
0000
0100
0100
,
0100
0000
0010
0000
,
0001
0000
1000
0000
,
0010
0000
0100
0000
,
0001
0001
1000
0100
,
0100
0000
0010
0010
,
1001
0000
0000
0000
,
0000
0000
0000
0000
,
1000
0000
0000
0000
,
0000
0000
0000
0000
,
0010
0000
0010
0000
,
0100
0000
0000
0000
,
0100
0000
0100
0000
,
0001
0000
0000
0000
,
1000
0100
0010
0001
,
1000
0000
0000
0000
,
0001
0100
0010
1000
,
0001
0000
0000
0000
,
1000
0100
1000
0001
,
0010
0000
0000
0000
,
0001
0100
0001
1000
,
0010
0000
0000
0000
,
1000
0000
0001
0000
,
0100
0000
0010
0000
,
1000
0001
1000
0001
,
1000
0000
0001
0000
,
0100
0000
0001
0000
,
0010
0000
0100
0000
,
1000
1000
0001
0100
,
0100
0000
0000
0000
,
1001
0000
0100
0000
,
0010
0000
1000
0100
,
0010
0000
0001
0001
,
1000
0000
0010
0000
,
0100
0100
0000
0000
,
0001
0001
0000
0000
,
1000
0000
0001
0000
,
0100
0000
0010
0000
,
0110
0000
1001
0000
,
0000
0000
1000
0100
,
0010
0000
0001
0000
,
1000
0000
0000
0000
,
0010
0000
0010
0000
,
1000
0000
1000
0000
,
0001
0000
1000
0000
,
0100
0000
0010
0001
,
1000
0000
0000
0000
;

//---------------dance-single - ----------------
#NOTES:
     dance-single:
     :
     Beginner:
     2:
     0.129027,0.203760,0.050579,0.000000,0.000000,118.000000,7.000000,0.000000,0.000000,0.000000,0.000000,0.129027,0.203760,0.050579,0.000000,0.000000,118.000000,7.000000,0.000000,0.000000,0.000000,0.000000:
0000
0000
0000
0000
,
0000
0000
0000
0000
,
0000
0000
0000
0000
,
0000
0000
0000
0000
,
0100
0000
0000
0000
,
0001
0000
0000
0000
,
1000
0000
1000
0000
,
1000
0000
0000
0000
,
0001
0000
0001
0000
,
0001
0000
0000
0000
,
0010
0000
0010
0000
,
0010
0000
0000
0000
,
0100
0000
0000
0000
,
0000
0000
0000
0000
,
1001
0000
0000
0000
,
1000
0000
1000
0000
,
0010
0000
0000
0000
,
0100
0000
0000
0000
,
0001
0001
0000
0000
,
1000
0000
0000
0000
,
0100
0100
0000
0000
,
0010
0000
0000
0000
,
0001
0000
0000
0000
,
1000
0000
0000
0000
,
0010
0000
0000
0000
,
0100
0000
0000
0000
,
0001
0000
0001
0000
,
1000
0000
0000
0000
,
1000
0000
1000
0000
,
0001
0000
0000
0000
,
1000
0000
0000
0000
,
0010
0000
0000
0000
,
0100
0000
0100
0000
,
0100
0000
0000
0000
,
0001
0000
0000
0000
,
0010
0000
0000
0000
,
0100
0000
0100
0000
,
0100
0000
0000
0000
,
1001
0000
0000
0000
,
1000
0000
0010
0010
,
0010
0000
0000
0000
,
0100
0000
0000
0000
,
0001
0000
0000
0000
,
1000
0000
0000
0000
,
0100
0000
0100
0000
,
0100
0000
0000
0000
,
1001
0000
0000
0000
,
1000
0000
0010
0010
,
0010
0000
0000
0000
,
1000
0000
0000
0000
,
0100
0000
0000
0000
,
0010
0000
0000
0000
,
0001
0000
0001
0000
,
1000
0000
1000
0000
,
0010
0000
0000
0000
,
0000
0000
0000
0000
,
0100
0000
0000
0000
,
0000
0000
0000
0000
,
0001
0000
0000
0000
,
1000
0000
0000
0000
,
0100
0000
0000
0000
,
0100
0000
0000
0000
,
1001
0000
0000
0000
,
1000
1000
0000
0000
,
0001
0000
0000
0000
,
0010
0010
0000
0000
,
0100
0000
0000
0000
,
1000
0000
1000
0000
,
0010
0000
0000
0000
,
0010
0000
0010
0000
,
0100
0000
0000
0000
,
0001
0000
0000
0000
,
1000
0000
1000
0000
,
1000
0000
0000
0000
,
0100
0000
0000
0000
,
0010
0000
0000
0000
,
0001
0000
0001
0000
,
0001
0000
0000
0000
,
1001
0000
0000
0000
,
0001
0000
0100
0100
,
0100
0000
0000
0000
,
0010
0000
0000
0000
,
1000
0000
0000
0000
,
0100
0000
0000
0000
,
0010
0000
0010
0000
,
0010
0000
0000
0000
,
1001
0000
0000
0000
,
1000
0000
0001
0001
,
0001
0000
0000
0000
,
0100
0000
0000
0000
,
0010
0000
0000
0000
,
1000
0000
0000
0000
,
0100
0000
0100
0000
,
0010
0000
0010
0000
,
1001
0000
0000
0000
;
