#TITLE:Throne;
#SUBTITLE:;
#ARTIST:Bring Me The Horizon;
#TITLETRANSLIT:;
#SUBTITLETRANSLIT:;
#ARTISTTRANSLIT:;
#GENRE:Linkin Park?;
#CREDIT:;
#BANNER:Throne.png;
#BACKGROUND:Throne-bg.png;
#LYRICSPATH:;
#CDTITLE:;
#MUSIC:Throne.ogg;
#OFFSET:0.000000;
#SAMPLESTART:91.674026;
#SAMPLELENGTH:13.714000;
#SELECTABLE:YES;
#BPMS:0.000000=144.000000
;
#STOPS:
;
#BGCHANGES:4.000=Throne.avi=1.000=0=0=1=====,
99999=-nosongbg-=1.000=0=0=0 // don't automatically add -songbackground-
;
#KEYSOUNDS:;
#ATTACKS:;

//---------------dance-single - ----------------
#NOTES:
     dance-single:
     :
     Hard:
     9:
     0.638948,0.642941,0.341547,0.121981,0.333415,493.000000,42.000000,15.000000,0.000000,0.000000,0.000000,0.638948,0.642941,0.341547,0.121981,0.333415,493.000000,42.000000,15.000000,0.000000,0.000000,0.000000:
0000
0000
0000
0000
,
0000
0000
0000
0000
,
0000
0000
0000
0000
,
0000
0000
0000
0000
,
1000
0000
0010
0100
0010
0000
1000
0000
0100
0000
0000
0000
0010
0000
0001
0000
,
1000
0010
1000
0000
0001
0000
0100
0000
0010
0000
1000
0100
1000
0000
0001
0000
,
0001
0000
0100
0010
0100
0000
0001
0000
0010
0000
0000
0000
0100
0000
1000
0000
,
0001
0100
0001
0000
1000
0000
0010
0000
0100
0000
0110
0000
1001
0000
0000
0000
,
0010
0000
0000
0000
0101
0000
0000
1000
0100
0000
1000
0000
0000
0001
0100
0000
,
0010
0000
0000
0000
1000
0000
0001
0100
0001
0000
1000
0000
0010
0000
0000
0000
,
1000
0000
0000
0000
1100
0000
0000
0010
0001
0000
1000
0000
0000
0010
0100
0000
,
0001
0000
0000
0000
1000
0000
0001
0100
0010
0000
1000
0000
0001
0000
0010
0000
,
0100
0000
0000
0000
0011
0000
0000
0001
1000
0000
0001
0000
0000
1000
0010
0000
,
0100
0000
0000
0000
0001
0000
1000
0010
1000
0000
0001
0000
0100
0000
0000
0000
,
1001
0000
0000
0000
0011
0000
0000
0100
1000
0000
0001
0000
0000
0100
0010
0000
,
1000
0000
0000
0000
0001
0000
1000
0010
0100
0000
0001
0000
1000
0000
0010
0000
,
0100
0000
0100
0000
0001
0010
0100
1000
,
0010
0000
0010
0000
1000
0100
0010
0001
,
1000
1000
0100
1000
0001
0001
0100
0010
,
1000
0000
0001
0000
0010
0100
0010
0001
,
0100
0000
0000
0100
0010
0000
0000
0000
0100
0000
0001
0000
0010
0000
0100
0000
,
1000
0000
0000
1000
0001
0000
0000
0000
1000
0000
0100
0000
0010
0000
0001
0000
,
1000
0010
1000
0001
0100
0010
1000
0100
,
0020
0000
0031
0000
0010
0001
1000
0001
,
0010
0100
1000
0000
0001
0000
0100
0010
1000
0000
0001
0000
0010
0100
0010
0000
,
0001
0000
1000
0010
0100
0000
0001
0000
2000
0000
0000
0000
3100
0000
0000
0000
,
1000
0100
0010
0001
0011
0000
1100
0000
,
0001
0100
0010
1000
0101
0000
1100
0000
,
0100
0010
0001
0000
1000
0000
0010
0100
0001
0000
1000
0000
0100
0010
0100
0000
,
1000
0000
0001
0100
0010
0000
1000
0000
0002
0000
0000
0000
0013
0000
0000
0000
,
0001
0010
0100
1000
1100
0000
0011
0000
,
1001
0000
0000
0000
,
1001
0000
0000
0000
1010
0000
0000
0001
0010
0000
0001
0000
0000
1000
0010
0000
,
0100
0000
0000
0000
0001
0000
1000
0010
1000
0000
0001
0000
0100
0000
0000
0000
,
0001
0000
0000
0000
0011
0000
0000
0100
1000
0000
0001
0000
0000
0100
0010
0000
,
1000
0000
0000
0000
0001
0000
1000
0010
0100
0000
0001
0000
1000
0000
0100
0000
,
0010
0000
0000
0000
1100
0000
0000
1000
0001
0000
1000
0000
0000
0001
0100
0000
,
0010
0000
0000
0000
1000
0000
0001
0100
0001
0000
1000
0000
0010
0000
0000
0000
,
1001
0000
0000
0000
1100
0000
0000
0010
0001
0000
1000
0000
0010
0100
0010
0100
,
0001
0000
0000
0000
0000
0110
1001
0000
,
0100
0000
0000
0100
0001
0000
0000
0001
1000
0000
0000
0000
0010
0000
1000
0000
,
0001
0000
0010
0100
0000
0100
1000
0000
0001
0000
0000
0000
1000
0000
0010
0000
,
0100
0000
0001
1000
0000
1000
0100
0000
0010
0000
0000
0000
0001
0000
0010
0000
,
0100
0000
0000
1000
0000
0000
0010
0000
0100
0000
0000
0001
1000
0000
0001
0100
,
0010
0000
0000
0010
1000
0000
0000
1000
0001
0000
0000
0000
0100
0000
0001
0000
,
1000
0000
0100
0010
0000
0010
0001
0000
1000
0000
0000
0000
0001
0000
0100
0000
,
0010
0000
1000
0001
0000
0001
0010
0000
0100
0000
0000
0000
1000
0000
0100
0000
,
0010
0000
0000
0001
0000
0000
0100
0000
0010
1000
0010
0000
0100
0000
0001
0000
,
1000
0100
0010
0000
0001
0000
1000
0010
0100
0000
0001
0000
0010
0100
1000
0000
,
0001
0000
0010
0001
0100
0000
0010
0000
1000
0000
0001
0000
0100
0000
0000
0000
,
0010
1000
0100
0010
0001
1000
0001
0000
,
0010
0001
0100
0010
1000
0001
1000
0000
,
0001
0010
0100
0000
1000
0000
0001
0100
0010
0000
1000
0000
0100
0010
0001
0000
,
1000
0000
0100
1000
0010
0000
0100
0000
0001
0000
1000
0000
0010
0000
0000
0000
,
0100
0000
0001
0000
0010
0000
0100
0000
1000
0001
1000
0100
0010
0001
0010
0100
,
1000
0000
0000
0000
,
0101
0000
0100
0000
0010
0000
1000
0000
0100
0000
0010
0000
0001
1000
0001
0000
,
0100
0000
0010
0000
1000
0000
0100
0000
0010
0001
0010
0001
1000
0000
0000
0000
,
0010
0100
0001
0010
0100
1000
0001
0100
,
0010
0000
1000
0000
0100
0000
0010
0000
0001
1000
0010
0100
0001
0000
0000
0000
,
1010
0000
0010
0000
0100
0000
0001
0000
0010
0000
0100
0000
1000
0001
1000
0000
,
0010
0000
0100
0000
0001
0000
0010
0000
0100
1000
0100
1000
0001
0000
0000
0000
,
0100
0010
1000
0100
0010
0001
1000
0010
,
0100
0000
0001
0000
0010
0000
0100
0000
1000
0001
0100
0010
1000
0000
0000
0000
,
0012
0000
0003
2010
0000
3000
1200
0000
,
0300
0102
0000
0003
2002
0000
0000
3003
,
0001
0000
0010
0001
0100
0000
0010
0000
0110
0000
0000
0000
1001
0000
0000
0000
,
1000
0000
0100
1000
0010
0000
0100
0000
0110
0000
0000
0000
1001
0000
0000
0000
,
2100
0000
3000
0102
0000
0003
0021
0000
,
0030
2010
0000
3000
2002
0000
0000
3003
,
1000
0000
0100
1000
0010
0000
0100
0000
0110
0000
0000
0000
1001
0000
0000
0000
,
0001
0000
0010
0001
0100
0000
0010
0000
0110
0000
1000
0000
1010
0000
0001
0000
;

//---------------dance-single - ----------------
#NOTES:
     dance-single:
     :
     Challenge:
     12:
     0.947966,0.986724,0.252094,0.008132,1.000000,784.000000,31.000000,1.000000,0.000000,0.000000,0.000000,0.947966,0.986724,0.252094,0.008132,1.000000,784.000000,31.000000,1.000000,0.000000,0.000000,0.000000:
0000
0000
0000
0000
,
0000
0000
0000
0000
,
0000
0000
0000
0000
,
0000
0000
0000
0000
,
1000
0000
0001
0100
0001
0100
0010
0000
0010
0000
1000
0100
1000
0000
0001
0000
,
1000
0100
0010
0000
0001
0000
1000
0000
0010
0000
0100
0001
1000
0000
1000
0000
,
0001
0000
1000
0010
1000
0010
0100
0000
0100
0000
0001
0010
0001
0000
1000
0000
,
0001
0010
0100
0000
1000
0000
0001
0000
0100
0000
0110
0000
1001
0000
0000
0000
,
0100
0001
0100
0010
1000
0100
0010
0001
0010
0100
1000
0001
0010
0100
1000
0010
,
0100
0001
0010
0001
0100
0010
1000
0100
1000
0000
0001
0000
0100
0000
0000
0000
,
0010
0100
0010
1000
0100
0010
0001
1000
0010
0100
0010
1000
0100
0010
0001
1000
,
0010
0100
0001
0010
0100
1000
0001
0100
0010
0000
1000
0000
1001
0000
0000
0000
,
0010
1000
0010
0100
0001
0010
0100
1000
0100
0010
0001
1000
0100
0010
0001
0100
,
0010
1000
0100
1000
0010
0100
0001
0010
0001
0000
1000
0000
0010
0000
0000
0000
,
0100
0010
0100
0001
0010
0100
1000
0001
0100
0010
0100
0001
0010
0100
1000
0001
,
0100
0010
1000
0100
0010
0001
1000
0010
0100
0001
0100
0001
1000
0010
1000
0010
,
0100
0000
0000
0001
0100
0000
0000
0010
1000
0000
0100
0000
1000
0000
0010
0000
,
0100
0000
0001
0010
0000
0100
1000
0000
0001
0000
1000
0000
0010
0000
0100
0000
,
1000
0000
0100
0001
0000
1000
0100
0000
0010
0000
0001
0000
1000
0000
0010
0100
,
0001
0000
0000
1000
0000
0000
0100
0000
0110
0000
0000
0100
1000
0000
0001
0100
,
0010
0000
0000
1000
0010
0000
0000
0100
0001
0000
0010
0000
0001
0000
0100
0000
,
0010
0000
1000
0100
0000
0010
0001
0000
1000
0000
0001
0000
0100
0000
0010
0000
,
0001
0000
0010
1000
0000
0001
0010
0000
0100
0000
1000
0000
0001
0000
0100
0010
,
1000
0000
0000
0001
0000
0000
0100
0010
1000
0100
0010
0001
1000
0100
0010
0001
,
1000
0010
1000
0010
0100
0000
0001
0010
0001
0010
0100
0000
1000
0010
1000
0010
,
0100
0000
0001
1000
0001
1000
0001
1000
0010
0100
0010
0100
0010
0000
0000
0000
,
1000
0100
0010
0001
1000
0100
0010
0001
1000
0000
0000
0000
1001
0000
0000
0000
,
0001
0100
0010
1000
0001
0100
0010
1000
0001
0000
0000
0000
1001
0000
0000
0000
,
0001
0100
0001
0100
0010
0000
1000
0100
1000
0100
0010
0000
0001
0100
0001
0100
,
0010
0000
1000
0001
1000
0001
1000
0001
0100
0010
0100
0010
0100
0000
0000
0000
,
0001
0010
0100
1000
0001
0010
0100
1000
0001
0100
0010
1000
0100
0010
0001
1000
,
0010
0000
0000
0000
,
0010
1000
0010
0100
0001
0010
0100
1000
0100
0010
0001
1000
0100
0010
0001
0100
,
0010
1000
0100
1000
0010
0100
0001
0010
0001
0000
1000
0000
0010
0000
0000
0000
,
0100
0010
0100
0001
0010
0100
1000
0001
0100
0010
0100
0001
0010
0100
1000
0001
,
0100
0010
1000
0100
0010
0001
1000
0010
0100
0000
0001
0000
1001
0000
0000
0000
,
0100
0001
0100
0010
1000
0100
0010
0001
0010
0100
1000
0001
0010
0100
1000
0010
,
0100
0001
0010
0001
0100
0010
1000
0100
1000
0000
0001
0000
0100
0000
0000
0000
,
0010
0100
0010
1000
0100
0010
0001
1000
0010
0100
0010
1000
0100
0010
0001
1000
,
0020
0000
0000
0000
0130
0110
1001
0000
,
0101
0000
0100
0001
1000
0000
0100
1000
0001
0000
0000
0000
0100
0000
0010
0000
,
1000
0000
0100
0010
0001
0010
0100
0000
1001
0000
0000
0000
0001
0000
0100
0000
,
0010
0000
1000
0100
0010
0100
1000
0000
1001
0000
0000
0000
1000
0000
0010
0000
,
0100
0000
0100
0001
0000
0001
1000
0000
1100
0000
0000
0010
0100
0000
0001
1000
,
0010
0000
0010
1000
0001
0000
0010
0001
1000
0000
0000
0000
0010
0000
0100
0000
,
0001
0000
0010
0100
1000
0100
0010
0000
1001
0000
0000
0000
1000
0000
0010
0000
,
0100
0000
0001
0010
0100
0010
0001
0000
1001
0000
0000
0000
0001
0000
0100
0000
,
0010
0000
0010
1000
0000
1000
0001
0100
0001
0010
0100
1000
0001
0010
0100
1000
,
0001
0100
0001
0100
0010
0000
1000
0100
1000
0100
0010
0000
0001
0100
0001
0100
,
0010
0000
1000
0001
1000
0001
1000
0001
0100
0010
0100
0010
0100
0000
0000
0000
,
0001
0010
0100
1000
0001
0010
0100
1000
0001
0000
0000
0000
1001
0000
0000
0000
,
1000
0010
0100
0001
1000
0010
0100
0001
1000
0000
0000
0000
1001
0000
0000
0000
,
1000
0010
1000
0010
0100
0000
0001
0010
0001
0010
0100
0000
1000
0010
1000
0010
,
0100
0000
0001
1000
0001
1000
0001
1000
0010
0100
0010
0100
0010
0000
0000
0000
,
1000
0100
0010
0001
1000
0100
0010
0001
1000
0010
0100
0001
0010
0100
1000
0001
,
0100
0010
0100
0000
0001
0000
1000
0000
1000
0000
0100
0010
0100
0000
0000
0000
1100
0000
0000
0000
0100
0000
1000
0000
0010
0000
0100
0000
0001
0000
1000
0000
,
0010
1000
0001
0010
0100
1000
0010
0100
0010
1000
0100
0010
0001
1000
0010
0100
,
0001
0000
0101
0000
0100
0010
1000
0000
0001
0010
0001
1000
0100
0010
0001
1000
,
0010
0100
0010
1000
0100
1000
0001
0100
0010
0100
0001
0010
0100
1000
0010
0100
,
0001
0000
0101
0000
1100
0000
0010
0000
0011
0000
0010
0001
0100
0010
1000
0001
,
0100
0001
1000
0100
0010
0001
0100
0010
0100
0001
0010
0100
1000
0001
0100
0010
,
1000
0000
1010
0000
0010
0100
0001
0000
1000
0100
1000
0001
0010
0100
1000
0001
,
0100
0010
0100
0001
0010
0001
1000
0010
0100
0010
1000
0100
0010
0001
0100
0010
,
1000
0100
0010
0001
1000
0010
0100
0001
1000
0010
0100
0010
1000
0000
0001
0010
,
0100
0010
0001
0000
1000
0100
0010
0100
1000
0000
0001
0100
0010
0100
0001
0000
,
1000
0100
0010
0001
1000
0000
0000
0000
0001
0000
0100
0000
0010
0000
1000
0000
,
1010
0000
1001
0000
1000
0100
0010
0001
,
0011
0000
0000
0000
1001
0000
0000
0000
0001
0100
0010
0100
0001
0000
1000
0100
,
0010
0100
1000
0000
0001
0010
0100
0010
0001
0000
1000
0010
0100
0010
1000
0000
,
0001
0010
0100
1000
0001
0000
0000
0000
1000
0000
0010
0000
0100
0000
0001
0000
,
0101
0000
1001
0000
0001
0010
0100
1000
,
1100
0001
1001
0100
0000
0000
0000
0000
;

//---------------dance-single - ----------------
#NOTES:
     dance-single:
     :
     Medium:
     7:
     0.491409,0.554302,0.292754,0.292754,0.000000,351.000000,36.000000,36.000000,0.000000,0.000000,0.000000,0.491409,0.554302,0.292754,0.292754,0.000000,351.000000,36.000000,36.000000,0.000000,0.000000,0.000000:
0000
0000
0000
0000
,
0000
0000
0000
0000
,
0000
0000
0000
0000
,
0000
0000
0000
0000
,
1000
0000
0001
0100
0001
0000
1000
1000
,
0100
0000
0010
0001
1000
0000
1001
0000
,
0001
0000
1000
0010
1000
0000
0001
0001
,
0010
0000
0100
1000
0001
0100
1001
0000
,
0010
0100
0010
1000
0001
0000
1000
0100
,
1000
0000
0001
0000
1000
0100
0010
0000
,
0001
1000
0001
0100
0001
0000
1000
0000
,
0010
0100
0001
0000
0010
0100
1000
0001
,
0100
0010
0100
0001
1000
0000
0001
0010
,
0001
0000
1000
0000
0001
0010
0100
0000
,
1000
0001
1000
0010
1000
0000
0001
0000
,
0100
0010
1000
0000
0100
0010
0001
0000
,
2100
0000
3001
0000
0100
0001
1000
0000
,
0102
0000
1003
0000
0001
1000
0010
0000
,
2010
3100
0012
0103
,
2002
0000
3003
0000
0010
1000
0100
0000
,
0012
0000
1003
0000
0010
1000
0001
0000
,
2010
0000
3001
0000
1000
0001
0100
0000
,
0102
0013
2100
3010
,
2002
0000
3003
0000
0100
0001
0010
0000
,
0001
0100
0000
0100
0010
0000
0010
1000
,
0000
1000
0100
0000
0020
0000
0031
0000
,
0010
0001
1000
0001
0100
0000
1001
0000
,
0010
1000
0001
1000
0100
0000
1001
0000
,
1000
0010
0000
0010
0100
0000
0100
0001
,
0000
0001
0010
0000
0200
0000
1300
0000
,
0100
1000
0001
1000
0010
0000
1001
0000
,
1001
0000
0000
0000
,
0100
0001
0100
0010
1000
0000
0100
1000
,
0001
0000
1000
0000
0100
0010
0001
0000
,
1000
0100
1000
0001
0100
0000
0010
0000
,
1000
0100
0010
0000
0001
1000
0001
0100
,
0010
1000
0010
0100
0001
0000
0010
0001
,
1000
0000
0001
0000
0010
0100
1000
0000
,
0001
0010
0001
1000
0010
1000
0001
0100
,
0010
0000
0000
0000
,
0200
0000
0310
0000
1000
0100
0010
0001
,
2000
0000
3010
0000
0100
0001
1000
0100
,
0020
0031
2000
3010
,
0200
0000
0300
0000
0010
0100
0001
1000
,
0200
0000
0310
0000
0001
0010
0100
1000
,
0002
0000
0103
0000
0010
0100
0001
1000
,
0200
1300
0020
0130
,
0002
0000
0003
0000
1000
0100
0010
0000
,
0001
1000
0000
1000
0010
0000
0010
0100
,
0000
0100
0001
0000
2000
0000
3100
0000
,
1000
0100
1000
0100
0010
0000
0110
0000
,
0001
0100
0001
0100
0010
0000
0110
0000
,
1000
0001
0000
0001
0100
0000
0100
0010
,
0000
0010
1000
0000
0002
0000
0013
0000
,
0001
0010
0001
0010
0100
0000
0110
0000
,
1001
0000
0000
0000
,
1100
0101
1000
1001
,
0100
0010
1000
0100
0010
0001
1000
0000
,
1100
0010
0101
1001
,
0100
0010
0100
0001
0010
0100
1000
0000
,
0011
1010
0001
1001
,
0010
0100
0001
0010
0100
1000
0001
0000
,
0011
0100
1010
1001
,
0010
0100
0010
1000
0100
0010
0001
0000
,
2000
0000
0000
3200
0000
0000
0320
0000
,
0000
0032
0000
0000
2000
0000
3003
0000
,
0010
1000
0010
1000
0001
0000
1001
0000
,
0010
0001
0010
0001
1000
0000
1001
0000
,
0002
0000
0000
0023
0000
0000
0230
0000
,
0000
2300
0000
0000
0002
0000
3003
0000
,
1000
0010
1000
0010
0100
0000
1001
0000
,
0001
0010
0001
0010
0100
0000
1001
0000
;

//---------------dance-single - ----------------
#NOTES:
     dance-single:
     :
     Easy:
     5:
     0.331091,0.437607,0.292754,0.146377,0.000000,231.000000,36.000000,18.000000,0.000000,0.000000,0.000000,0.331091,0.437607,0.292754,0.146377,0.000000,231.000000,36.000000,18.000000,0.000000,0.000000,0.000000:
0000
0000
0000
0000
,
0000
0000
0000
0000
,
0000
0000
0000
0000
,
0000
0000
0000
0000
,
0100
0000
0001
1000
,
0010
0000
1000
0100
,
0010
0000
0001
1000
,
0010
0000
0000
0000
0000
0100
0100
0000
,
1001
0100
1000
0010
,
0100
0000
0001
0000
1000
1000
1000
0000
,
0100
1000
0010
0100
,
0001
0000
1000
0001
,
1000
0100
0010
0001
,
1000
0000
0001
0000
0100
0100
0100
0000
,
0010
0100
0001
1000
,
0100
0000
1000
0001
,
0100
0000
0010
0000
,
1000
0000
0001
0000
,
1000
0100
0010
0001
,
1000
0000
0010
0000
,
0100
0000
0001
0000
,
1000
0000
0001
0000
,
0010
0001
0100
0010
,
1000
0000
0001
0000
,
1001
0000
0000
1001
0000
0000
0110
0000
,
0000
0110
0000
0000
2002
0000
3003
0000
,
0010
1000
0100
0100
,
0010
0001
0100
0100
,
1001
0000
0000
1001
0000
0000
0110
0000
,
0000
0110
0000
0000
2002
0000
3003
0000
,
0100
0001
0010
0010
,
1001
0000
0000
0000
,
1001
0100
0010
1000
,
0001
0000
1000
0000
0100
0100
0100
0000
,
0010
0001
1000
0010
,
0100
0000
0001
1000
,
0001
0010
0001
1000
,
0100
0000
0010
0000
0001
0001
0001
0000
,
1000
0010
0100
0010
,
1000
0000
0000
0000
,
1001
0000
0100
1000
,
0010
0000
0100
0001
,
0020
0130
2000
3010
,
0200
0300
0010
0100
,
0001
0000
1000
0100
,
0010
0000
0001
1000
,
0020
0130
0002
0013
,
0200
0300
1000
0001
,
1001
0000
0000
0110
0000
0000
1001
0000
,
0000
0110
0000
0000
2002
0000
3003
0000
,
0010
0000
1000
0000
0100
0100
0100
0000
,
0010
0000
0001
0000
0100
0100
0100
0000
,
1001
0000
0000
0110
0000
0000
1001
0000
,
0000
0110
0000
0000
2002
0000
3003
0000
,
0010
0000
1000
0000
0001
0001
0001
0000
,
0010
0000
0000
0000
,
1001
0100
1000
0001
,
0100
0000
0010
0000
1000
1000
1000
0000
,
0100
1000
0001
0100
,
0010
0000
0010
0100
,
0001
1000
0100
1000
,
0001
0000
0010
0000
0100
0100
0100
0000
,
1000
0001
0100
0010
,
1000
0000
0001
1000
,
1001
0000
0000
0101
0000
0000
1001
0000
,
0000
1100
0000
0000
2002
0000
3003
0000
,
1000
0000
0100
0100
0100
0000
0010
0000
,
0001
0000
0100
0100
0100
0000
0010
0000
,
1001
0000
0000
1010
0000
0000
1001
0000
,
0000
0011
0000
0000
2002
0000
3003
0000
,
0001
0000
0010
0010
0010
0000
0100
0000
,
1000
0000
0010
0010
0010
0000
0110
0000
;

//---------------dance-single - ----------------
#NOTES:
     dance-single:
     :
     Beginner:
     1:
     0.119658,0.203505,0.048792,0.000000,0.000000,97.000000,6.000000,0.000000,0.000000,0.000000,0.000000,0.119658,0.203505,0.048792,0.000000,0.000000,97.000000,6.000000,0.000000,0.000000,0.000000,0.000000:
0000
0000
0000
0000
,
0000
0000
0000
0000
,
0000
0000
0000
0000
,
0000
0000
0000
0000
,
1000
0000
0000
0000
,
0001
0000
0000
0000
,
0100
0000
0000
0000
,
0100
0000
0000
0000
,
1001
0000
0000
0000
,
0010
0000
0000
0000
,
1000
0000
0000
0000
,
0001
0000
0001
0000
,
0001
0000
0000
0000
,
0010
0000
0000
0000
,
0100
0000
0000
0000
,
1000
0000
1000
0000
,
1000
0000
0000
0000
,
0010
0000
0000
0000
,
0100
0000
0100
0000
,
0100
0000
0000
0000
,
0001
0000
0000
0000
,
1000
0000
0000
0000
,
0100
0000
0100
0000
,
0100
0000
0000
0000
,
1001
0000
0000
0000
,
0010
0000
0000
0000
,
0100
0100
0100
0000
,
0100
0100
0100
0000
,
0010
0000
0000
0000
,
1000
0000
0000
0000
,
0100
0100
0100
0000
,
0100
0000
0000
0000
,
1001
0000
0000
0000
,
0010
0000
0000
0000
,
1000
0000
0000
0000
,
0001
0000
0001
0000
,
0001
0000
0000
0000
,
0010
0000
0000
0000
,
0100
0000
0000
0000
,
1001
0000
0000
0000
,
0010
0000
0000
0000
,
1000
0000
0000
0000
,
0100
0000
0100
0000
,
0100
0000
0000
0000
,
0010
0000
0000
0000
,
0001
0000
0000
0000
,
1000
0000
1000
0000
,
1000
0000
0000
0000
,
1001
0000
0000
0000
,
0010
0000
0000
0000
,
0100
0100
0100
0000
,
0100
0100
0100
0000
,
0010
0000
0000
0000
,
1000
0000
0000
0000
,
0100
0100
0100
0000
,
0100
0000
0000
0000
,
1001
0000
0000
0000
,
0010
0000
0000
0000
,
1000
0000
0000
0000
,
0001
0000
0001
0000
,
0001
0000
0000
0000
,
0100
0000
0000
0000
,
0010
0000
0000
0000
,
1000
0000
1000
0000
,
1000
0000
0000
0001
,
0000
0000
0000
0000
,
0100
0100
0100
0000
,
0100
0100
0100
0000
,
0010
0000
0000
1000
,
0000
0000
0000
0000
,
0001
0001
0001
0000
,
1000
1000
1000
0000
;

//---------------dance-double - ----------------
#NOTES:
     dance-double:
     :
     Challenge:
     10:
     0.839926,0.966089,0.162641,0.056924,0.975848,696.000000,20.000000,7.000000,0.000000,0.000000,0.000000,0.839926,0.966089,0.162641,0.056924,0.975848,696.000000,20.000000,7.000000,0.000000,0.000000,0.000000:
// measure 0
00000000
00000000
00000000
00000000
,  // measure 1
00000000
00000000
00000000
00000000
,  // measure 2
00000000
00000000
00000000
00000000
,  // measure 3
00000000
00000000
00000000
00000000
,  // measure 4
00010000
00000000
00000000
00001000
00000000
00000000
00100000
00000000
00100000
00000000
00000000
00001000
00000000
00000000
00010000
00000000
,  // measure 5
00010000
00000000
00000000
00000100
00000000
00000000
00001000
00000000
00001000
00000000
00000000
00000100
00000000
00000000
00010000
00000000
,  // measure 6
00001000
00000000
00000000
00100000
00000000
00000000
00001000
00000000
00001000
00000000
00000000
00010000
00000000
00000000
00001000
00000000
,  // measure 7
01000000
00000000
00000000
00001000
00000000
00000000
00010000
00000000
00000100
00000000
00001000
00000000
00001000
00000000
00000000
00000000
,  // measure 8
00000001
00001000
00000001
00001000
00000001
00001000
00000001
00001000
00000001
00001000
00000001
00001000
00000001
00001000
00000001
00001000
,  // measure 9
00000010
00001000
00000010
00001000
00000010
00001000
00000010
00001000
00000001
00000010
00000100
00001000
00000001
00000000
00000000
00000000
,  // measure 10
00001000
00000100
00001000
00000100
00001000
00000100
00001000
00000100
00001000
00000100
00001000
00000100
00001000
00000100
00001000
00000100
,  // measure 11
00010000
00000100
00010000
00000100
00010000
00000100
00010000
00000100
00010000
00001000
00100000
00010000
01000000
00000000
00000000
00000000
,  // measure 12
00010000
10000000
00010000
10000000
00010000
10000000
00010000
10000000
00010000
10000000
00010000
10000000
00010000
10000000
00010000
10000000
,  // measure 13
00100000
01000000
00100000
01000000
00100000
01000000
00100000
01000000
00010000
00100000
01000000
10000000
00010000
00000000
00000000
00000000
,  // measure 14
10000000
01000000
10000000
01000000
10000000
01000000
10000000
01000000
10000000
01000000
10000000
01000000
10000000
01000000
10000000
01000000
,  // measure 15
00100000
00010000
00100000
00010000
00100000
00010000
00100000
00010000
10000000
01000000
00100000
00010000
10000000
01000000
00100000
00010000
,  // measure 16
10000000
00000000
00000000
10000000
01000000
00000000
00000000
01000000
00100000
00000000
00000000
00000000
00010000
00000000
10000000
00000000
,  // measure 17
00100000
00000000
01000000
00100000
00000000
00100000
10000000
00000000
00010000
00000000
00000000
00000000
00100000
00000000
00010000
00000000
,  // measure 18
01000000
00000000
00010000
00100000
00000000
00100000
00001000
00000000
00010000
00000000
00000000
00000000
00000100
00000000
00001000
00000000
,  // measure 19
00000010
00000000
00000000
00000100
00000000
00000000
00000010
00000000
00001000
00000000
00000000
00000001
00000010
00000000
00000001
00001000
,  // measure 20
00000001
00000000
00000000
00001000
00000001
00000000
00000000
00001000
00000100
00000000
00000000
00000000
00001000
00000000
00000001
00000000
,  // measure 21
00000100
00000000
00000010
00001000
00000000
00001000
00000100
00000000
00010000
00000000
00000000
00000000
00000100
00000000
00001000
00000000
,  // measure 22
00000010
00000000
00000100
00000010
00000000
00000010
00001000
00000000
00000100
00000000
00000000
00000000
00001000
00000000
00000100
00000000
,  // measure 23
00010000
00000000
00001000
00010000
00000000
00010000
00001000
00000000
00100000
00010000
00100000
00010000
10000000
00100000
10000000
00100000
,  // measure 24
01000000
00100000
10000000
11000000
00100000
01000000
01100000
01000000
,  // measure 25
00010000
00000000
00110000
00000000
00100000
00000000
00001000
00000000
00010000
00001000
00010000
00001000
00010000
00000000
00010000
00000000
,  // measure 26
00000100
00001000
00000100
00001000
00000010
00000000
00000100
00000000
00000001
00000000
00000010
00000000
00000100
00000000
00001000
00000000
,  // measure 27
00000010
00000100
00000010
00000100
00000001
00000000
00000010
00000000
00000100
00000000
00001000
00000000
00000001
00000000
00000000
00000000
,  // measure 28
00001001
00001000
00000100
00010100
00010000
00001000
00101000
00100000
,  // measure 29
00001000
00010000
00001000
00000000
00010000
00000000
00000100
00000000
00001000
00000010
00001000
00000000
00000010
00000100
00000010
00000100
,  // measure 30
00000001
00000000
00000100
00000000
00000010
00000000
00001000
00000000
00000001
00000010
00000100
00001000
00000001
00000010
00000100
00001000
,  // measure 31
00000010
00000000
00000000
00000000
,  // measure 32
00000001
00001000
00000001
00001000
00000001
00001000
00000001
00001000
00000001
00001000
00000001
00001000
00000001
00001000
00000001
00001000
,  // measure 33
00000010
00000100
00000010
00000100
00000010
00000100
00000010
00000100
00000001
00000010
00000100
00001000
00000010
00000000
00000100
00000000
,  // measure 34
00000100
00001000
00000100
00001000
00000100
00001000
00000100
00001000
00000100
00001000
00000100
00001000
00000100
00001000
00000100
00001000
,  // measure 35
00000100
00010000
00000100
00010000
00000100
00010000
00000100
00010000
00001000
00100000
00010000
01000000
00100000
00000000
10000000
00000000
,  // measure 36
00010000
10000000
00010000
10000000
00010000
10000000
00010000
10000000
00010000
10000000
00010000
10000000
00010000
10000000
00010000
10000000
,  // measure 37
00100000
01000000
00100000
01000000
00100000
01000000
00100000
01000000
00010000
00100000
01000000
10000000
00010000
00000000
01000000
00000000
,  // measure 38
00100000
10000000
00100000
10000000
00100000
10000000
00100000
10000000
00100000
10000000
00100000
10000000
00100000
10000000
00100000
10000000
,  // measure 39
01000000
00000000
00000000
00000000
00000000
11000000
01010000
00000000
,  // measure 40
10000000
00000000
00000000
10000000
00010000
00000000
00000000
00010000
01000000
00000000
00000000
00000000
00010000
00000000
10000000
00000000
,  // measure 41
00100000
00000000
01000000
00010000
00000000
00010000
00100000
00000000
00001000
00000000
00000000
00000000
00100000
00000000
00001000
00000000
,  // measure 42
00010000
00000000
00000100
00001000
00000000
00001000
00000010
00000000
00000100
00000000
00000000
00000000
00000010
00000000
00001000
00000000
,  // measure 43
00000100
00000000
00000010
00000100
00000000
00000010
00000001
00000000
00001000
00000000
00000000
00000001
00001000
00000000
00000001
00000100
,  // measure 44
00000010
00000000
00000000
00000010
00001000
00000000
00000000
00001000
00000100
00000000
00000000
00000000
00001000
00000000
00000100
00000000
,  // measure 45
00010000
00000000
00001000
00010000
00000000
00010000
00001000
00000000
00100000
00000000
00000000
00000000
00010000
00000000
00100000
00000000
,  // measure 46
01000000
00000000
10000000
01000000
00000000
01000000
10000000
00000000
00010000
00000000
00000000
00000000
10000000
00000000
00100000
00000000
,  // measure 47
01000000
00000000
00010000
00100000
00000000
00100000
00001000
00000000
00100000
00010000
00100000
00010000
00100000
00001000
00010000
00001000
,  // measure 48
00010000
00000100
00001000
00001100
00001000
00000010
00000110
00000100
,  // measure 49
00000010
00000000
00001010
00000000
00001000
00000000
00000001
00000000
00000010
00000001
00000100
00000000
00000010
00000000
00001000
00000001
,  // measure 50
00001000
00000000
00000000
00000010
00000100
00000000
00000001
00000000
00001000
00000100
00001000
00000000
00000010
00000000
00000100
00000001
,  // measure 51
00001000
00000000
00000000
00000000
00000010
00000000
00001000
00000000
00000100
00010000
00000100
00010000
00001000
00100000
00010000
01000000
,  // measure 52
00100000
00000000
00000000
00000000
10000000
00000000
00100000
01000000
00100000
00000000
10000000
00000000
00010000
00100000
00010000
00000000
,  // measure 53
10000000
00000000
00000000
00000000
11000000
00000000
01000000
00000000
10000000
00000000
10100000
00000000
00100000
00000000
01000000
00010000
,  // measure 54
10000000
00000000
00000000
00000000
00100000
00000000
10000000
00000000
00010000
00100000
01000000
10000000
00010000
00100000
01000000
10000000
,  // measure 55
00010000
00000000
01000000
01000000
,  // measure 56
00010000
01000000
00100000
10000000
01000000
00100000
00010000
10000000
00100000
01000000
00010000
10000000
01000000
00100000
00010000
10000000
,  // measure 57
00100000
01000000
00100000
10000000
00100000
01000000
00010000
10000000
01000000
00000000
00100000
00000000
00010000
00000000
01000000
00000000
,  // measure 58
00001000
00010000
00001000
00100000
00010000
00100000
00001000
00010000
00001000
00100000
00000010
00010000
00001000
00010000
00000010
00001000
,  // measure 59
00000100
00001000
00000010
00000100
00000001
00000010
00000100
00001000
00000010
00000000
00000100
00000000
00000001
00000000
00001000
00000000
,  // measure 60
00000010
00000100
00000001
00000100
00000010
00001000
00000100
00001000
00000010
00000100
00000001
00000010
00000100
00001000
00000001
00000100
,  // measure 61
00000010
00001000
00000100
00000010
00000001
00000100
00000010
00010000
00001000
00000000
00010000
00000000
00001000
00000000
00100000
00000000
,  // measure 62
00010000
00100000
00010000
00100000
00001000
00100000
00010000
01000000
00100000
10000000
00100000
01000000
00100000
01000000
00010000
01000000
,  // measure 63
00100000
10000000
01000000
00100000
01000000
00100000
01000000
00100000
00010000
00100000
00010000
00100000
00001000
00010000
00000100
00001000
,  // measure 64
00000010
00000000
00001000
00000010
00000100
00000001
00002001
00000000
,  // measure 65
00003001
00001000
00000010
00000100
00000002
00000000
00000203
00000000
,  // measure 66
00000310
00001000
00000010
00001000
00001010
00000000
00010100
00000000
,  // measure 67
00010000
00001000
00100000
00010000
00110000
00000000
10100000
00000000
,  // measure 68
10010000
10000000
00100000
01000000
00010000
00000000
01002000
00000000
,  // measure 69
00013000
00001000
00200000
00000000
00320000
00000000
20030000
00000000
,  // measure 70
30100000
10000000
01000000
00100000
00010000
00010000
01000000
00010000
,  // measure 71
00100000
00001000
00010000
00000100
00001000
00001000
00000010
00000100
,  // measure 72
00000001
00000000
00000000
00000000
;
