#TITLE:Human;
#SUBTITLE:;
#ARTIST:Rag'n'Bone Man;
#TITLETRANSLIT:;
#SUBTITLETRANSLIT:;
#ARTISTTRANSLIT:;
#GENRE:Alternative;
#CREDIT:;
#BANNER:Human (Rag'n'Bone Man).png;
#BACKGROUND:Human (Rag'n'Bone Man)-bg.png;
#LYRICSPATH:;
#CDTITLE:;
#MUSIC:Human (Rag'n'Bone Man).ogg;
#OFFSET:-0.010000;
#SAMPLESTART:75.984306;
#SAMPLELENGTH:13.714000;
#SELECTABLE:YES;
#BPMS:0.000000=75.000000
;
#STOPS:
;
#BGCHANGES:4.000=Human (Rag'n'Bone Man).avi=1.000=0=0=1=====,
99999=-nosongbg-=1.000=0=0=0 // don't automatically add -songbackground-
;
#KEYSOUNDS:;
#ATTACKS:;

//---------------dance-single - ----------------
#NOTES:
     dance-single:
     :
     Hard:
     8:
     0.421465,0.425183,0.143363,0.128272,0.407452,355.000000,19.000000,17.000000,0.000000,0.000000,0.000000,0.421465,0.425183,0.143363,0.128272,0.407452,355.000000,19.000000,17.000000,0.000000,0.000000,0.000000:
0000
0000
0000
0000
,
0000
0000
0000
0000
,
1000
0000
0100
0000
1100
0000
0001
1000
0001
0000
0000
0000
0100
0000
0000
0000
,
0001
0000
0100
0000
0101
0000
1000
0001
1000
0000
0000
0000
0010
0000
1000
0000
,
0001
0000
0000
0000
0100
0000
0010
1000
0010
0000
0000
0000
1000
0000
0000
0000
,
0100
0000
0000
0000
1000
0000
0001
0010
0001
0000
0000
0000
0100
0000
0000
0000
,
0001
0000
0000
0000
1000
0000
0010
0100
0001
0000
0000
0000
0100
0000
0000
0000
,
0001
0000
0000
0000
1000
0000
0100
0010
0001
0000
0000
0000
1000
0100
1000
0100
,
2000
0000
0000
0000
3001
0000
1000
0000
0010
0000
0000
0000
0100
0001
0100
0001
,
0200
0000
0000
0000
0310
0000
0100
0000
0001
0010
0100
1000
0010
0000
0100
0000
,
0002
0000
0000
0000
0103
0000
0010
1000
0010
1000
0100
0010
0001
0000
0100
0000
,
0020
0000
0000
0000
0130
0000
0001
1000
0001
0000
0000
0000
1001
0000
0000
0000
,
1000
0100
1000
0000
0010
0000
0100
0001
1000
0000
0010
0000
0110
0000
0100
0000
,
0001
0100
0001
0000
1000
0000
0010
1000
0001
0000
0010
0000
0011
0000
0001
0000
,
1000
0010
0100
0000
0001
0000
0100
0010
1000
0000
0001
0000
1001
0000
1000
0000
,
0100
0010
0001
0000
1000
0000
0001
0010
0100
0000
1000
0000
0001
0100
0001
0100
,
0020
0000
0000
0000
1030
0000
0100
1000
0100
0000
1000
0000
0001
0100
0001
0100
,
0020
0000
0000
0000
1030
0000
0001
1000
0001
1000
0100
0010
0001
0000
0100
0000
,
0020
0000
0000
0000
0130
0000
0001
0100
0001
1000
0100
0010
0001
0000
1000
0000
,
0020
0000
0000
0000
1030
0000
0001
0100
0001
0000
0000
0000
2002
0000
0003
0000
,
3010
0000
0110
0000
0001
0001
0100
0010
1000
1000
0100
0000
0020
0000
0100
0000
,
0031
0000
1100
0000
0010
0010
0100
0001
1000
0000
0100
0000
1100
0000
1000
0000
,
0001
0000
0101
0000
0010
0010
0100
0001
1000
0100
0010
0000
0001
0000
1000
0010
,
0100
0000
0001
0001
0100
0100
0010
1000
0001
0000
1000
0000
0010
1000
0100
0010
,
0011
0000
1000
0000
0001
0000
0100
0010
1000
0000
0001
0000
0100
0010
0100
0001
,
1001
0000
1000
0000
0010
0000
1000
0010
0100
0001
0001
0100
0010
0100
0001
0000
,
2100
0000
0000
0000
3010
0000
1000
0001
0100
0010
0100
0001
1000
0000
0100
0000
,
1002
0000
0000
0000
0013
0000
0001
1000
0010
0000
0100
0000
0001
0010
0100
1000
,
0010
0000
0100
0100
0001
0000
0001
0001
1000
0000
0010
0000
1000
0100
0010
0001
,
1000
0000
0010
0010
1000
0000
0001
0001
0100
0010
1000
0010
1000
0000
0100
0000
,
1100
0000
0100
0000
0010
0000
0001
0010
0001
0100
0010
1000
0100
0000
1000
0000
,
0010
0000
0100
0001
0100
0000
0010
0000
1000
0000
0000
0000
1001
0000
0000
0000
,
0001
0000
0000
1000
0000
0000
0010
0000
0000
0000
1000
0000
0010
0000
0100
0000
0001
0000
0000
1000
0000
0000
0010
0000
0000
0000
1000
0000
0100
0000
0010
0000
,
0001
0000
0000
0001
0000
0000
0001
0000
0010
0000
0000
0000
0001
0000
0001
0000
1000
0000
0000
1000
0000
0000
1000
0000
0010
0000
0100
0000
0010
0000
0100
0000
,
0001
0000
0000
1000
0000
0000
0010
0000
0100
0000
0000
0000
0001
0000
0001
0000
1000
0000
1000
0000
0000
0000
0010
0000
0000
0000
0000
0000
1000
0000
0001
0000
,
1000
0000
0000
0100
0000
0000
0010
0000
0010
0000
0000
0001
0000
0000
0100
0000
0020
0000
0000
0000
0000
0000
0000
0000
0000
0000
0000
0000
0000
0000
0000
0000
,
0030
0000
0000
0000
,
0001
0000
0000
0000
0010
0000
0001
0100
0001
0000
0000
0000
0100
0010
0100
0010
,
1000
0000
0000
0000
0100
0000
1000
0010
1000
0001
0100
0010
1000
0000
0100
0000
,
2100
0000
0000
0000
3001
0000
0000
0000
1000
0100
0010
0001
1000
0000
0010
0000
,
0202
0303
0000
0000
;

//---------------dance-double - ----------------
#NOTES:
     dance-double:
     :
     Challenge:
     8:
     0.412841,0.425183,0.181090,0.082999,0.343316,348.000000,24.000000,11.000000,0.000000,0.000000,0.000000,0.412841,0.425183,0.181090,0.082999,0.343316,348.000000,24.000000,11.000000,0.000000,0.000000,0.000000:
00000000
00000000
00000000
00000000
,
00000000
00000000
00000000
00000000
,
10000000
00000000
10000000
00000000
00100000
00000000
01000000
00010000
01000000
00000000
00000000
00000000
11000000
00000000
00000000
00000000
,
00010000
00000000
00010000
00000000
00100000
00000000
00010000
01000000
00010000
00000000
00000000
00000000
01001000
00000000
00000000
00000000
,
00001000
00000000
00010000
00000000
00000000
00000000
00000100
00001000
00000100
00000000
00000000
00000000
00001000
00000000
00000000
00000000
,
00000010
00000000
00000100
00000000
00000000
00000000
00000001
00000100
00000001
00000000
00000000
00000000
00001000
00000000
00000000
00000000
,
00000010
00000000
00001000
00000000
00000000
00000000
00000001
00000010
00000001
00000000
00000000
00000000
00001000
00000000
00000000
00000000
,
00000100
00000000
00010000
00000000
00000000
00000000
00001000
00010000
00001000
00000000
00000000
00000000
00010000
00001000
00010000
00001000
,
00000100
00000000
00000100
00000000
00000001
00000000
00001000
00000010
00001000
00000000
00000000
00000000
00000001
00000010
00000001
00000010
,
00000100
00000000
00000100
00000000
00001000
00000000
00000010
00000100
00000010
00000100
00000001
00000010
00000100
00000000
00001000
00000000
,
00001002
00000000
00000000
00000000
00000103
00000000
00000000
00000000
00000010
00000100
00000010
00000100
00000001
00000000
00001000
00000000
,
00002001
00000000
00003100
00010000
00001000
00000000
00011000
00000000
,
00001000
00010000
00001000
00000000
00100000
00000000
00010000
00100000
00010000
00000000
01000000
00000000
00100000
00000000
00100000
00000000
,
10000000
01000000
10000000
00000000
00100000
00000000
01000000
00010000
01000000
00000000
00010000
00000000
10000000
00000000
10000000
00000000
,
01000000
10000000
01000000
00000000
00100000
00000000
00010000
00100000
00010000
00000000
00100000
00000000
00001000
00000000
00001000
00000000
,
00010000
00000100
00010000
00000000
00000100
00000000
00001000
00000010
00001000
00000000
00000010
00000000
00000100
00000001
00000010
00000100
,
00001000
00000000
00001000
00000000
00000100
00000000
00010000
00000100
00010000
00000000
00001000
00000000
00010000
00001000
00100000
00001000
,
00010000
00000000
00001000
00000000
00100000
00000000
00010000
01000000
00010000
01000000
00100000
10000000
00100000
00000000
10000000
00000000
,
21000000
00000000
00000000
00000000
30010000
00000000
10000000
00000000
00100000
01000000
00100000
01000000
00010000
00100000
00010000
00000000
,
00110000
00000000
10010000
00000000
10000000
00000000
01000000
10000000
00100000
00000000
00000000
00000000
10020000
00000000
00000000
00000000
,
01030000
00000000
10100000
00000000
00010000
00010000
10000000
00100000
01000000
01000000
00010000
00100000
00001000
00000000
00010000
00000000
,
00000100
00000000
00011000
00000000
00010000
00010000
00001000
00000100
00000001
00000000
00001000
00000000
00000010
00000100
00000001
00000000
,
00000100
00000000
00001010
00000000
00000001
00000001
00000010
00000001
00001000
00001000
00000100
00000000
00000010
00000001
00000100
00000000
,
00000010
00000000
00000100
00000000
00000001
00000100
00001000
00000100
00000010
00000000
00001000
00000000
00000100
00001000
00000010
00001000
,
00001100
00000000
00000001
00000000
00001000
00000000
00000010
00000100
00000001
00000000
00001000
00000000
00000001
00000100
00000010
00000100
,
00000101
00000000
00001000
00000000
00000010
00000000
00001000
00000100
00010000
00001000
00010000
00001000
00100000
00000000
00110000
00000000
,
20010000
00000000
00000000
00000000
30100000
00000000
01000000
00000000
00010000
01000000
00100000
01000000
00100000
00000000
10000000
00000000
,
20100000
00000000
00000000
00000000
30010000
00000000
10000000
01000000
10000000
00000000
00010000
00000000
10000000
01000000
00100000
00010000
,
01000000
00000000
00100000
00100000
10000000
00000000
10000000
10000000
01000000
00000000
00100000
00000000
00010000
01000000
00010000
00100000
,
00001000
00000000
00010000
00010000
00000100
00000000
00001000
00001000
00000010
00000100
00000010
00000100
00000001
00001000
00000010
00000000
,
00001002
00000000
00000000
00000000
00001003
00000000
00000010
00000000
00001000
00000100
00000010
00000001
00001000
00000000
00000010
00000000
,
00002001
00000000
00000000
00000000
00003010
00000000
00000100
00000000
00000001
00000100
00000010
00000000
00002000
00000000
00000000
00000000
,
00003100
00000000
00010000
00000000
00001000
00010000
00001000
00100000
00010000
00000000
01000000
00000000
00100000
10000000
00100000
01000000
,
00010000
00000000
10000000
00000000
01000000
00000000
10000000
10000000
00100000
00000000
01000000
00000000
00010000
10000000
00010000
10000000
,
00100000
00000000
01000000
00010000
00100000
00000000
00010000
00000000
00100000
00000000
00001000
00010000
00001000
00000000
00010000
00000000
,
00000100
00001000
00000100
00001000
00000010
00000100
00000010
00000100
00000001
00000000
00000000
00000000
00000000
00000000
00000000
00000000
,
00000000
00000000
00000000
00000000
,
00001000
00001100
00000100
00010100
,
00010000
00000000
00000000
00000000
00011000
00000000
00000000
00000000
00001000
00100000
00010000
00100000
00001000
00000000
00010000
00000000
,
00011000
00000000
00000000
00000000
00001000
00000000
00000000
00000000
00010000
00000100
00001000
00000100
00010000
00000000
00001000
00000000
,
00022000
00033000
00000000
00000000
;

//---------------dance-single - ----------------
#NOTES:
     dance-single:
     :
     Medium:
     4:
     0.256544,0.303703,0.143363,0.173544,0.000000,196.000000,19.000000,23.000000,0.000000,0.000000,0.000000,0.256544,0.303703,0.143363,0.173544,0.000000,196.000000,19.000000,23.000000,0.000000,0.000000,0.000000:
0000
0000
0000
0000
,
0000
0000
0000
0000
,
0100
0000
0010
0100
0100
0000
0001
0000
,
1000
0000
0010
1000
1000
0000
0001
0000
,
0010
0001
0100
0100
0010
0000
0000
0000
,
0100
0010
1000
1000
0100
0000
0000
0000
,
1000
0001
0010
0010
0001
0000
0000
0000
,
0100
0001
0100
0010
0010
0000
1000
0000
,
0200
0000
1300
0100
1000
0000
0010
1000
,
0002
0000
0103
0001
0100
0010
0010
0010
,
2002
0000
3003
0000
0000
0010
0010
0010
,
2002
3003
0001
1000
,
0010
0100
0001
0100
0100
0000
0101
0000
,
0010
1000
0100
0100
1000
0000
1100
0000
,
0100
1000
0010
0010
0100
0000
0110
0000
,
0100
0001
0010
0010
0001
0000
0010
0001
,
2000
0000
3100
1000
0001
0000
1001
0000
,
0002
0000
0103
0001
1000
0010
0010
0010
,
0020
0000
0030
0000
0100
0010
0100
0100
,
0200
0300
0001
1001
,
1000
0100
1000
0010
0100
0100
0100
0000
,
0001
0010
0001
0100
0010
0000
0100
0000
,
0001
0100
0010
0010
1000
1000
0001
0000
,
1000
0100
0010
0001
1000
0000
0100
0000
,
2100
0000
0010
0010
3010
0000
1000
0000
,
0102
0000
0010
0010
0013
0000
0001
1000
,
2002
0000
3003
0000
0000
1000
0001
1000
,
2002
3003
0001
1000
,
0010
0100
0001
0100
0010
1000
0100
0100
,
1000
0010
0100
0001
0010
0100
0100
0100
,
2002
0000
3003
0000
0000
0100
0100
0100
,
2002
3003
1000
0001
,
0200
0000
0310
0000
0100
0000
0001
1000
,
0010
0000
1000
0000
0100
0000
1000
0001
,
0010
0000
0001
0000
0100
0100
0010
0000
,
1000
0010
0100
0001
1001
0000
0000
0000
,
0000
0000
0000
0000
,
1000
1100
0100
0110
,
0010
0000
0011
0000
0001
0000
1001
0100
,
0200
0000
0300
0000
0000
0000
1001
0100
,
0200
0300
0000
0000
;

//---------------dance-single - ----------------
#NOTES:
     dance-single:
     :
     Easy:
     2:
     0.146596,0.212592,0.075454,0.226362,0.000000,96.000000,10.000000,30.000000,0.000000,0.000000,0.000000,0.146596,0.212592,0.075454,0.226362,0.000000,96.000000,10.000000,30.000000,0.000000,0.000000,0.000000:
// measure 0
0000
0000
0000
0000
,  // measure 1
0000
0000
0000
0000
,  // measure 2
0001
0000
1000
0000
,  // measure 3
0010
0000
0100
0000
,  // measure 4
0001
0000
0001
0100
,  // measure 5
0010
0000
0010
1000
,  // measure 6
0100
0000
0100
0010
,  // measure 7
0001
0000
1000
0010
,  // measure 8
0020
0030
0010
0000
,  // measure 9
0200
0300
0100
0001
,  // measure 10
2002
3003
0000
1000
,  // measure 11
2002
3003
0000
0001
,  // measure 12
0100
0100
0010
0000
,  // measure 13
0010
1000
0001
0000
,  // measure 14
1000
1000
0100
0000
,  // measure 15
1000
0001
0100
0000
,  // measure 16
0002
0003
0001
0000
,  // measure 17
0200
0300
0100
0100
,  // measure 18
2002
3003
0000
0010
,  // measure 19
2002
3003
0000
0000
,  // measure 20
1001
1000
0100
0100
,  // measure 21
1000
0001
0100
0000
,  // measure 22
0001
0001
1000
1000
,  // measure 23
0001
0100
0010
0000
,  // measure 24
2002
3003
1000
0001
,  // measure 25
0200
0300
0010
0010
,  // measure 26
2002
3003
0000
0010
,  // measure 27
2002
3003
0000
0010
,  // measure 28
2000
3000
1000
0100
,  // measure 29
0020
0030
0010
0010
,  // measure 30
2002
3003
0000
0100
,  // measure 31
2002
3003
1000
0000
,  // measure 32
0020
0000
0030
0010
,  // measure 33
0200
0300
0100
0001
,  // measure 34
2000
0000
3000
0001
,  // measure 35
0010
0010
0010
0000
,  // measure 36
0000
0000
0000
0000
,  // measure 37
0000
0001
0000
1000
,  // measure 38
0000
0010
0000
0100
,  // measure 39
0200
0300
0000
0100
,  // measure 40
0200
0300
0000
0000
;

//---------------dance-single - ----------------
#NOTES:
     dance-single:
     :
     Beginner:
     1:
     0.070064,0.090545,0.022636,0.000000,0.000000,62.000000,3.000000,0.000000,0.000000,0.000000,0.000000,0.070064,0.090545,0.022636,0.000000,0.000000,62.000000,3.000000,0.000000,0.000000,0.000000,0.000000:
// measure 0
0000
0000
0000
0000
,  // measure 1
0000
0000
0000
0000
,  // measure 2
1000
0000
0000
0000
,  // measure 3
0001
0000
0000
0000
,  // measure 4
0000
0100
0000
0100
,  // measure 5
0100
0000
0000
0000
,  // measure 6
0000
0010
0000
0010
,  // measure 7
0010
0000
0000
0000
,  // measure 8
1000
0000
1000
0000
,  // measure 9
0001
0000
0001
0000
,  // measure 10
0100
0000
0000
0000
,  // measure 11
0100
0000
0000
0000
,  // measure 12
0001
0000
0001
0000
,  // measure 13
0001
0000
0000
0000
,  // measure 14
1000
0000
1000
0000
,  // measure 15
1000
0000
0000
0000
,  // measure 16
0010
0010
0000
0000
,  // measure 17
0010
0010
0000
0000
,  // measure 18
0100
0000
0000
0000
,  // measure 19
0100
0000
0000
0000
,  // measure 20
1001
0000
0001
0000
,  // measure 21
0100
0100
0000
0000
,  // measure 22
0010
0000
0010
0000
,  // measure 23
1000
1000
0000
0000
,  // measure 24
0001
0001
0000
0000
,  // measure 25
1000
1000
0000
0010
,  // measure 26
0010
0000
0000
0010
,  // measure 27
0010
0000
0000
0000
,  // measure 28
1001
0000
0001
0000
,  // measure 29
1000
0000
1000
0000
,  // measure 30
0100
0000
0000
0100
,  // measure 31
0100
0000
0000
0000
,  // measure 32
0110
0000
0000
0001
,  // measure 33
0001
0000
0000
0000
,  // measure 34
1000
0000
0000
0010
,  // measure 35
0010
0000
0010
0000
,  // measure 36
0000
0000
0000
0000
,  // measure 37
0000
1000
0000
1000
,  // measure 38
0000
0001
0000
0001
,  // measure 39
0000
0000
0000
0100
,  // measure 40
0100
0000
0000
0000
;
