#TITLE:Gettin' Jiggy Wit It;
#SUBTITLE:;
#ARTIST:Will Smith;
#TITLETRANSLIT:;
#SUBTITLETRANSLIT:;
#ARTISTTRANSLIT:;
#GENRE:;
#CREDIT:;
#BANNER:Gettin Jiggy Wit It.png;
#BACKGROUND:Gettin Jiggy Wit It-bg.png;
#LYRICSPATH:;
#CDTITLE:;
#MUSIC:Gettin Jiggy Wit It.ogg;
#OFFSET:-1.112000;
#SAMPLESTART:55.609829;
#SAMPLELENGTH:13.994001;
#SELECTABLE:YES;
#BPMS:0.000000=107.900002
;
#STOPS:
;
#BGCHANGES:2.000=Gettin Jiggy Wit It.avi=1.000=0=0=1=====,
99999=-nosongbg-=1.000=0=0=0 // don't automatically add -songbackground-
;
#KEYSOUNDS:;
#ATTACKS:;

//---------------dance-single - ----------------
#NOTES:
     dance-single:
     :
     Hard:
     7:
     0.385379,0.368645,0.157709,0.049803,0.058103,325.000000,306.000000,19.000000,6.000000,0.000000,0.000000,0.385379,0.368645,0.157709,0.049803,0.058103,325.000000,306.000000,19.000000,6.000000,0.000000,0.000000:
0000
0000
0000
0000
,
0000
0000
0000
0000
,
0000
0000
0000
0000
0000
0000
0000
0000
1000
0000
0000
0100
0000
0000
1000
0000
,
0000
0001
0000
0000
0100
0000
0000
0000
0001
0000
0000
1000
0000
0000
0010
0000
,
0000
0100
0100
0100
0000
0000
0001
0000
,
0000
1000
0100
0010
0001
0000
0000
0000
,
0000
0001
0010
0100
1000
0000
0001
0000
,
0100
0010
0100
0010
2000
0000
3100
0010
,
0002
0000
0103
0000
0001
1000
0010
0100
,
0001
0010
0100
0000
1000
0100
1000
0001
,
0100
0001
1000
0000
0010
0100
0001
0001
,
0010
0100
1000
0000
1000
0010
1000
0001
,
0100
0100
0100
0000
0001
1000
0010
0000
,
1000
0100
1000
0000
0001
0010
0100
0000
,
1000
0010
0100
0000
0010
1000
0100
0010
,
0001
1000
0010
0100
0001
0001
1000
1000
,
0010
1000
0100
0000
0010
0100
0010
0001
,
1000
0010
0100
0000
0010
0100
0010
1000
,
0100
0010
0001
0000
1000
0100
1100
0000
,
0001
0100
0101
0000
1000
0001
0100
0010
,
1000
0100
0010
0000
0001
0010
0100
0100
,
1000
0010
0100
0000
0010
1000
0001
1000
,
0100
0100
0010
0010
0001
1000
0010
0000
,
0100
0100
1001
1010
,
0100
0010
0001
0000
1000
0100
1000
0001
,
1000
0010
0000
0000
0001
0100
0001
0010
,
0001
0000
0100
0010
0100
0000
0000
0000
0100
0000
0010
0000
0100
0000
0001
0000
,
0100
0010
0000
0000
1000
0010
1000
0001
,
0100
0000
0001
1000
0001
0000
0000
0000
1000
0000
0100
0000
0010
0000
0001
0000
,
1000
0010
0000
0000
0100
0001
0010
0100
,
1000
0000
0010
0100
0010
0000
0000
0000
0100
0000
0001
0000
0010
0000
0100
0000
,
1000
0001
0100
0000
2002
0000
3003
0000
,
0010
1000
0100
0000
1100
0000
0101
0000
,
0010
0000
0010
0000
1000
0001
1000
0010
,
0100
0010
0100
0000
0001
0000
0000
0000
0101
0000
0000
0000
1100
0000
0000
0000
,
0010
0010
0010
0000
1000
0001
1000
0010
,
0100
0000
0001
1000
0001
0000
0000
0000
0101
0000
0000
0000
1000
0000
0000
0000
,
0010
1000
0100
0000
1000
0001
1000
0100
,
0010
0001
0100
0000
0010
0100
0001
0000
,
1000
1000
1000
0000
0100
0100
0100
0100
,
0010
0001
0100
0000
1001
0000
1010
0000
,
0001
1000
0100
0000
0101
0000
1100
0000
,
0010
0000
0001
0100
0001
0000
0000
0000
1001
0000
0000
0000
0101
0000
0000
0000
,
1000
0001
0100
0000
0001
1000
0001
1000
,
0010
0000
0100
0001
0100
0000
0000
0000
0010
0000
1000
0000
0010
0000
0100
0000
,
0001
0001
0000
0000
0100
0001
0010
0100
,
1000
0000
0101
0000
1000
0100
0010
0001
,
0100
0100
0000
0000
0001
1000
0010
1000
,
0100
0000
0000
0000
1001
0000
0000
0000
0101
0000
0000
0100
0000
0000
0010
0000
,
0000
0010
0000
0000
1000
0000
0000
0000
0200
0000
0000
0000
0300
0000
0000
0000
,
0010
0000
0001
0000
1000
0000
0000
0000
0001
0000
0000
0001
0000
0000
1000
0000
,
0000
1000
0000
0000
0010
0000
0000
0000
0200
0000
0000
0000
0300
0000
0000
0000
,
0001
1000
0100
0000
0000
0000
0000
0000
;

//---------------dance-single - ----------------
#NOTES:
     dance-single:
     :
     Challenge:
     9:
     0.550203,0.585495,0.207512,0.083005,0.726292,464.000000,439.000000,25.000000,10.000000,0.000000,0.000000,0.550203,0.585495,0.207512,0.083005,0.726292,464.000000,439.000000,25.000000,10.000000,0.000000,0.000000:
0000
0000
0000
0000
,
0000
0000
0000
0000
,
0000
0000
0000
0000
0000
0000
0000
0000
0001
0100
0000
0100
0000
0000
0000
0000
,
0001
0000
0010
0000
0100
0000
1000
0000
0001
0000
0000
0000
1000
0100
0000
0100
,
0010
0000
0001
0000
1000
0000
0001
0000
0100
0010
1000
0010
1000
0010
0000
0000
,
0100
0000
0101
0000
0000
0000
1100
0000
0000
0000
1001
0000
0000
0000
0001
0010
,
0100
0000
1000
0100
1000
0000
0000
0000
0001
0000
0100
0010
0000
0010
1000
0000
,
1000
0100
0000
0100
0010
0000
0000
0000
0011
0000
0100
0000
1000
0000
0000
0000
,
1010
0000
0100
0000
0001
0000
1000
0010
1000
0000
0001
0000
0001
0000
0000
0000
,
0100
0001
1000
0020
0130
0002
0013
0200
,
1300
0000
0001
1000
0000
0010
0000
0100
0001
0000
1000
0000
1100
0000
0000
0000
,
0001
0000
0100
0000
0101
0000
0000
0000
1000
0010
1000
0000
0001
0100
0001
0100
,
0001
1000
0000
0001
0000
1000
0100
1000
0100
1000
0001
0000
0002
0000
0000
0000
,
0103
0010
0000
0010
0000
2000
0000
0000
3001
0100
0001
0100
0001
0000
1000
0000
,
0100
0010
0000
0000
0001
1000
0000
0000
0010
0000
0100
0001
0100
0001
0000
0000
,
1000
0000
0100
0010
0100
1000
0001
1000
0001
0000
0100
0000
0010
0000
0000
0000
,
1000
0010
1000
0010
0100
0001
0100
0001
1000
0100
0010
0001
0000
0000
0100
0001
,
0100
0001
1000
0100
0010
0001
0000
0000
0100
0010
0100
0010
0000
1000
0001
0000
,
1000
0100
1000
0100
0000
1000
0000
0001
0100
0001
0100
0001
0000
0100
0010
0000
,
0110
0000
0000
0000
1000
0001
1000
0000
1001
0000
0000
0000
1100
0000
0000
0000
,
0001
0000
0100
0000
0010
0000
1000
0000
0001
0000
1000
0100
0000
0100
0000
0000
,
1000
0010
1000
0000
0001
1000
0001
1000
0010
0100
0000
0001
0000
1000
0000
1001
,
0000
0001
0010
0000
0100
1000
0100
0000
1000
0001
0000
0000
0101
0000
0100
0020
,
0000
0000
0000
0000
1030
0001
1000
0001
0100
0000
0001
0000
1000
0100
1000
0000
,
0000
0000
0001
0100
0001
0100
0001
0100
0010
1000
0000
0100
0000
0010
0000
0001
,
1000
0000
1001
0000
0000
0000
0000
0000
1000
0100
0000
0010
0000
0001
0000
1000
,
0001
0000
0100
0010
0100
0010
0100
0010
1000
0100
0000
0010
0000
0001
0000
1000
,
0010
0000
1010
0000
0000
0000
0000
0000
0001
0010
0000
0100
0000
0010
0000
0001
,
1000
0000
0001
0100
0001
0100
0001
0100
0010
1000
0000
0100
0000
0010
0000
0001
,
1000
0000
1100
0000
0000
0000
0000
0000
0010
1000
0000
0001
0000
1000
0000
0010
,
0100
0000
0001
0010
0100
0010
0001
1000
0001
0100
0000
0010
0000
1000
0000
0100
,
0010
0000
0011
0000
0000
0000
0000
0000
0001
0100
0000
0001
0000
1000
0000
0010
,
0100
0001
0000
0100
0001
0000
0000
0000
1100
0000
0000
0001
0000
0000
0100
0010
,
0100
0010
1000
0000
1001
0000
0000
0000
0001
0100
0001
0100
0020
0000
0000
0000
,
1030
0000
0001
0000
1000
0000
0000
0000
0100
1000
0100
0000
1000
0000
0001
0100
,
0001
0000
1000
0000
0010
0100
0010
0000
1000
0100
0000
0010
0000
0001
0000
1000
,
0001
0000
0000
0000
1001
0000
0000
0000
0001
0100
0001
0000
1000
0000
0001
0010
,
0200
0000
0000
0000
1300
0000
0001
0010
0100
1000
0010
0000
0200
0000
0000
0000
,
0301
0000
1000
0010
1000
0001
0100
0000
0010
0000
0100
0000
0001
0000
1000
0000
,
0100
0010
0100
0000
0010
0000
0010
0000
0001
1000
0000
0001
0000
1000
0000
0010
,
0200
0000
0000
0000
0301
0000
0000
0000
0100
0010
0000
0100
0000
0001
0000
0010
,
0100
0000
0010
0000
0000
0000
0000
0000
0001
0010
0000
0100
0000
0010
0000
0001
,
1000
0000
0000
0000
1100
0000
0000
0000
1000
0010
0000
1000
0000
0001
0000
1000
,
0010
0000
0100
0000
0001
0000
0000
0000
0100
0010
0000
0100
0000
0001
0000
0010
,
0100
0000
0000
0000
0110
0000
0000
0000
0001
0010
0001
0010
0000
0100
0010
0100
,
0010
0000
0001
0000
0000
0000
0000
0000
1000
0100
1000
0100
0000
0010
0100
0010
,
0100
0000
0000
0000
1100
0000
0000
0000
1000
0010
1000
0010
0000
1000
0100
1000
,
0100
0000
0010
0000
0000
0000
0000
0000
0001
0100
0001
0100
0000
0010
0100
0010
,
0100
0000
0101
0000
1000
0010
0100
0001
,
0010
0100
1000
0000
0100
1000
0010
0100
,
0001
1000
0001
0000
1000
0010
1000
0001
,
0010
0100
1000
0000
1100
0000
0101
0000
,
0100
0010
0010
0000
0000
0000
0000
0000
;

//---------------dance-double - ----------------
#NOTES:
     dance-double:
     :
     Challenge:
     8:
     0.450597,0.433700,0.166010,0.016601,0.236564,380.000000,360.000000,20.000000,2.000000,0.000000,0.000000,0.450597,0.433700,0.166010,0.016601,0.236564,380.000000,360.000000,20.000000,2.000000,0.000000,0.000000:
00000000
00000000
00000000
00000000
,
00000000
00000000
00000000
00000000
,
00000000
00000000
00000000
00000000
00000001
00001000
00000001
00000100
,
00000010
00001000
00000100
00000000
00001000
00000100
00010000
00001000
,
00100000
00010000
01000000
00000000
00100000
10000000
00100000
01000000
,
00010000
10000000
01000000
00000000
00100000
00010000
00000000
00010000
,
10000000
00010000
10000000
00000000
00100000
10000000
00010000
10000000
,
00000000
10000000
01000000
00100000
00020000
00000000
01030000
00100000
,
20000000
00000000
31000000
00000000
10000000
01000000
00100000
00010000
,
01000000
00100000
00010000
00100000
01000000
00010000
00100000
00001000
,
00010000
00000100
00001000
00000010
00000100
00000001
00000010
00000100
,
00001000
00010000
00100000
01000000
10000000
00100000
01000000
00010000
,
10000000
01000000
00100000
00001000
00100000
01000000
10000000
00100000
,
01000000
00010000
01000000
10000000
01000000
00100000
10000000
00010000
,
00100000
00001000
00000010
00000001
00001000
00000010
00000100
00000001
,
00001000
00000001
00001000
00000010
00000100
00000100
00001000
00000100
,
00000010
00001000
00000001
00000010
00000100
00001000
00010000
00100000
,
01000000
01000000
01000000
00100000
00010000
10000000
00100000
00010000
,
00001000
00000010
00000010
00000010
00000001
00001000
00000100
00001000
,
00000010
00000100
00000001
00001000
00000010
00000100
00000001
00000010
,
00000100
00001000
00000100
00010000
00001000
00001000
00100000
01000000
,
00100000
00010000
01000000
00100000
00010000
00010000
00100000
00001000
,
00100000
10000000
01000000
10000000
00010000
00010000
01000000
00100000
,
01000000
00010000
00100000
00001000
00010000
00010000
00000100
00001000
,
00000010
00000000
00000100
00000000
00001000
00000000
00000000
00000000
00010000
00001000
00000000
00100000
00000000
00010000
00000000
01000000
,
00100000
00000000
10010000
00000000
00000000
00000000
00000000
00000000
10000000
01000000
00000000
10000000
00000000
00100000
00000000
01000000
,
00010000
00000000
10000000
01000000
10000000
00000000
00000000
00000000
00010000
00100000
00000000
00001000
00000000
00100000
00000000
00001000
,
00010000
00000000
00011000
00000000
00000000
00000000
00000000
00000000
00000100
00001000
00000000
00000010
00000000
00000100
00000000
00000010
,
00001000
00000000
00000001
00000100
00000001
00000000
00000000
00000000
00001000
00000010
00000000
00010000
00000000
00001000
00000000
00000010
,
00000001
00000000
00000011
00000000
00000000
00000000
00000000
00000000
00000010
00000100
00000000
00001000
00000000
00000001
00000000
00000100
,
00000010
00000000
00001000
00000100
00001000
00000000
00000000
00000000
00000100
00001000
00000000
00010000
00000000
00100000
00000000
01000000
,
10000000
00000000
11000000
00000000
00000000
00000000
00000000
00000000
00010000
01000000
00000000
00100000
00000000
10000000
00000000
00100000
,
01000000
00100000
00000000
01000000
00100000
00000000
00000000
00000000
10100000
00000000
00000000
11000000
00000000
00000000
00010000
00000000
,
10000000
00000000
00100000
00000000
01000000
00000000
00010000
00000000
01010000
00000000
00000000
11000000
00000000
00000000
00100000
00000000
,
00010000
00000000
01000000
00000000
00001000
00000000
00010000
00000000
00001100
00000000
00000000
00001010
00000000
00000000
00001000
00000000
,
00000100
00000000
00000010
00000000
00000001
00000000
00000100
00000000
00000101
00000000
00000000
00001100
00000000
00000000
00000001
00000000
,
00000010
00000100
00001000
00000000
00000010
00000100
00001000
00010000
,
00001000
00100000
01000000
10000000
00100000
00010000
00100000
01000000
,
00010000
00100000
00001000
00000010
00000001
00001000
00000010
00000100
,
00001000
00010000
00001000
00100000
00010000
01000000
00100000
10000000
,
01000000
00000000
00010000
00000000
00001000
00000000
00000000
00000000
10000000
01000000
00000000
10000000
00000000
01000000
00000000
10000000
,
01000000
00000000
11000000
00000000
00000000
00000000
00000000
00000000
00000001
00000100
00000000
00000001
00000000
00000100
00000000
00000001
,
00000100
00000000
00000000
00000000
00000000
00000000
00000000
00000000
10000000
00100000
00000000
10000000
00000000
00100000
00000000
10000000
,
00100000
00000000
10100000
00000000
00000000
00000000
00000000
00000000
00000001
00000010
00000000
00000001
00000000
00000010
00000000
00000001
,
00000010
00000000
00000000
00000000
00000001
00000100
00001000
00010000
,
01000000
11000000
00000000
00000000
10000000
00100000
00010000
00001000
,
00001010
00000000
00001001
00000000
00000001
00000010
00001000
00010000
,
00100000
10100000
00000000
00000000
10000000
01000000
00010000
00001000
,
00011000
00000101
00001000
00000001
,
00000100
00000000
00000100
00000000
00000010
00001000
00000100
00000000
,
00010000
00010000
00010000
00000000
00001000
00000000
00100000
00000000
,
00010000
10000000
00100000
00000000
01000000
01000000
00010000
10000000
,
00100000
00100000
00100000
00000000
00000000
00000000
00000000
00000000
;

//---------------dance-single - ----------------
#NOTES:
     dance-single:
     :
     Medium:
     5:
     0.271544,0.281905,0.058103,0.024901,0.000000,229.000000,222.000000,7.000000,3.000000,0.000000,0.000000,0.271544,0.281905,0.058103,0.024901,0.000000,229.000000,222.000000,7.000000,3.000000,0.000000,0.000000:
0000
0000
0000
0000
,
0000
0000
0000
0000
,
0000
0000
0001
1000
,
0010
0100
0010
0000
1000
0000
1000
0000
,
0100
0010
0100
0000
1000
0000
0001
0000
,
0100
0000
0100
0000
0001
1000
0010
0000
,
1000
0001
0010
0000
0100
0000
0100
0000
,
0010
0001
2002
3003
,
1000
0001
0100
0000
0010
0000
0010
0000
,
1000
0000
0000
0000
0001
0010
0001
0000
,
1000
0100
1000
0000
0001
0000
1000
0000
,
0010
0000
0000
0000
0100
0001
0100
0000
,
0010
1000
0010
0000
1000
0000
1000
0000
,
0001
0001
0100
0010
,
1000
0000
0000
0000
0001
0010
0001
0000
,
1000
1000
0100
0100
,
0010
0000
1001
1000
,
0100
0100
1000
0001
,
0100
0001
1000
0000
0010
0000
0000
0000
,
1000
0000
0001
0000
,
0010
0010
0001
1000
,
0100
0100
1000
0000
0001
0000
1000
0000
,
0010
0010
0100
0000
0001
0000
0001
0000
,
1000
1000
0020
0030
,
0100
0000
0000
0000
0001
0100
0001
0100
,
0001
0100
0000
0000
0001
1000
0001
1000
,
0001
0000
0000
0000
1000
0100
1000
0100
,
1000
0100
0000
0000
1000
0010
1000
0010
,
1000
0000
0000
0000
0001
1000
0001
1000
,
0001
1000
0000
0000
0001
0010
0001
0010
,
0001
0000
0000
0000
1000
0100
1000
0100
,
1000
0100
0000
0000
1000
0001
1000
0001
,
0100
0000
1001
1000
,
0010
0000
0010
0000
0100
0001
0010
0000
,
0100
0000
0010
0010
,
0001
0000
1000
0000
0001
1000
0001
1000
,
0010
0000
1000
0001
,
0100
0100
0001
0000
1000
0000
0100
0000
,
0010
0000
0001
1000
,
0010
0000
0100
0000
0001
1000
0001
1000
,
0100
0000
0000
0000
1000
0100
1000
0000
,
0100
0100
0000
0000
1000
0001
1000
0000
,
0001
0000
0000
0000
0001
0100
0001
0000
,
0100
0100
0000
0000
0001
1000
0001
0000
,
1001
1100
0001
1000
,
0010
0010
0000
0000
1000
0000
0001
0000
,
0100
1001
1000
0001
,
0010
0010
0000
0000
0001
0000
1000
0000
,
0010
0100
1001
1000
,
0100
0001
1000
0001
,
0100
0100
0100
0000
0001
0000
1000
0000
,
0010
0100
0001
1000
,
0010
0010
1000
0000
0000
0000
0000
0000
;

//---------------dance-single - ----------------
#NOTES:
     dance-single:
     :
     Easy:
     3:
     0.175496,0.173480,0.016601,0.000000,0.000000,148.000000,146.000000,2.000000,0.000000,0.000000,0.000000,0.175496,0.173480,0.016601,0.000000,0.000000,148.000000,146.000000,2.000000,0.000000,0.000000,0.000000:
// measure 0
0000
0000
0000
0000
,  // measure 1
0000
0000
0000
0000
,  // measure 2
0000
0000
1000
1000
,  // measure 3
0100
0000
1000
0010
,  // measure 4
0100
0000
0001
0001
,  // measure 5
0100
0000
0001
0010
,  // measure 6
0100
0000
0010
0010
,  // measure 7
0001
0000
1000
0000
,  // measure 8
0001
0000
0100
0010
,  // measure 9
1000
0000
0010
0010
,  // measure 10
1000
0000
1000
0100
,  // measure 11
0010
0000
0001
0001
,  // measure 12
0100
0000
0001
1000
,  // measure 13
0010
0000
1000
0100
,  // measure 14
0010
0000
0001
1000
,  // measure 15
0010
0000
0100
0100
,  // measure 16
0001
0000
1000
0001
,  // measure 17
0100
0000
0001
1000
,  // measure 18
0100
0000
1000
1000
,  // measure 19
0010
0000
1000
0000
,  // measure 20
0001
0000
0100
0100
,  // measure 21
0001
0000
1000
0100
,  // measure 22
0010
0000
0001
1000
,  // measure 23
0001
0000
0100
0100
,  // measure 24
0010
0000
1001
0000
,  // measure 25
0001
0000
0100
0010
,  // measure 26
1000
0100
0010
0000
,  // measure 27
0001
0000
1000
0001
,  // measure 28
0100
0010
1000
0000
,  // measure 29
0100
0000
1000
0100
,  // measure 30
0010
0001
1000
0000
,  // measure 31
0001
0000
0100
0001
,  // measure 32
1000
0000
1001
0000
,  // measure 33
1000
0000
0001
0100
,  // measure 34
0010
0000
1000
0000
,  // measure 35
0100
0000
1000
0100
,  // measure 36
0010
0010
0001
0000
,  // measure 37
1000
0000
1000
1000
,  // measure 38
0001
0001
0100
0000
,  // measure 39
0100
0000
0001
1000
,  // measure 40
0100
0100
0010
0000
,  // measure 41
0010
0000
0001
1000
,  // measure 42
0010
0010
0100
0000
,  // measure 43
0100
0000
0001
1000
,  // measure 44
0100
0100
0010
0000
,  // measure 45
0010
0000
0001
0010
,  // measure 46
0100
0100
1000
0000
,  // measure 47
0001
0000
1000
0010
,  // measure 48
0100
0100
0001
0000
,  // measure 49
1000
0000
0010
0010
,  // measure 50
0100
0100
0001
0000
,  // measure 51
1000
0000
0100
0100
,  // measure 52
0010
0010
0000
0000
;

//---------------dance-single - ----------------
#NOTES:
     dance-single:
     :
     Beginner:
     1:
     0.100792,0.130110,0.024901,0.000000,0.000000,85.000000,82.000000,3.000000,0.000000,0.000000,0.000000,0.100792,0.130110,0.024901,0.000000,0.000000,85.000000,82.000000,3.000000,0.000000,0.000000,0.000000:
// measure 0
0000
0000
0000
0000
,  // measure 1
0000
0000
0000
0000
,  // measure 2
0000
0000
0001
0000
,  // measure 3
0000
0000
0100
0100
,  // measure 4
0000
0000
0001
0000
,  // measure 5
0000
0000
1000
1000
,  // measure 6
0000
0000
0010
0000
,  // measure 7
0010
0000
0010
0000
,  // measure 8
0000
0000
1001
0000
,  // measure 9
0000
0000
1000
1000
,  // measure 10
0000
0000
1000
0000
,  // measure 11
0000
0000
0001
0001
,  // measure 12
0000
0000
0100
0100
,  // measure 13
0000
0000
0010
0010
,  // measure 14
0000
0000
1000
0000
,  // measure 15
1000
0000
1000
0000
,  // measure 16
0000
0000
0001
0000
,  // measure 17
0000
0000
0100
0000
,  // measure 18
0100
0000
0100
0000
,  // measure 19
0000
0000
0001
0000
,  // measure 20
0000
0000
1000
0000
,  // measure 21
0000
0000
0010
0010
,  // measure 22
0000
0000
0010
0000
,  // measure 23
0000
0000
0100
0000
,  // measure 24
0000
0000
1001
0000
,  // measure 25
0000
0000
0001
0001
,  // measure 26
0001
0000
0001
0000
,  // measure 27
0000
0000
0100
0100
,  // measure 28
0100
0000
0100
0000
,  // measure 29
0000
0000
0010
0010
,  // measure 30
0010
0000
0010
0000
,  // measure 31
0000
0000
1000
1000
,  // measure 32
0000
0000
1001
0000
,  // measure 33
0000
0000
1000
0000
,  // measure 34
1000
0000
1000
0000
,  // measure 35
0000
0000
0100
0100
,  // measure 36
0100
0000
0100
0000
,  // measure 37
0000
0000
0010
0000
,  // measure 38
0010
0000
0010
0000
,  // measure 39
0000
0000
0001
0001
,  // measure 40
0001
0000
0001
0000
,  // measure 41
0000
0100
0100
0000
,  // measure 42
0000
0000
0010
0000
,  // measure 43
0000
1000
1000
0000
,  // measure 44
0000
0000
0001
0000
,  // measure 45
0000
0000
1000
1000
,  // measure 46
1000
0000
1000
0000
,  // measure 47
0000
0000
0100
0000
,  // measure 48
0100
0000
0100
0000
,  // measure 49
0000
0000
0001
0000
,  // measure 50
0001
0000
0001
0000
,  // measure 51
0000
0000
1000
1000
,  // measure 52
1000
1000
0000
0000
;
