#TITLE:Drag Me Down;
#SUBTITLE:;
#ARTIST:One Direction;
#TITLETRANSLIT:;
#SUBTITLETRANSLIT:;
#ARTISTTRANSLIT:;
#GENRE:RIP Zayn;
#CREDIT:;
#BANNER:Drag Me Down.png;
#BACKGROUND:Drag Me Down-bg.png;
#LYRICSPATH:;
#CDTITLE:;
#MUSIC:Drag Me Down.ogg;
#OFFSET:0.010000;
#SAMPLESTART:109.303909;
#SAMPLELENGTH:13.714000;
#SELECTABLE:YES;
#BPMS:0.000000=138.000000
,124.000000=69.000000
,126.000000=138.000000
,250.000000=69.000000
,252.000000=138.000000
;
#STOPS:
;
#BGCHANGES:4.000=Drag Me Down.avi=1.000=0=0=1=====,
99999=-nosongbg-=1.000=0=0=0 // don't automatically add -songbackground-
;
#KEYSOUNDS:;
#ATTACKS:;

//---------------dance-single - ----------------
#NOTES:
     dance-single:
     :
     Hard:
     8:
     0.600350,0.642490,0.484898,0.070275,0.147578,519.000000,69.000000,10.000000,0.000000,0.000000,0.000000,0.600350,0.642490,0.484898,0.070275,0.147578,519.000000,69.000000,10.000000,0.000000,0.000000,0.000000:
0000
0000
0000
0000
,
0000
0000
0000
0000
,
0000
0000
0000
0000
,
0000
0000
0000
0000
,
1000
1000
0001
0100
0010
1000
0001
0000
,
1000
1000
0100
0010
0001
1000
0010
0000
,
0100
0100
0010
0100
0001
0010
0100
0000
,
1100
0110
0011
1001
,
0001
0100
1000
0001
0010
1000
0001
1000
,
0100
0010
0002
0000
1003
0000
0010
0000
,
0100
0100
0001
0010
0010
0100
0100
0010
,
0001
1000
0010
0000
0100
0000
0010
0000
,
1000
0010
0001
1000
0100
0001
1000
0001
,
0010
0100
2000
0000
3001
0000
0100
0000
,
0010
1000
0001
0000
0010
0001
1000
0000
,
0100
0100
0100
0000
1000
0001
0100
0000
,
0102
0000
0000
2003
0000
0000
3200
0000
,
0310
0001
1000
0000
1100
0000
0011
0000
,
1000
0000
0001
0000
0100
0000
0000
0100
0010
0000
0000
0000
1000
0000
0010
0000
,
0100
0001
1000
0000
1100
0000
0011
0000
,
2010
0000
0000
3002
0000
0000
0023
0000
,
0130
1000
0001
0000
0011
0000
1100
0000
,
0001
0000
1000
0000
0010
0000
0000
0010
0100
0000
0000
0000
0001
0000
0100
0000
,
0010
1000
0001
0000
0011
0000
1100
0000
,
0001
1000
0001
1000
0001
1000
0001
1000
,
0010
0100
0010
0100
0010
0100
0010
0100
,
0001
0010
0001
0010
0001
0010
0001
0010
,
0100
1000
0100
1000
0100
1000
0100
1000
,
0001
0100
0010
1000
0100
0010
0001
0001
,
1000
0010
0100
0001
1000
0100
1000
1000
,
0010
0000
0100
0000
0010
0000
1000
0000
0100
0000
0010
0000
0001
0010
0100
1000
,
0001
0000
0100
0100
1001
1000
0100
0000
,
1001
0000
1000
0010
0110
0100
0001
0000
,
1001
0000
0100
0001
0011
0010
0100
0000
,
0110
0000
0010
0001
1001
1000
0100
0000
,
1100
0000
0011
0000
1001
1000
0010
0000
,
1010
0000
0001
0010
0011
0001
1000
0000
,
1100
0000
0001
0100
0110
0100
0001
0000
,
1001
0000
1000
0100
1100
0001
0100
0000
,
0101
0000
0000
0000
1001
0000
0000
0000
0010
0000
1000
0100
1000
0000
0001
0000
,
0100
0000
0010
0000
1000
0000
0000
0000
0001
0000
0010
0100
0010
0000
0001
0000
,
1000
0000
0010
0000
0100
0000
0000
0000
0001
0000
0010
0001
0010
0000
0001
0000
,
1000
0000
0010
0000
0100
0000
0000
0000
0001
0010
0000
0000
0010
0100
0000
0000
,
0100
1000
0000
0000
1001
0000
0000
0000
0100
0000
0001
0010
0001
0000
1000
0000
,
0010
0000
0100
0000
0001
0000
0000
0000
1000
0000
0100
0010
0100
0000
1000
0000
,
0001
0000
0100
0000
0010
0000
0000
0000
1000
0000
0100
1000
0100
0000
1000
0000
,
0001
0000
0100
0000
0010
0000
0000
0000
1000
0100
0000
0000
0100
0010
0000
0000
,
0010
0001
0000
0000
1001
0000
0000
0000
0001
0000
0100
0000
0101
0000
0100
0000
,
0010
1000
0100
0010
0001
1000
1001
0000
,
0100
0100
0100
0000
1000
0100
1100
1000
,
0010
0100
0001
0010
0001
1000
1001
0000
,
0010
0010
0010
0000
1000
0010
1010
0010
,
0100
0001
0010
0100
1000
0001
1001
0000
,
0010
0000
0010
0000
0010
0000
0000
0000
0001
0010
0000
0000
0010
0100
0000
0000
,
0100
1000
0000
0000
0001
0000
1000
0000
0010
0000
0010
0000
0100
0000
0000
0000
,
0001
1000
0100
0000
1001
0000
0100
1100
,
0001
0000
0101
0000
1000
0001
0010
0000
,
0011
0000
0000
0000
1100
0000
0000
0000
0001
0000
1000
0000
0010
0000
0000
0010
,
0100
0000
0001
0100
0010
1000
0001
0000
,
1100
0000
0011
0000
1001
0000
0010
1010
,
0100
0000
0101
0000
0010
1000
0001
0000
,
1100
0000
0011
0000
1000
0001
1000
0010
,
0100
0000
0001
0000
1000
0100
0010
0001
1000
0000
0000
0000
1001
0000
1001
0000
,
0110
0000
0100
0000
0001
0000
1000
0100
1000
0000
0000
0000
0001
0000
0010
0000
,
0011
0000
0001
0000
1000
0000
0010
0100
0010
0000
0000
0000
1000
0000
0001
0000
,
1001
0000
1000
0000
0100
0000
0010
0001
0010
0000
0000
0000
0001
0000
1000
0000
,
1010
0000
0010
0000
0100
0000
0001
1000
0001
0000
0010
0100
0010
0000
0000
0000
,
0011
0000
0010
0000
0100
0000
1000
0001
1000
0000
0000
0000
0010
0000
0100
0000
,
0101
0000
0100
0000
0010
0000
1000
0001
1000
0000
0000
0000
0100
0000
0010
0000
,
0011
0000
0001
0000
1000
0000
0010
0100
0010
0000
0000
0000
1000
0000
0100
0000
,
1100
0000
1000
0000
0001
0000
0100
0010
0100
0000
0001
1000
0001
0000
0000
0000
,
0110
0000
0000
0000
0001
0000
1000
0000
0010
0000
0100
0000
0001
0000
1000
0100
,
1000
0100
1000
0000
0010
0000
1000
0000
0001
0000
0000
0000
0100
0000
0010
0000
,
1000
0100
1000
0000
0010
0000
0100
0000
0001
0000
1000
0000
0100
0000
0010
0001
,
0010
0001
0010
0000
0001
0000
1000
0000
1010
0000
0000
0000
1001
0000
0000
0000
,
0110
0000
0000
0000
1000
0000
0001
0000
0100
0000
0010
0000
1000
0000
0001
0010
,
0001
0010
0001
0000
0100
0000
0001
0000
1000
0000
0000
0000
0010
0000
0100
0000
,
0001
0010
0001
0000
0100
0000
0010
0000
1000
0000
0001
0000
0010
0000
0100
1000
,
0100
1000
0100
0000
1000
0000
0001
0000
0101
0000
0000
0000
1001
0000
0000
0000
,
2200
0000
3300
0000
;

//---------------dance-single - ----------------
#NOTES:
     dance-single:
     :
     Medium:
     6:
     0.380489,0.502818,0.386513,0.140550,0.000000,304.000000,55.000000,20.000000,0.000000,0.000000,0.000000,0.380489,0.502818,0.386513,0.140550,0.000000,304.000000,55.000000,20.000000,0.000000,0.000000,0.000000:
0000
0000
0000
0000
,
0000
0000
0000
0000
,
0000
0000
0000
0000
,
0000
0000
0000
0000
,
1000
1000
0100
0000
0010
0000
0001
0000
,
0100
0100
0010
0000
0100
0000
0001
0000
,
0010
0010
0100
0000
1000
0000
0010
0000
,
0101
0110
1010
1001
,
0010
0000
1000
0100
1000
0000
0010
0000
,
0100
0100
0100
0000
0000
0000
0000
0000
,
0001
0000
0010
0100
0010
0000
0001
0000
,
1000
1000
1000
0000
0000
0000
0000
0000
,
0001
0100
0001
0000
1000
0000
0100
0000
,
1000
1000
1000
0000
0000
0000
0000
0000
,
0100
0100
0010
0010
,
0001
1000
0001
0000
0000
0000
0000
0000
,
2000
0000
0000
3002
0000
0000
0203
0000
,
0300
0010
0010
0010
,
0000
0100
0001
1000
,
0100
0010
0001
0000
1000
0000
0010
0000
,
0200
0000
0000
0302
0000
0000
2003
0000
,
3000
0100
0100
0100
,
0000
1000
0010
0100
,
0001
1000
0001
0000
0010
0000
0100
0000
,
1001
1001
1001
1001
,
0101
0101
0101
0101
,
1010
1010
1010
1010
,
0011
0011
0011
0011
,
1001
1100
1001
0101
,
1001
1010
1001
0011
,
0001
1000
0001
1000
0001
1000
0001
1000
,
0010
0000
0000
0000
1000
0100
0000
0000
,
1100
0000
0000
0100
1000
0001
0000
0000
,
0101
0000
0000
0000
0010
1000
0000
0000
,
1010
0000
0000
0010
1000
0001
0010
0000
,
0011
0000
1100
0000
0001
1000
0000
0000
,
1001
0000
0000
0100
0010
0001
0000
0000
,
0011
0000
0000
0000
0001
0100
0000
0000
,
0101
0000
0000
0100
0010
1000
0100
0000
,
1000
0001
0100
0010
,
1000
0000
0100
0010
0001
0000
1000
0000
,
0001
0000
0100
0010
1000
0000
0001
0000
,
1000
0100
0010
0000
0002
0000
2003
0000
,
3020
0030
1000
0001
,
0100
0000
0010
1000
0100
0000
0010
0000
,
0001
0000
1000
0010
0100
0000
0001
0000
,
0010
0100
1000
0000
0002
0000
2003
0000
,
3020
0030
1000
1001
,
0010
0000
0100
0101
,
0010
0000
1000
1100
,
0001
0000
0010
0110
,
0001
0000
1000
1010
,
0001
0000
0100
0101
,
1000
0000
0100
0110
,
0001
0000
0011
0000
1000
0001
1000
0000
,
0010
0000
0000
0000
2000
0000
0000
3002
,
0000
0023
0030
0001
,
1000
0001
0000
1000
,
1000
0000
0010
0000
0100
0010
0100
0000
,
0001
0000
1000
0000
0200
0000
0000
2300
,
0000
3020
0030
0100
,
0001
1000
0100
0100
,
1000
0000
0010
0100
0001
0000
1000
1000
,
0100
0010
0000
0000
0110
0000
0000
0001
,
0010
0100
0000
0000
1100
0000
0000
0000
,
1000
0001
0000
0000
1001
0000
0000
1000
,
0010
0100
0001
0000
1000
0000
0100
0000
,
0010
0001
0000
0000
0011
0000
0000
0010
,
0001
1000
0000
0000
1001
0000
0000
0000
,
0100
0010
0000
0000
0110
0000
0000
0001
,
0010
0100
1000
0000
0010
0000
0100
0000
,
0010
1000
0000
1000
0100
0000
0000
1000
,
0100
0010
0000
0010
0001
0000
0000
0000
,
0100
0010
0000
0010
1000
0000
0000
0100
,
1000
0001
0100
0000
0101
0000
1100
0000
,
0001
0010
0000
0010
0100
0000
0000
1000
,
0010
0100
0000
0100
0001
0000
0000
0000
,
1000
0100
0000
0100
0010
0000
0000
0001
,
1000
0010
0100
0000
0110
0000
1001
0000
,
0202
0000
0303
0000
;

//---------------dance-single - ----------------
#NOTES:
     dance-single:
     :
     Easy:
     3:
     0.221868,0.279343,0.077303,0.091358,0.000000,197.000000,11.000000,13.000000,0.000000,0.000000,0.000000,0.221868,0.279343,0.077303,0.091358,0.000000,197.000000,11.000000,13.000000,0.000000,0.000000,0.000000:
0000
0000
0000
0000
,
0000
0000
0000
0000
,
0000
0000
0000
0000
,
0000
0000
0000
0000
,
0100
0100
0000
0000
0000
0000
0000
0000
,
0001
0001
0000
0000
0000
0000
0000
0000
,
1000
1000
0000
0000
0000
0000
0000
0000
,
0100
0100
0100
0000
,
1000
0000
1000
0000
,
0010
0010
0000
0000
,
0100
0000
0100
0000
,
0001
0001
0000
0000
,
0010
0001
0010
0000
,
0001
0001
1000
0000
,
0100
1000
0100
0000
,
1000
1000
1000
0000
,
2002
0000
0000
3003
,
0020
0000
0000
0030
,
0200
0000
0000
0300
,
0002
0003
2000
3000
,
0220
0000
0000
0330
,
0002
0000
0000
0003
,
2000
0000
0000
3000
,
0020
0030
0200
0300
,
1001
1000
1000
1000
,
0100
0100
0100
0100
,
0010
0010
0010
0010
,
0001
0001
0001
0001
,
1001
0001
0001
0001
,
0100
0100
0100
0100
,
0010
1000
0100
0010
,
0001
0000
1001
0000
,
0100
0000
0010
1000
,
0001
0000
1000
0000
,
0100
0000
1000
0001
,
0100
0100
0010
0000
,
0100
0000
0001
0010
,
0100
0000
1000
0000
,
0001
0000
1000
0010
,
0100
0000
0100
0000
0001
0001
0000
0000
,
0000
0000
0000
0000
1000
1000
0000
0000
,
0000
0000
0000
0000
0100
0100
0000
0000
,
0000
0000
0010
0001
,
1000
0000
0010
0000
0100
0100
0000
0000
,
0000
0000
0000
0000
0001
0001
0000
0000
,
0000
0000
0000
0000
1000
1000
0000
0000
,
0000
0000
0100
1000
,
0010
0100
0001
0000
,
1000
0000
0010
0100
,
0010
0000
1000
0000
,
0001
0000
0010
0100
,
0010
0000
0001
1000
,
0001
0000
1000
0100
,
1000
0000
0010
0010
,
0010
0000
0100
0001
,
0100
0000
0000
0000
0010
0000
0000
0010
,
0000
0010
0000
1000
,
1000
1000
0000
0100
,
0010
0000
0001
1000
,
0010
0000
0000
0000
0100
0000
0000
0100
,
0000
0100
0000
0010
,
0010
0010
0000
1000
,
0100
0000
1001
0000
,
0110
0000
0001
0000
,
0100
0010
1000
0000
,
0001
0000
1000
0000
,
0100
0010
0001
0001
,
1000
0000
0010
0000
,
0100
0010
1000
0000
,
0100
0000
0010
0000
,
0001
1000
0010
0010
,
0100
0000
1001
0000
,
0100
0001
1000
0000
,
0100
0000
1001
0000
,
1000
0001
0100
0100
,
0010
0000
0110
0000
,
0100
0001
1000
0000
,
0100
0000
0110
0000
,
1000
0100
0010
0001
,
2000
0000
3000
0000
;

//---------------dance-single - ----------------
#NOTES:
     dance-single:
     :
     Beginner:
     2:
     0.136534,0.166552,0.126495,0.000000,0.000000,118.000000,18.000000,0.000000,0.000000,0.000000,0.000000,0.136534,0.166552,0.126495,0.000000,0.000000,118.000000,18.000000,0.000000,0.000000,0.000000,0.000000:
0000
0000
0000
0000
,
0000
0000
0000
0000
,
0000
0000
0000
0000
,
0000
0000
0000
0000
,
0100
0000
0000
0000
,
0001
0000
0000
0000
,
1000
0000
0000
0000
,
0100
0100
0100
0000
,
0100
0000
1000
0000
,
0010
0010
0000
0000
,
0100
0000
0001
0000
,
0010
0010
0000
0000
,
0001
0000
1000
0000
,
0010
0010
0000
0000
,
0100
0100
0100
0000
,
0010
0000
0000
0000
,
1001
0000
0000
0000
,
0010
0000
0000
0000
,
0100
0000
0000
0000
,
1000
0000
0000
0000
,
0001
0000
0000
0000
,
0100
0000
0000
0000
,
0010
0000
0000
0000
,
1000
0000
0000
0000
,
0100
0000
0100
0000
,
0010
0000
0010
0000
,
0001
0000
0001
0000
,
1000
0000
1000
0000
,
0010
0000
0010
0000
,
0100
0000
0100
0000
,
0001
0000
0001
0000
,
1000
0000
1001
0000
,
0000
0000
1001
0000
,
0000
0000
1001
0000
,
0000
0000
1001
0000
,
0000
0000
0110
0000
,
0000
0000
0110
0000
,
0000
0000
0110
0000
,
0000
0000
0110
0000
,
0000
0000
0010
0000
,
1000
0000
0100
0000
,
0000
0000
0100
0000
,
0010
0000
0001
0000
,
0000
0000
0100
0000
,
0001
0000
1000
0000
,
0000
0000
0100
0000
,
1000
0000
0010
0000
,
0000
0000
1000
0000
,
1000
0000
0100
0100
,
0000
0000
0010
0000
,
0010
0000
0001
0001
,
0000
0000
0100
0000
,
0100
0000
0010
0010
,
0000
0000
1000
0000
,
1000
0000
0100
0100
,
0000
0000
1001
0000
,
0000
0000
0010
0000
,
0000
0000
1000
0000
,
0000
0000
0001
0000
,
0000
0000
0010
0000
,
0010
0000
0100
0000
,
0100
0000
1000
0000
,
1000
0000
0001
0000
,
1001
0000
0000
0000
,
1001
0000
0000
0000
,
1001
0000
0000
0000
,
1001
0000
0000
0000
,
0110
0000
0000
0000
,
0110
0000
0000
0000
,
0110
0000
0000
0000
,
0110
0000
0000
0000
,
1000
1000
0000
0000
,
0001
0001
0000
0000
,
0100
0100
0000
0000
,
0001
0001
0000
0000
,
0010
0010
0000
0000
,
0100
0100
0000
0000
,
1000
1000
0000
0000
,
0001
0000
0100
0100
,
0100
0000
0000
0000
;

//---------------dance-double - ----------------
#NOTES:
     dance-double:
     :
     Challenge:
     8:
     0.551157,0.586621,0.534090,0.126495,0.070275,455.000000,76.000000,18.000000,0.000000,0.000000,0.000000,0.551157,0.586621,0.534090,0.126495,0.070275,455.000000,76.000000,18.000000,0.000000,0.000000,0.000000:
// measure 0
00000000
00000000
00000000
00000000
,  // measure 1
00000000
00000000
00000000
00000000
,  // measure 2
00000000
00000000
00000000
00000000
,  // measure 3
00000000
00000000
00000000
00000000
,  // measure 4
00020000
00000000
00031000
00000000
00100000
00010000
00100000
00000000
,  // measure 5
00002000
00000000
00013000
00000000
00000010
00001000
00000010
00000000
,  // measure 6
00020000
00000000
00031000
00000000
01000000
00010000
01000000
00000000
,  // measure 7
11000000
01010000
00110000
10100000
,  // measure 8
00010000
10000000
00010000
01000000
01000000
00100000
10000000
01000000
,  // measure 9
01000000
00100000
00020000
00000000
10030000
00000000
00010000
00000000
,  // measure 10
00100000
00100000
00001000
00010000
00010000
00000100
00001000
00000010
,  // measure 11
00000100
00000100
00000200
00000000
00000301
00000000
00001000
00000000
,  // measure 12
00000010
00000010
00001000
00000100
00000100
00000010
00000001
00001000
,  // measure 13
00000100
00000100
00020000
00000000
00031000
00000000
00100000
00000000
,  // measure 14
00101000
00000000
00011000
00000000
00001010
00000000
00000001
00001000
,  // measure 15
00000010
00000100
00000002
00000000
00001003
00000000
00001001
00000000
,  // measure 16
00000100
00000000
00000000
00000010
00000000
00000000
00001000
00000000
,  // measure 17
00000100
00000010
00000001
00000000
00001100
00000000
00000101
00000000
,  // measure 18
00001000
00000010
00000010
00000000
,  // measure 19
00001000
00000100
00010000
00000000
00011000
00000000
00110000
00000000
,  // measure 20
10000000
00000000
00000000
00100000
00000000
00000000
01000000
00000000
,  // measure 21
00010000
10000000
00100000
00000000
10100000
00000000
01010000
00000000
,  // measure 22
00000000
00000000
10000000
01000000
10000000
00000000
00000000
00000000
,  // measure 23
00010000
00100000
01000000
00000000
11000000
00000000
00110000
00000000
,  // measure 24
10010000
10100000
01010000
00110000
,  // measure 25
00011000
00110000
11000000
01010000
,  // measure 26
00011000
00001100
00000101
00000011
,  // measure 27
00001010
00001001
00000110
00001001
,  // measure 28
00000101
00000000
00001010
00000000
00000001
00001000
00000010
00000000
,  // measure 29
00001010
00000000
00000101
00000000
00001000
00000100
00000010
00000000
,  // measure 30
00000001
00000000
00001000
00000000
00000010
00000000
00000100
00000000
00000001
00000000
00001000
00000000
00000100
00010000
00000100
00010000
,  // measure 31
00001000
00000000
00000000
00000000
00110000
00010000
10000000
00000000
,  // measure 32
10100000
00000000
00010000
10000000
00100000
01000000
00010000
00000000
,  // measure 33
10010000
00000000
01000000
00000000
10100000
00100000
01000000
00000000
,  // measure 34
10010000
00000000
10000000
01000000
00100000
00010000
02000000
00000000
,  // measure 35
03001000
00010000
00000100
00000000
00001100
00001000
00000001
00000000
,  // measure 36
00000101
00000000
00000010
00000100
00000001
00001000
00000010
00000000
,  // measure 37
00001010
00000000
00000001
00000000
00001100
00001000
00000001
00000000
,  // measure 38
00000011
00000000
00001000
00000010
00000100
00000001
00001000
00000000
,  // measure 39
00001010
00000010
00000100
00000000
00000001
00001000
00000001
00001000
,  // measure 40
00000010
00000100
00000001
00000010
00000100
00001000
00000100
00001000
,  // measure 41
00000010
00001000
00000100
00010000
00001000
00010000
00001000
00010000
,  // measure 42
00100000
00000000
10000000
00000000
01000000
00000000
00100000
00000000
00010000
10000000
00000000
00000000
00100000
01000000
00000000
00000000
,  // measure 43
00010000
10000000
00000000
00000000
01000000
00100000
00000000
00000000
00010000
00000000
10000000
00000000
00010000
00000000
10000000
00000000
,  // measure 44
00100000
01000000
00010000
00100000
01000000
10000000
01000000
10000000
,  // measure 45
00100000
01000000
00010000
00100000
00001000
00010000
00001000
00010000
,  // measure 46
00001000
00000000
00000100
00000000
00000001
00000000
00001000
00000000
00000100
00000010
00000000
00000000
00000001
00001000
00000000
00000000
,  // measure 47
00000010
00000100
00000000
00000000
00000001
00000000
00000000
00000000
00001000
00000000
00000100
00000000
00001100
00000000
00000100
00000000
,  // measure 48
00000010
00000001
00001000
00000010
00000100
00000100
00000102
00000000
,  // measure 49
00001003
00000000
00000100
00000000
00002000
00000000
00000000
00003000
00000010
00000000
00001000
00000000
00001100
00000000
00000100
00000000
,  // measure 50
00010000
00000000
00001000
00000000
00010000
00000000
00100000
00000000
10100000
00000000
10000000
00000000
00020000
00000000
00000000
00030000
,  // measure 51
01000000
00010000
01010000
00000000
10000000
10000000
01000000
00100000
,  // measure 52
00100000
00010000
10000000
00100000
01000000
00100000
10010000
00000000
,  // measure 53
01000000
00000000
00100000
00000000
10010000
00000000
00000000
00000000
10000000
01000000
00000000
00000000
01000000
00100000
00000000
00000000
,  // measure 54
00110000
00000000
10000000
01000000
00100000
00010000
02000000
00000000
,  // measure 55
03100000
00010000
00002000
00000000
00003020
00000000
00000001
00000000
,  // measure 56
00001000
00000001
00000032
00000100
,  // measure 57
00001000
00000000
00000000
00000000
00000010
00000000
00000000
00000000
00001003
00000000
00000100
00000000
00001000
00000000
00000000
00001000
,  // measure 58
00000001
00000000
00001000
00000010
00000100
00000001
00001000
00000000
,  // measure 59
00000101
00001010
00010100
00011000
,  // measure 60
00100000
00010000
00100000
00000000
00010000
10000000
00100000
01000000
,  // measure 61
00010000
10000000
01000000
00000000
00100000
00100000
00010000
01000000
,  // measure 62
00010000
00000000
01000000
00000000
00001000
00010000
00001000
00010000
00001000
00000000
00000000
00000000
00011000
00000000
00011000
00000000
,  // measure 63
00001100
00001000
00000001
00000000
00000101
00000000
00001000
00000001
,  // measure 64
00000100
00000010
00001000
00000000
00001001
00000000
00000010
00000000
,  // measure 65
00000101
00000100
00000010
00000000
00001001
00000000
00000001
00000010
,  // measure 66
00000100
00001000
00000020
00000000
00010030
00001000
00100000
00000000
,  // measure 67
00110000
00010000
10000000
00000000
10100000
00000000
01000000
00100000
,  // measure 68
10000000
00010000
01000000
00000000
01010000
00000000
10000000
00000000
,  // measure 69
00110000
00010000
10000000
00000000
11000000
00000000
00010000
01000000
,  // measure 70
00100000
10000000
00010000
00000000
01010000
01000000
00100000
00000000
,  // measure 71
10000000
00000000
00100000
00000000
01000000
00000000
00010000
00100000
00010000
00000000
10000000
00000000
01000000
00000000
00100000
00001000
,  // measure 72
00100000
00000000
00001000
00000000
00010000
00000000
00000100
00001000
00000100
00000000
00001000
00000000
00000010
00000000
00000100
00000000
,  // measure 73
00000001
00001000
00000010
00000000
00001001
00000000
00001000
00000010
,  // measure 74
00000100
00000001
00001000
00000000
00000100
00000010
00000001
00000000
,  // measure 75
00000101
00000000
00000100
00000000
00000010
00000000
00001000
00000100
00001000
00000000
00000001
00000000
00000010
00000000
00000100
00010000
,  // measure 76
00000100
00000000
00010000
00000000
00001000
00000000
00100000
00010000
00100000
00000000
00010000
00000000
01000000
00000000
00100000
00000000
,  // measure 77
10000000
00010000
01000000
00000000
10010000
00000000
00010000
01000000
,  // measure 78
00100000
10000000
00010000
00000000
00100000
01000000
10000000
00000000
,  // measure 79
02002000
00000000
03003000
00000000
;
