#TITLE:Counting Stars;
#SUBTITLE:;
#ARTIST:One Republic;
#TITLETRANSLIT:;
#SUBTITLETRANSLIT:;
#ARTISTTRANSLIT:;
#GENRE:Pop-Rock;
#CREDIT:;
#BANNER:Counting Stars.png;
#BACKGROUND:Counting Stars-bg.png;
#LYRICSPATH:;
#CDTITLE:;
#MUSIC:Counting Stars.ogg;
#OFFSET:-0.062000;
#SAMPLESTART:97.411934;
#SAMPLELENGTH:13.714000;
#SELECTABLE:YES;
#BPMS:0.000000=122.000000
,184.000000=61.000000
,191.000000=122.000000
;
#STOPS:
;
#BGCHANGES:4.000=Counting Stars.avi=1.000=0=0=1=====,
99999=-nosongbg-=1.000=0=0=0 // don't automatically add -songbackground-
;
#KEYSOUNDS:;
#ATTACKS:;

//---------------dance-single - ----------------
#NOTES:
     dance-single:
     :
     Hard:
     7:
     0.445310,0.441828,0.089258,0.336434,0.034330,392.000000,13.000000,49.000000,0.000000,0.000000,0.000000,0.445310,0.441828,0.089258,0.336434,0.034330,392.000000,13.000000,49.000000,0.000000,0.000000,0.000000:
0000
0000
0000
0000
,
0000
0000
0000
0000
,
0000
0000
0000
0000
,
0000
0000
0000
0000
,
2000
0000
0000
0000
3100
0000
0000
0000
1000
0000
0000
0000
0010
0000
0000
0100
,
0002
0000
0000
0000
1003
0000
0000
0000
0001
0000
0000
0000
0010
0000
0000
0001
,
0200
0000
0000
0000
0310
0000
0000
0000
1000
0000
0000
0000
0001
0000
0000
0010
,
0200
0000
1300
0000
0100
1000
0010
0100
,
0002
0000
0003
0100
0010
0100
0010
0000
,
1000
0010
1000
0000
0001
0010
0001
0000
,
1000
0100
1000
0100
0010
0001
0100
0000
,
0001
0100
0001
0100
0010
1000
0100
0000
,
1002
0000
0003
0100
0001
0100
0001
0000
,
2001
0000
3000
0100
1000
0100
1000
0000
,
0001
1000
0001
1000
0100
0010
0001
0000
,
1000
0010
0100
0000
0001
0010
0100
0000
,
1000
0000
1200
0000
0310
0001
0200
0000
,
0310
0000
2010
0000
3001
1000
0001
0100
,
0020
0000
1030
0000
0100
1000
0100
1000
,
0002
0000
0013
0000
0001
1000
0010
0000
,
0100
0000
0102
0000
1003
0010
0200
0000
,
0301
0000
1000
0100
1000
0100
0020
0000
,
0032
0000
0103
0000
0001
1000
0001
1000
,
0010
0100
0001
0000
1000
0100
1000
0000
,
0001
0000
1000
0000
0100
0000
0000
0100
0010
0000
0000
0000
0001
0000
0000
0001
,
0100
0000
0000
0000
0010
0000
0000
0010
1000
0000
0001
0000
0100
0000
0000
0000
,
2002
0000
0000
3003
,
0000
0000
0000
0000
,
2010
3002
0103
2001
,
3001
0010
0100
1000
0002
0000
0103
0000
,
0001
0100
0010
0100
1000
0100
0010
0100
,
0002
2003
3200
0310
,
0012
2003
3100
1002
,
1003
0100
0010
0001
2000
0000
3010
0000
,
1000
0010
0100
0010
0001
0010
0100
0010
,
1000
1000
0001
0000
0001
0001
1000
0010
,
0200
0001
0000
0001
,
0000
0001
0000
0301
,
1000
0001
1000
0000
0001
1000
0001
0000
,
1000
0100
0010
0001
0100
0010
1000
0000
,
0001
1000
0001
0000
1000
0001
1000
0000
,
0001
0010
0100
1000
0010
0100
0001
0000
,
1000
0100
1000
0100
0010
0001
1000
0000
,
0001
0100
0001
0100
0010
1000
0001
0000
,
1000
0100
0010
0001
0100
0010
1000
0100
,
0010
0001
0100
0010
1000
0100
0010
0001
,
1000
0000
0000
0000
,
0000
0000
0000
0012
,
2003
0000
3010
1000
0002
0000
0103
0010
,
0100
0001
2000
0000
3100
0000
1000
0100
,
0010
0001
0100
0010
1000
0001
0020
0000
,
0032
2003
3010
2010
,
3002
0000
0103
0001
2000
0000
3001
0010
,
0100
1000
0002
0000
0103
0000
0001
1000
,
0001
1000
0010
0100
0002
0000
1003
0100
,
1000
0001
0020
0000
0031
0000
1000
0100
,
0001
0100
1000
0010
0200
0000
0301
1000
,
0010
0100
0000
0000
0001
0000
0100
0000
0020
0000
0000
0000
1030
0000
0010
0000
,
0100
0000
0001
1000
0000
0000
0001
0000
0001
0000
0010
0000
0002
0000
0000
0000
,
2003
0000
3100
0010
0001
1000
0001
0010
,
1000
0010
0001
0100
0020
0000
1030
0001
,
0100
0010
0000
0000
1000
0000
0010
0000
0200
0000
0000
0000
0301
0000
0100
0000
,
0010
0000
1000
0000
0001
0000
1000
0000
0010
0100
0000
0000
0001
0000
0001
0000
,
0100
0010
1000
1000
0010
0100
0001
0010
,
0001
0010
0100
1000
0001
0000
1000
0010
,
1000
0010
0100
0001
1000
0000
0001
0100
,
1000
0000
1000
0100
0001
0000
0001
0010
,
1000
0000
1000
0010
0001
0000
0100
0001
,
0100
0001
1000
0010
0100
0001
1000
0100
,
1000
0100
0010
0001
1000
0000
0001
0010
,
1000
0000
1000
0100
0001
0000
1100
0000
,
0000
0000
0000
0001
0100
0000
0000
0000
;

//---------------dance-single - ----------------
#NOTES:
     dance-single:
     :
     Challenge:
     9:
     0.572821,0.589104,0.082392,0.192248,0.466889,544.000000,12.000000,28.000000,0.000000,0.000000,0.000000,0.572821,0.589104,0.082392,0.192248,0.466889,544.000000,12.000000,28.000000,0.000000,0.000000,0.000000:
// measure 0
0000
0000
0000
0000
,  // measure 1
0000
0000
0000
0000
,  // measure 2
0000
0000
0000
0000
,  // measure 3
0000
0000
0000
0000
,  // measure 4
0100
0000
0001
0100
0001
0000
0100
0001
0100
0000
0001
0100
0020
0000
0000
0000
,  // measure 5
1030
0000
0100
1000
0100
0000
1000
0100
1000
0000
0100
1000
0002
0000
0000
0000
,  // measure 6
0103
0000
0010
0100
0010
0000
0100
0010
0100
0000
0010
1000
0200
0000
0000
0000
,  // measure 7
1300
0000
0001
0100
0001
0000
0100
0001
0100
0000
0001
1000
0010
0000
0100
0000
,  // measure 8
0002
0000
0000
0000
0103
0000
0010
0100
0010
0000
0100
0000
0001
0000
0000
0000
,  // measure 9
1000
0100
1000
0001
0010
0001
1000
0000
,  // measure 10
0010
1000
0001
1000
0010
0100
0001
0000
,  // measure 11
1000
0000
0100
1000
0100
0000
1000
0000
0001
0000
0100
0000
0010
0000
0000
0000
,  // measure 12
2010
0000
0000
0000
3001
0000
1000
0001
1000
0000
0100
0000
0010
0000
0000
0000
,  // measure 13
0012
0000
0000
0000
1003
0000
0001
1000
0001
0000
1000
0000
0010
0000
0000
0100
,  // measure 14
0001
1000
0100
0010
0001
1000
0020
0000
,  // measure 15
1030
0100
1000
0000
0001
0020
0000
0000
0031
0000
1000
0000
0010
0000
0000
0000
,  // measure 16
1000
0100
1100
0100
0010
0001
0011
0001
,  // measure 17
2000
0000
0000
0000
3001
0000
0100
0000
0010
0000
1000
0001
1000
0000
0010
0000
,  // measure 18
0200
0000
0301
0000
1000
0100
0001
0100
,  // measure 19
1000
0000
0010
0000
0200
0000
0000
0301
1000
0001
1000
0000
0010
0000
0100
0000
,  // measure 20
0001
0010
0011
0010
0100
1000
1100
1000
,  // measure 21
0002
0000
0000
0000
1003
0000
0010
0000
0100
0000
0001
1000
0001
0000
0100
0000
,  // measure 22
0020
0000
1030
0000
0001
0010
1000
0010
,  // measure 23
0001
0000
0100
0000
0020
0000
0000
1030
0001
1000
0001
0000
0100
0000
0010
0000
,  // measure 24
1000
0000
0001
0100
0001
0000
0000
1000
0100
0000
0000
0001
0100
0000
0000
1000
,  // measure 25
0100
0000
0000
0001
0100
0000
0000
1000
0100
0000
0010
0000
0001
0000
0000
0000
,  // measure 26
2200
0000
0000
3300
,  // measure 27
0000
0000
0000
0000
,  // measure 28
0201
0000
0310
1000
0100
1000
0002
0000
,  // measure 29
1003
0000
0010
0000
0100
0001
0100
0000
0010
0000
1000
0000
0002
0000
0000
0000
,  // measure 30
0013
0000
0001
0000
1000
0000
0010
0100
0000
0100
0001
0000
1000
0000
0100
0000
,  // measure 31
0010
0000
0001
0010
0001
0000
1000
0010
2000
0000
0000
0000
3001
0000
0000
0000
,  // measure 32
1000
0000
0100
0010
0100
0000
0010
0001
0010
0000
0001
1000
0002
0000
0000
0000
,  // measure 33
0103
0000
0010
0000
1000
0001
0000
0001
0100
0000
0010
0000
1000
0000
0000
0000
,  // measure 34
0001
0000
0010
0000
0001
0000
1000
0000
0010
0000
0100
0000
0001
1000
0001
0000
,  // measure 35
0100
0000
0100
0000
0010
1000
0010
0000
0100
0000
0100
0000
0001
0100
0001
0100
,  // measure 36
0020
1000
0000
1000
,  // measure 37
0000
1000
0000
1030
,  // measure 38
0010
0000
1000
0000
0001
0000
0000
0010
0000
0001
0000
1000
0000
0000
0000
0000
,  // measure 39
0010
0000
1000
0000
0001
0000
0010
0001
0000
0001
1000
0000
0010
0000
0000
0000
,  // measure 40
1000
0000
0001
0000
0100
0000
0000
0001
0000
1000
0000
0100
0000
0000
0000
0000
,  // measure 41
1000
0000
0001
0000
0100
0000
0001
1000
0000
1000
0100
0000
1000
0000
0000
0000
,  // measure 42
0001
0000
1000
0000
0010
0100
0000
0001
0000
1000
0000
0100
0010
0000
0000
0001
,  // measure 43
0000
0000
1000
0100
1000
0000
0001
0100
0000
0001
1000
0000
0010
0000
0000
0000
,  // measure 44
0100
0000
0001
0000
1000
0100
0000
0010
0000
0001
0000
1000
0010
0000
0100
0001
,  // measure 45
0000
0000
1000
0100
1000
0100
1000
0001
0000
1000
0010
0000
0100
0001
0100
0001
,  // measure 46
1000
0000
0000
0000
,  // measure 47
0000
0000
0000
2010
,  // measure 48
3001
0010
0001
1000
0020
0000
0130
0001
,  // measure 49
1000
0100
1000
0000
0100
0000
0010
0000
0002
0000
0000
0000
0103
0000
0010
0000
,  // measure 50
1000
0000
0001
0010
0000
0010
0001
0000
1000
0000
0010
0000
0100
0000
0001
1000
,  // measure 51
0001
0000
0100
0000
0010
0000
1000
0000
0002
0000
0000
0000
1003
0000
0100
1000
,  // measure 52
0100
0000
0010
0100
0010
0000
0001
0010
0001
0000
1000
0001
1000
0000
0010
0000
,  // measure 53
0100
0001
0000
0001
1000
0000
0010
0000
0100
0000
0001
0000
1000
0000
0100
0000
,  // measure 54
0010
0000
0001
0000
1000
0000
0001
0000
0100
0010
0100
0000
0001
0000
0001
0000
,  // measure 55
1000
0100
1000
0000
0001
0000
0010
0000
0100
0000
0000
0000
1000
0000
0100
1000
,  // measure 56
0001
0000
0100
0001
1000
0000
0100
1000
0002
0000
0000
0000
0103
0000
0010
0000
,  // measure 57
1000
0010
0000
0010
0100
0000
0001
0000
1000
0000
0000
0000
0100
0000
1000
0000
,  // measure 58
0001
0000
0010
0100
0000
0100
1000
0000
0001
0000
0100
0000
0010
0000
1000
0010
,  // measure 59
1000
0000
0001
0010
0001
0000
1000
0001
1000
0000
0000
0000
0001
0000
0010
0001
,  // measure 60
1000
0000
0010
1000
0001
0000
0010
0001
2000
0000
0000
0000
3010
0000
1000
0000
,  // measure 61
0001
0100
0000
0100
0010
0000
1000
0000
0001
0000
0000
0000
0010
0000
0001
0000
,  // measure 62
1000
0000
0100
0000
0010
0000
0001
0000
1000
0010
1000
0000
0001
0000
0001
0000
,  // measure 63
0100
0010
0100
0000
0001
0000
0001
0000
1000
0100
1000
0100
0010
0000
0001
0000
,  // measure 64
1000
0010
0000
1000
0000
0001
0000
0010
0001
0000
1000
0001
0000
0000
1000
0100
,  // measure 65
1000
0100
0010
0001
0000
0001
1000
0000
1001
0000
0000
0000
0010
0000
1000
0000
,  // measure 66
0001
0100
0000
0001
0000
1000
0000
0100
1000
0000
0001
1000
0000
0000
0001
0010
,  // measure 67
0001
0010
0100
1000
0000
1000
0001
0000
1001
0000
0000
0000
1000
0000
0100
0010
,  // measure 68
0001
0000
1000
0000
0010
0000
0100
0001
1000
0000
0010
0000
0100
0000
0001
1000
,  // measure 69
0001
1000
0001
0100
0000
0100
0010
0000
1000
0000
0001
0000
1000
0000
0100
0010
,  // measure 70
0001
0000
1000
0000
0001
0000
0100
0010
1000
0000
0001
0100
0000
0000
0010
1000
,  // measure 71
0010
1000
0010
0100
0000
0100
0001
0000
1001
0000
0000
0000
0000
0000
0000
0000
;

//---------------dance-single - ----------------
#NOTES:
     dance-single:
     :
     Medium:
     5:
     0.343300,0.417282,0.178516,0.357033,0.000000,272.000000,26.000000,52.000000,0.000000,0.000000,0.000000,0.343300,0.417282,0.178516,0.357033,0.000000,272.000000,26.000000,52.000000,0.000000,0.000000,0.000000:
0000
0000
0000
0000
,
0000
0000
0000
0000
,
0000
0000
0000
0000
,
0000
0000
0000
0000
,
0002
0103
0010
1000
,
0200
0310
0001
1000
,
0020
0130
0001
1000
,
0200
0000
1300
0000
0001
1000
0001
0000
,
0200
0000
0300
0000
0001
0100
0001
0000
,
1000
1000
0001
0001
,
2000
0000
3000
0000
0010
0100
0010
0000
,
1000
1000
0001
0001
,
2002
0000
3003
0000
1000
0100
0010
0000
,
0002
0000
0003
0000
0010
0001
0100
0000
,
0010
0010
1000
0000
,
0002
0000
0003
0000
1000
0100
1000
0000
,
0001
0101
0000
1000
,
0000
0000
1001
0000
0000
0010
0010
0000
,
2000
3100
0010
0001
,
0200
0000
0301
0000
1000
0001
1000
0000
,
0010
1010
0000
1000
,
0000
0000
1001
0000
0000
0001
0001
0000
,
0200
0000
0301
0000
1000
0100
1000
0000
,
0001
0000
0010
0000
0001
1000
0001
0000
,
0200
0310
0200
1300
,
0200
0000
0301
0000
0100
0010
1000
0000
,
0202
0000
0000
0303
,
0000
0000
0000
0000
,
2010
3002
0103
2001
,
3001
0000
0010
0001
2000
0000
3000
0000
,
0010
0000
0010
0000
1000
0100
1000
0000
,
0002
0023
0130
0000
,
1002
0203
0310
2001
,
3100
0000
1000
0001
2000
0000
3000
0000
,
0001
0000
1000
0000
0010
0010
0010
0000
,
1000
1000
0000
0000
0001
0001
0100
0000
,
2002
0000
0000
3003
,
0010
0000
0000
0000
,
1000
0100
0010
0010
,
0001
0100
0010
0010
,
1000
0010
0100
0100
,
0001
0010
0100
0100
,
1000
0100
1000
0000
0001
0000
0001
0000
,
0001
0100
0001
0000
1000
0000
1000
0000
,
1000
0010
1000
0010
1000
0001
1000
0000
,
0001
0100
0001
0100
0001
1000
0001
0000
,
1001
0000
0000
0000
,
0000
0000
0000
0102
,
2003
3010
1002
2003
,
3100
0010
0002
0000
0103
0000
0001
0000
,
1000
0000
0010
0010
0010
0000
2000
0000
,
3002
0103
0000
2001
,
3010
1002
0013
2000
,
3100
0010
0002
0000
0003
0000
1000
0100
,
1000
0000
0001
0100
0001
0000
1000
1000
,
0001
0001
0200
0000
0300
0000
1001
0000
,
0110
1002
0203
0310
,
1000
0010
0200
0000
0300
0000
0001
0000
,
1000
0000
0001
0001
0001
0000
2000
0000
,
3200
0310
0000
0011
,
1100
1002
0203
0320
,
1030
0001
2000
0000
3000
0000
0001
0100
,
0001
0000
1000
1000
1000
0000
0010
0010
,
0000
0000
0100
0100
0001
0000
1001
0000
,
1000
0000
0010
0000
0010
0000
1000
0100
,
1000
0100
0010
0001
1000
0000
0010
0000
,
0010
0000
1000
0000
1000
0000
0001
0100
,
0001
0100
0010
1000
0001
0000
0000
0000
,
1010
0000
1001
0000
,
0101
0000
0000
1000
1000
0000
0001
0000
,
1000
0000
0100
1000
0001
0000
0200
0000
,
0300
0000
0000
0010
0010
0000
0000
0000
;

//---------------dance-single - ----------------
#NOTES:
     dance-single:
     :
     Easy:
     3:
     0.215789,0.343644,0.048062,0.157918,0.000000,190.000000,7.000000,23.000000,0.000000,0.000000,0.000000,0.215789,0.343644,0.048062,0.157918,0.000000,190.000000,7.000000,23.000000,0.000000,0.000000,0.000000:
0000
0000
0000
0000
,
0000
0000
0000
0000
,
0000
0000
0000
0000
,
0000
0000
0000
0000
,
2000
3000
0000
0001
,
0200
0300
0000
0001
,
0020
0030
0000
0100
,
2000
3000
0002
0003
,
0100
0000
0010
0010
,
1000
0000
0001
0001
,
0010
0000
0001
0000
,
1000
0100
0010
0000
,
2002
3003
0010
0010
,
2002
3003
0100
0100
,
0002
0003
2000
3000
,
0010
1000
0001
0000
,
1000
0100
1000
0100
,
0200
0300
1000
0001
,
2000
3000
0010
0000
,
1000
1000
0001
0000
,
0001
1000
0001
1000
,
0002
0003
0100
0100
,
0020
0030
1000
0000
,
0001
1000
0001
0000
,
1000
1000
0100
0100
,
0010
0010
0002
0003
,
2002
0000
0000
3003
,
0000
0000
0000
0000
,
0001
0001
0010
0010
,
0001
0010
0200
0300
,
1000
1000
0001
0001
,
0100
0100
0010
0000
,
1000
1000
0010
0010
,
1000
0010
0200
0300
,
0001
0001
1000
1000
,
0020
0030
0010
0010
,
2002
0000
0000
0000
,
3003
0000
0000
0000
,
1000
1000
0001
0000
,
0001
0001
1000
0000
,
1000
1000
0001
0000
,
0001
0001
1000
0000
,
1000
0010
0100
0100
,
0001
1000
0001
0000
,
0001
0010
0100
0100
,
1000
0001
1000
1000
,
0010
0000
0000
0000
,
0000
0000
0000
1001
,
0000
1000
0000
0010
,
0010
1000
0000
0001
,
0010
0001
0000
0100
,
0100
0100
0000
1001
,
0000
0001
0000
0010
,
0010
0001
0000
1000
,
0010
1000
0000
0001
,
0010
0001
0000
1000
,
0100
0010
0001
0100
,
0100
0100
0000
0001
,
0000
1000
0000
0001
,
0001
1000
0000
0001
,
0010
0100
1000
0001
,
0000
1000
0000
0010
,
0010
0100
0000
0100
,
0000
0001
1000
0010
,
0010
0100
0000
0001
,
0100
0001
0000
0100
,
0100
0010
0000
1000
,
0010
1000
0000
0001
,
1000
0001
0001
1000
,
0001
1000
0000
0010
,
0100
0010
0010
0100
,
0000
0000
1001
0000
;

//---------------dance-single - ----------------
#NOTES:
     dance-single:
     :
     Beginner:
     2:
     0.119665,0.196368,0.020598,0.000000,0.000000,119.000000,3.000000,0.000000,0.000000,0.000000,0.000000,0.119665,0.196368,0.020598,0.000000,0.000000,119.000000,3.000000,0.000000,0.000000,0.000000,0.000000:
0000
0000
0000
0000
,
0000
0000
0000
0000
,
0000
0000
0000
0000
,
0000
0000
0000
0000
,
0001
0000
0000
1000
,
1000
0000
0000
0010
,
0010
0000
0000
1000
,
1000
0000
0001
0000
,
0100
0000
0000
0000
,
0010
0000
0000
0000
,
1000
0000
0000
0000
,
0001
0000
0000
0000
,
1000
0000
0001
0001
,
0001
0000
1000
1000
,
1000
0000
0000
0000
,
0001
0000
0000
0000
,
0100
0000
0100
0000
,
0100
0000
0000
0010
,
0010
0000
0000
0000
,
1000
0000
0000
0000
,
0001
0000
0001
0000
,
0001
0000
0000
1000
,
1000
0000
0000
0000
,
0100
0000
0000
0000
,
1000
0000
0001
0000
,
1000
0000
0001
0000
,
1001
0000
0000
0000
,
0000
0000
0000
0000
,
0001
0000
0000
0000
,
1000
1000
1000
0000
,
0010
0000
0000
0000
,
0100
0100
0100
0000
,
0001
0001
0000
0000
,
1000
1000
0000
0000
,
0010
0000
0010
0000
,
0100
0000
0100
0000
,
1001
0000
0000
0000
,
0000
0000
0000
0000
,
0001
0000
0001
0000
,
0001
0000
0000
0000
,
1000
0000
1000
0000
,
1000
0000
0000
0000
,
0010
0010
0000
0000
,
0100
0100
0000
0000
,
0001
0001
0001
0000
,
1000
1000
1000
0000
,
1001
0000
0000
0000
,
0000
0000
0000
0010
,
0000
0000
0000
1000
,
1000
1000
0000
0001
,
0000
0000
0000
0100
,
0100
0100
0000
0001
,
0001
0000
0000
1000
,
1000
0000
0000
0010
,
0010
0010
0000
0100
,
0100
0100
0000
0001
,
0001
0001
0001
0000
,
0000
0000
0000
1000
,
0000
1000
0000
0010
,
0000
0000
0000
1000
,
1000
1000
1000
0000
,
0000
0000
0000
0001
,
0000
0001
0000
0010
,
0000
0000
0000
0001
,
0001
0000
0000
1000
,
0000
0001
0000
1000
,
1000
0000
0000
0001
,
0000
1000
0000
0010
,
0010
0000
0000
0010
,
0000
0100
0000
0100
,
0100
0000
0000
0001
,
0000
0000
1000
0000
;

//---------------dance-double - ----------------
#NOTES:
     dance-double:
     :
     Challenge:
     8:
     0.506123,0.540012,0.199114,0.281506,0.247176,446.000000,29.000000,41.000000,0.000000,0.000000,0.000000,0.506123,0.540012,0.199114,0.281506,0.247176,446.000000,29.000000,41.000000,0.000000,0.000000,0.000000:
00000000
00000000
00000000
00000000
,
00000000
00000000
00000000
00000000
,
00000000
00000000
00000000
00000000
,
00000000
00000000
00000000
00000000
,
00000002
00000000
00000000
00000000
00000103
00000000
00000010
00000000
00000100
00000000
00000000
00000000
00000020
00000000
00000000
00001030
,
00000200
00000000
00000000
00000000
00010300
00000000
00000100
00000000
00010000
00000000
00000000
00000000
00002000
00000000
00000000
00103000
,
00020000
00000000
00000000
00000000
01030000
00000000
00010000
00000000
01000000
00000000
00000000
00000000
00200000
00000000
00000000
10300000
,
02000000
00000000
13000000
00010000
20000000
00000000
30010000
00000000
,
02010000
00000000
03000000
00000000
00100000
10000000
00100000
00000000
,
12000000
00000000
03000000
00000000
00100000
00010000
00100000
00000000
,
00010000
10000000
00010000
10000000
00100000
01000000
00010000
00000000
,
10000000
01000000
00010000
01000000
10000000
00010000
01000000
00000000
,
01002000
00000000
00000000
00000000
00003000
00000000
01000000
00010000
01000000
00000000
00001000
00000000
00010000
00000000
00000000
00000000
,
00012000
00000000
00000000
00000000
00003000
00000000
00010000
00000100
00010000
00000000
00000100
00000000
00002000
00000000
00000000
00000000
,
00003001
00000010
00000100
00001000
00000010
00000100
00000002
00000000
,
00000103
00000000
00000010
00000000
00001000
00000001
00000000
00000000
00001000
00000000
00000010
00000000
00000200
00000000
00000000
00000000
,
00000301
00000000
00000201
00000000
00000310
00001000
00000020
00000000
,
00010030
00000000
00010200
00000000
00001300
00000100
00000010
00000001
,
00000200
00000000
00000310
00000000
00001000
00000010
00001000
00000100
,
00010000
00000000
00001000
00000000
00020000
00000000
00000000
00000000
00031000
00100000
00001000
00000000
01000000
00000000
00010000
00000000
,
10000000
00000000
10200000
00000000
01300000
00010000
02000000
00000000
,
03001000
00000000
00201000
00000000
00310000
00100000
01000000
10000000
,
00200000
00000000
01300000
00000000
00010000
01000000
00010000
00100000
,
00001000
00000000
00010000
00000000
00002000
00000000
00000000
00000000
00013000
00000100
00010000
00000000
00000100
00000000
00001000
00000000
,
00000001
00000000
00000100
00000000
00000101
00000000
00000000
00000010
00001000
00000000
00000000
00000000
00000101
00000000
00000000
00000010
,
00001000
00000000
00000000
00000000
00000101
00000000
00000000
00000010
00001000
00000000
00000100
00000000
00010000
00000000
00000000
00000000
,
00020200
00000000
00000000
00030300
,
00000000
00000000
00000000
00000000
,
00010100
00011000
00101000
10010000
,
10000000
00000000
00100000
00000000
01000000
00010000
00000000
00010000
10000000
00000000
01000000
00000000
00100000
00000000
00000000
00000000
,
00010000
00000000
10000000
00000000
00100000
00000000
01000000
00010000
00000000
00010000
10000000
00000000
01000000
00000000
00100000
00000000
,
00020000
00000000
10030000
00100000
10000000
00010000
00100000
00000000
,
00110000
00101000
00010100
00001100
,
00000001
00000000
00000010
00000000
00000100
00001000
00000000
00001000
00000001
00000000
00000100
00000000
00000010
00000000
00000000
00000000
,
00001000
00000000
00000001
00000000
00000100
00000000
00000010
00001000
00000010
00000000
00000100
00000000
00000001
00001000
00000000
00000000
,
00000001
00000001
00000100
00000010
00001000
00001000
00000010
00000100
,
00001002
00000100
00001000
00000100
,
00001000
00000100
00001000
00000103
,
00000001
00000100
00001000
00000000
00000100
00001000
00010000
00000000
,
00001000
00010000
01000000
00000000
00010000
01000000
10000000
00000000
,
01000000
10000000
00100000
00000000
10000000
00100000
00010000
00000000
,
00100000
00010000
00001000
00000000
00011000
00000000
00011000
00000000
,
00001000
00000000
00100000
00000000
00010000
00100000
00000000
00001000
00000000
00010000
00000000
00000100
00000000
00000000
00000000
00010000
,
00000000
00000000
00001000
00010000
00001000
00000000
00100000
00001000
00000000
00001000
00010000
00000000
00000100
00000000
00000000
00000000
,
00010000
00000000
00001000
00000000
00100000
00000000
00000000
00001000
00000000
00010000
00000000
00000100
00000000
00000000
00000000
00010000
,
00000000
00000000
00001000
00100000
00001000
00000000
00010000
00001000
00000000
00010000
00000100
00000000
00001000
00000000
00000000
00000000
,
00001100
00000000
00000000
00000000
,
00000000
00000000
00000000
00001001
,
00000101
00000000
00001000
00000010
00002010
00000000
00003001
00000010
,
00000001
00001000
00000001
00000000
00000100
00000000
00000010
00000000
00002000
00000000
00000000
00000000
00003100
00000000
00001000
00000000
,
00000010
00000000
00000100
00000001
00000100
00000000
00000010
00000000
00001000
00000000
00000100
00000000
00020000
00000000
00001000
00000000
,
00032000
00000000
00000000
00000000
00203000
00000000
00000000
00000000
00310000
00000000
01000000
00000000
00100000
00000000
10000000
00100000
,
10000000
00000000
00010000
10000000
00010000
00000000
01000000
00010000
02000000
00000000
00000000
00000000
03100000
00000000
10000000
00000000
,
00010000
10000000
00010000
00000000
10000000
00000000
01000000
00000000
00200000
00000000
00000000
00000000
00310000
00000000
00100000
00000000
,
01000000
00000000
10000000
00000000
00010000
00000000
01000000
00000000
00100000
10000000
00100000
00000000
01000000
00000000
01000000
00000000
,
00010000
00000000
10000000
00000000
01000000
00000000
00100000
00000000
00010000
00000000
00000000
00000000
11000000
00000000
00000000
01000000
,
00100000
00000000
00000000
00100000
00010000
00000000
00000000
00010000
02000000
00000000
00000000
00000000
03010000
00000000
00100000
00000000
,
00001000
00100000
00001000
00010000
00000200
00000000
00001300
00000010
,
00000100
00000000
00000001
00001000
00000001
00000000
00000100
00000000
00000010
00000000
00001000
00000000
00000001
00000000
00000100
00000001
,
00000100
00000000
00000001
00001000
00000002
00000000
00000000
00000000
00001003
00000000
00000000
00000000
00000010
00000000
00001000
00000010
,
00001000
00000000
00000001
00001000
00000001
00000000
00000100
00000001
00000200
00000000
00000000
00000000
00000301
00000000
00000100
00000000
,
00000010
00001000
00000100
00010000
00001000
00000000
00010000
00010000
,
00000100
00000000
00010000
00000000
00001000
00000000
00100000
00000000
00010000
00100000
00010000
00000000
01000000
00000000
01000000
00000000
,
00010000
00100000
01000000
01000000
10000000
00010000
01000000
01000000
,
01000000
00000000
00000000
00100000
00000000
10000000
00000000
00010000
00000000
00000000
00000000
10000000
00000000
00000000
01000000
00100000
,
01000000
00000000
00100000
00010000
00000000
00010000
00100000
00000000
00001000
00000000
00000000
00000000
00100000
00000000
00001000
00000000
,
00010000
00000000
00000000
00001000
00000000
00010000
00000000
00000100
00000000
00000000
00000000
00001000
00000000
00000000
00000010
00001000
,
00000010
00000000
00001000
00000010
00000000
00000010
00000100
00000000
00000001
00000000
00000000
00000000
00001000
00000000
00000001
00000000
,
00001000
00000000
00000010
00000100
00000010
00000000
00001000
00000000
00000001
00000000
00000010
00000100
00000010
00000000
00000001
00000000
,
00001000
00000000
00000100
00001000
00000100
00000000
00001000
00000000
00000010
00000000
00000000
00000000
00001000
00000000
00000100
00000000
,
00010000
00000000
00001000
00000000
00100000
00000000
00010000
00000000
02000000
00000000
00000000
00000000
03010000
00000000
10000000
01000000
,
10000000
01000000
10000000
01000000
00000000
01000000
00100000
00000000
00110000
00000000
00000000
00000000
00000000
00000000
00000000
00000000
;
