#TITLE:REBORN;
#SUBTITLE:;
#ARTIST:MEG;
#TITLETRANSLIT:;
#SUBTITLETRANSLIT:;
#ARTISTTRANSLIT:;
#GENRE:;
#CREDIT:;
#BANNER:REBORN.png;
#BACKGROUND:REBORN-bg.png;
#LYRICSPATH:REBORN.lrc;
#CDTITLE:;
#MUSIC:REBORN.ogg;
#OFFSET:0.000000;
#SAMPLESTART:62.846413;
#SAMPLELENGTH:11.999998;
#SELECTABLE:YES;
#DISPLAYBPM:125.000000:250.000000;
#BPMS:0.000000=249.999985
,32.000000=124.999992
,48.000000=249.999985
,150.000000=499.999969
,152.000000=124.999992
,168.000000=249.999985
,304.000000=124.999992
,340.000000=249.999985
;
#STOPS:150.000000=0.060000,
150.500000=0.060000,
151.000000=0.060000,
151.500000=0.060000
;
#BGCHANGES:-0.200=REBORN.mp4=1.000=0=0=1=====,
99999=-nosongbg-=1.000=0=0=0 // don't automatically add -songbackground-
;
#KEYSOUNDS:;
#ATTACKS:;

//---------------dance-single - ----------------
#NOTES:
     dance-single:
     :
     Hard:
     15:
     0.773441,1.139376,0.371301,0.561269,0.215873,627.000000,584.000000,43.000000,65.000000,0.000000,0.000000,0.773441,1.139376,0.371301,0.561269,0.215873,627.000000,584.000000,43.000000,65.000000,0.000000,0.000000:
0000
0000
0000
0000
,
0000
0000
0000
0000
,
0000
0000
0000
0000
,
0000
0000
0000
0000
,
0000
0000
0000
0000
,
0000
0000
0000
0000
,
0000
0000
0000
0000
,
0000
0000
0000
0000
,
1000
0000
0000
0001
0000
0000
1000
0000
0001
0100
0001
0100
0000
0010
0100
0000
,
0001
0010
0000
0010
0000
0100
1000
0000
0001
0100
0010
0000
1000
0100
0010
0000
,
0001
0000
0000
1000
0000
0000
0001
0000
1000
0010
1000
0010
0000
0100
0001
0000
,
1000
0100
0000
0100
0000
0010
0001
0000
0011
0000
1000
0010
0100
0001
0010
0100
,
1000
0001
0100
0000
0001
1000
0100
0000
,
1000
0001
0100
0010
1000
0001
0010
0000
,
0001
0010
0100
0000
1000
0010
0100
0000
,
0001
0100
0010
1000
0100
0010
0001
0000
,
1000
0100
1000
0100
0010
0001
0100
0000
,
0001
0100
0001
0100
0010
1000
0100
0000
,
1000
0001
0010
0000
0001
1000
0010
0000
,
1001
0000
1000
0100
0001
0100
1000
0020
,
0000
0130
0001
0100
0001
1000
0001
0200
,
0000
0310
1000
0010
1000
0001
1000
0200
,
0000
0302
0000
0203
0000
2300
0000
3010
,
0100
0001
1000
0000
0001
0010
0000
0021
,
0000
0130
1000
0001
1000
0010
0100
0020
,
0000
0130
0001
1000
0001
0010
0100
0020
,
0000
2030
0000
3020
0000
0032
0000
0103
,
0010
1000
0001
0010
0100
1000
0310
0000
,
2010
0000
3001
0010
0200
0000
0302
0000
,
0203
0000
1300
0010
0200
0000
0301
0000
,
0101
0110
1010
0110
,
2002
0000
3003
0000
1000
0100
0010
0002
,
0000
0100
0000
1000
0000
0013
0000
0011
,
0000
1100
0000
1000
0001
0100
0010
1000
,
0000
0001
0020
0000
0230
0000
1300
0001
,
1000
0010
0100
0001
1000
0100
0010
0001
,
0000
1000
0010
1000
0001
0010
0001
0000
,
1000
0100
0010
0001
3100
0010
0100
0010
,
2000
0000
0000
3100
0000
1000
0001
1000
0010
0000
1000
0100
0000
0010
0100
0010
,
0100
0000
0010
0001
0000
1000
0010
0000
1000
0100
0010
0000
0001
0100
0010
1000
,
0002
0000
0000
0013
0000
0001
1000
0001
0100
0000
0001
0010
0000
0100
0010
0100
,
0010
0000
0100
1000
0000
0001
0100
0010
0100
0001
0000
0101
0000
1010
0000
0001
,
1000
0100
0010
0000
0100
0010
0001
0000
,
1000
0001
0100
0010
1000
0001
1000
0000
,
0001
0010
0100
0000
0010
0100
1000
0000
,
0001
1000
0001
0100
0010
1000
0001
0000
,
0101
1010
1100
0011
,
1000
0100
0010
0001
0100
0010
1000
0001
,
0100
0000
0000
0101
0000
1000
0100
0010
,
0001
0100
1000
0100
0001
0010
0100
1000
,
0001
0000
1000
0010
0000
0010
0000
0010
,
0000
1000
0100
0000
0100
0000
0010
0001
,
0000
0001
0000
1000
0010
0000
0010
0000
,
1000
0100
0010
0000
0001
0100
0010
0000
,
1010
0000
1000
0001
0000
0011
0000
0011
,
0000
0001
0100
0000
0101
0000
1000
0100
,
0000
1100
0000
1000
0001
0000
1001
0000
,
0001
0100
0010
1000
0100
0010
0001
2000
,
0000
3010
0100
1000
0100
0001
0000
0102
,
0000
1003
0100
0010
0001
0100
0000
0201
,
0000
0010
0000
1000
0000
0010
0000
0302
,
0000
1003
0100
0010
0001
0100
0000
1002
,
0000
0103
0010
0001
0010
1000
0000
2010
,
0000
3001
0010
0100
1000
0010
0000
1020
,
0000
0100
0000
0001
0000
0100
0000
2030
,
0000
3001
0010
0100
2000
0000
3001
0000
,
0102
0000
1003
0100
0020
0000
2030
0000
,
3020
0000
0031
0100
0020
0000
1030
0000
,
1010
0110
0101
0110
,
2002
0000
3003
0000
0001
0010
0100
2000
,
0000
0010
0000
0001
0000
3100
0000
1100
,
0000
0011
0000
0001
1000
0010
0100
0001
,
0000
1000
0200
0000
0320
0000
0031
1000
,
0001
0100
0010
0100
0001
1000
0001
0000
,
0101
0000
1000
0100
0010
0000
0001
1000
,
0001
0100
0010
1000
0100
0010
0001
1000
,
0001
0000
0000
0000
,
2000
0000
3100
0010
1000
0010
0001
0000
,
0002
0000
0103
0010
0001
0010
1000
0000
,
0002
0000
0103
1000
0100
0001
1000
0000
,
0001
0000
0000
0010
0000
0000
0100
0000
0000
1000
0000
0000
0010
0000
0100
0000
,
0132
0000
0000
0000
1003
0000
0100
0000
0010
0000
0100
0000
0001
0000
0100
1000
,
0200
0000
0000
0000
1300
0000
0010
0000
0100
0000
0010
0000
0001
0000
0010
0100
,
0020
0000
1030
0100
0010
0001
0100
0010
,
1000
0010
1000
0000
0001
0100
0001
0000
1000
0100
0010
0000
0001
0000
0000
0000
,
1000
0010
1000
0020
0000
0230
0000
0301
,
2000
0000
3100
0000
1000
0100
0010
0002
,
0000
0103
0310
0000
0010
0000
1000
0001
,
1000
0001
0100
0000
0001
0010
0100
2000
,
0000
3002
0000
1003
0100
0000
0010
0001
,
1000
0010
0000
0010
0100
0000
0001
1000
,
0001
0010
0100
2000
0000
3020
0000
1030
,
0001
0000
0000
0011
0000
0000
1001
0000
,
0001
0100
0001
0200
0000
0320
0000
1030
,
0002
0000
0013
0000
0001
0010
0100
2000
,
0000
3010
0130
0000
0100
0000
0001
1000
,
0001
1000
0010
0000
1000
0100
0010
0002
,
0000
2003
0000
3001
0010
0000
0100
1000
,
0001
0100
0000
0100
0010
0000
1000
0001
,
0100
0010
0100
0000
0001
1000
0001
0000
,
1000
0100
0310
0001
0000
0110
0000
2002
,
0000
0000
3003
0000
;

//---------------dance-single - ----------------
#NOTES:
     dance-single:
     :
     Challenge:
     17:
     0.889396,1.402309,0.492190,0.328126,0.414476,721.000000,664.000000,57.000000,38.000000,0.000000,0.000000,0.889396,1.402309,0.492190,0.328126,0.414476,721.000000,664.000000,57.000000,38.000000,0.000000,0.000000:
0000
0000
0000
0000
,
0000
0000
0000
0000
,
0000
0000
0000
0000
,
0000
0000
0000
0000
,
0000
0000
0000
0000
,
0000
0000
0000
0000
,
0000
0000
0000
0000
,
0000
0000
0000
0000
,
0001
0000
1000
0100
0000
1000
0001
1000
0010
0100
0010
0100
0000
0001
0010
0100
,
1000
0001
1000
0010
0000
1000
0100
0010
0001
0100
0001
0100
1000
0100
1000
0100
,
0010
1000
0000
0001
0000
1000
0100
1000
0001
0100
0001
0010
0000
0001
0010
0100
,
1000
0010
0000
0010
0000
1000
0100
0010
0001
0100
1000
0100
0001
0010
0100
1000
,
0001
0100
0010
0100
1000
0100
0001
0000
,
1000
0100
0010
0100
0001
0100
1000
0000
,
0001
0100
0010
1000
0100
0010
0001
1000
,
0000
1000
0010
0000
1010
0000
1001
0000
,
1000
0010
0100
0010
0001
0010
1000
0000
,
0001
0010
0100
0010
1000
0010
0001
0000
,
1000
0010
0100
0001
0010
0100
1000
0001
,
0100
0010
0100
0010
1000
0100
0000
2100
,
0000
3001
0100
0010
1000
0001
0000
0012
,
0000
1003
0010
0100
0001
0010
0100
0002
,
0000
0103
1000
0200
0000
1300
0010
2000
,
0000
3001
0010
0100
1000
0001
0000
0012
,
0000
1003
0010
0100
0001
1000
0000
2100
,
0000
3001
0100
0010
1000
0100
0010
2000
,
0000
3010
0001
0020
0000
0031
0100
0002
,
0000
1003
0100
0010
0001
1000
0010
0000
,
1000
0100
0010
0001
0100
0010
1000
0001
,
1000
0010
0100
0001
0010
0100
1000
0000
,
1100
0101
0011
1010
,
2002
0000
3003
0000
0001
1000
0100
0020
,
0000
0031
0100
2000
0000
3001
0010
2000
,
0000
3001
0010
0100
1000
0010
0100
0020
,
0000
1330
0100
0001
0100
1000
0010
0100
,
0001
1000
0001
1000
0100
0010
0001
1000
,
0000
0001
0100
0010
0100
1000
0100
0010
,
0100
0001
0010
0100
1000
0001
1000
0001
,
0100
0010
0000
0010
0000
1000
0100
1000
0001
0100
0001
0010
0000
0001
1000
0001
,
0100
0010
0000
0010
0000
1000
0100
0010
0001
0100
0001
0100
0010
1000
0001
1000
,
0010
0100
0000
0100
0000
0001
0010
0001
1000
0010
1000
0100
0000
1000
0001
1000
,
0010
0100
0000
0100
0000
0001
0010
0100
1000
0010
0000
1010
0000
1001
0000
0001
,
1000
0100
0010
0001
0100
0010
1000
0000
,
0001
0100
0010
1000
0100
0010
0001
0000
,
1000
0010
1000
0001
0010
0100
1000
0010
,
0100
0001
0100
0010
1000
0001
1000
0000
,
0011
0101
1010
1100
,
1001
0110
1001
0110
,
1000
0001
1000
0010
0000
1000
0100
0010
,
0001
0100
1000
0100
0001
0010
0100
1000
,
0020
0000
0130
3001
0000
0001
0000
0001
,
0000
1000
0100
0000
0100
0000
0010
0001
,
0000
0001
0000
1000
0010
0000
0010
0000
,
1000
0100
0010
0000
0001
0100
0010
0000
,
1001
0000
1000
1010
0000
1010
0000
1001
,
0000
0001
0011
0000
0011
0000
1000
1100
,
0000
1100
0000
0001
0101
0000
0101
0000
,
1000
0010
0001
0010
1000
0100
0010
0002
,
0000
0103
0010
0100
0001
0100
1000
0200
,
0000
0310
1000
0001
0010
0100
1000
0001
,
0000
0101
0000
0110
0000
1010
0000
0001
,
0010
0100
1000
0010
0100
0001
0000
2001
,
0000
3100
0010
0100
0010
0100
0001
0200
,
0000
0310
0001
1000
0010
0100
0001
1000
,
0000
1010
0000
0110
0000
0101
0000
1000
,
0100
0010
0001
0100
0010
1000
0001
0000
,
1000
0100
0010
0001
0100
0010
1000
0001
,
0010
0100
1000
0001
0100
0010
1000
0000
,
1010
0110
0101
0110
,
2002
0000
3003
0000
1000
0100
0010
0002
,
0000
1003
0010
0002
0000
1003
0100
0002
,
0000
0013
0100
0010
0001
1000
0000
2010
,
0000
3001
0010
1000
0010
0001
0100
0010
,
0000
1000
0010
0100
0001
1000
0100
0000
,
2100
0000
3001
0000
0101
0000
1000
0001
,
1000
0010
0100
0001
0010
0100
1000
0010
,
0100
0000
0000
0000
,
2001
0000
0000
3020
0000
0000
1030
0000
0100
0000
0010
0000
0001
0000
1000
0000
,
1002
0000
0000
0203
0000
0000
0301
0000
0100
0000
0010
0000
1000
0001
0000
0000
,
2100
0000
0000
3200
0000
0000
0301
0000
0100
0000
1000
0000
0010
0000
0100
0000
,
0001
0010
0000
0001
0010
0000
1030
0010
0000
1000
0010
0000
0001
1000
0000
0000
,
2010
0000
0000
0000
3001
0100
0001
0000
0100
0010
0100
0000
0010
1000
0001
0000
,
0012
0000
0000
0000
1003
0103
1000
0000
0100
0010
0100
0000
0010
0001
1000
0000
,
0001
0100
0001
0100
0010
1000
0010
1000
0100
0010
0100
0010
0001
1000
0001
1000
,
0010
0100
0001
0010
0100
1000
0010
0100
0001
0010
0100
1000
0001
0000
0000
0000
,
1000
0100
1000
0100
0000
1100
0000
0001
,
0100
0010
1000
0000
0001
0010
0001
0010
,
0000
0001
1000
0000
0010
0000
1000
0010
,
1000
0000
0001
0000
1000
0000
0001
0000
0000
0000
0000
0000
1000
0000
0000
0100
0000
0000
0010
0000
0000
0001
0000
0000
,
0000
0001
0000
1000
0010
0000
1000
0001
,
1000
0010
0000
0010
0100
0000
0001
1000
,
0001
0010
0100
1000
0000
0010
0000
0100
,
0010
1000
0000
1010
0000
1000
0100
0010
,
0001
0100
0001
0100
0000
0101
0000
1000
,
0100
0010
0001
0000
1000
0010
1000
0010
,
0000
1000
0001
0000
0010
0000
0001
0010
,
0001
0000
1000
0000
0001
0000
1000
0000
0000
0000
0000
0000
0001
0000
0000
0100
0000
0000
0010
0000
0000
1000
0000
0000
,
0000
1000
0000
0001
0010
0000
0001
1000
,
0001
0010
0000
0010
0100
0000
1000
0001
,
1000
0010
0100
0001
1000
0100
1000
0001
,
0100
0001
0000
0101
0000
1010
0000
2002
,
0000
0000
3003
0000
;

//---------------dance-single - ----------------
#NOTES:
     dance-single:
     :
     Medium:
     13:
     0.650085,0.788799,0.552634,0.526729,0.077714,527.000000,463.000000,64.000000,61.000000,0.000000,0.000000,0.650085,0.788799,0.552634,0.526729,0.077714,527.000000,463.000000,64.000000,61.000000,0.000000,0.000000:
0000
0000
0000
0000
,
0000
0000
0000
0000
,
0000
0000
0000
0000
,
0000
0000
0000
0000
,
0000
0000
0000
0000
,
0000
0000
0000
0000
,
0000
0000
0000
0000
,
0000
0000
0000
0000
,
0001
0000
0000
0001
0000
0000
0001
0000
0100
0000
0000
0010
0000
0000
1000
0000
,
0100
0000
0000
0100
0000
0000
0100
0000
1000
0000
0001
0000
0100
0000
0010
0000
,
1000
0000
0000
1000
0000
0000
1000
0000
0100
0000
0000
0010
0000
0000
0001
0000
,
0100
0000
0000
0100
0000
0000
0100
0000
0010
0000
1000
0001
1000
0000
0001
0000
,
1000
0000
1100
0000
0001
0100
0010
0000
,
1000
0000
0001
0010
0000
0010
0100
0000
,
1000
0000
0001
0000
1000
0010
0100
0000
,
0001
0100
0001
0000
1000
0100
1000
0000
,
0001
0000
0011
0000
1000
0010
0100
0000
,
0001
0000
1000
0100
0000
0100
0010
0000
,
0001
0000
1000
0010
0000
1000
0001
0000
,
0101
0000
1000
0001
1000
0001
1000
0020
,
0000
0000
0130
0000
0001
1000
0000
0200
,
0000
0000
0310
0000
0001
0100
0000
0010
,
0000
0010
0000
1000
0001
1000
0000
0100
,
0000
1000
0010
0100
0001
0000
1000
0200
,
0000
0000
0310
0000
0001
0100
0000
0020
,
0000
0000
1330
0000
0001
0010
0000
0100
,
0000
0100
0000
1000
0001
1000
0000
0010
,
0000
1000
0100
0010
0002
0000
1003
0000
,
2020
3030
0101
0100
,
0110
0010
2002
3003
,
0101
0101
1010
1010
,
2002
0000
3003
0000
1000
0200
0000
0302
,
0000
0203
0000
2300
0000
3010
0000
0110
,
0000
0110
0000
0001
1000
0001
0000
0020
,
0000
0031
0100
0001
0100
0000
0001
1000
,
0000
1000
0100
1000
0100
0000
2002
0000
,
3003
0000
0001
0100
0010
0100
0001
0000
,
1000
0100
0010
0000
0001
1000
0001
1000
,
0010
0000
0000
0010
0000
0000
0010
0000
0100
0000
0001
1000
0000
0000
0001
0000
,
0010
0000
0000
0010
0000
0000
0100
0000
1000
0100
1000
0000
0001
0100
0001
0000
,
0100
0000
0000
0100
0000
0000
0100
0000
0010
0000
1000
0001
0000
0000
1000
0000
,
0100
0000
0000
0100
0000
0000
0010
0000
0001
1000
0000
0001
0000
1001
0000
0000
,
0001
0000
0101
0000
1000
0100
0010
0000
,
0001
0100
0010
0000
1000
0000
0001
0000
,
1000
0000
0100
0010
0000
0010
0001
0000
,
1000
0000
0001
0100
0000
0100
0010
0000
,
1010
1010
0101
0101
,
1001
1001
0110
0110
,
1000
0100
1000
0001
0000
1000
0001
0000
,
0001
0100
0010
0000
1000
0100
0010
0000
,
0011
0000
1000
0010
0000
0010
0000
0100
,
0000
0001
0010
0000
0010
0000
0100
1000
,
0000
1000
0000
0001
0100
0000
0100
0000
,
0010
0100
0010
0000
1000
0001
1000
0000
,
1001
0000
0000
0101
0000
0101
0000
0101
,
0000
0000
0110
0000
0110
0000
0000
1010
,
0000
1010
0000
0000
1001
0000
1001
0000
,
1000
0100
0010
0000
0001
0100
0010
2000
,
0000
0000
3001
0000
1000
0100
0010
0002
,
0000
0000
1003
0000
0001
0200
0000
2300
,
0000
3200
0000
0302
0000
0023
0000
0230
,
0000
2300
0000
3001
0100
0010
1000
0002
,
0000
0000
1003
0000
0001
0010
0100
2000
,
0000
0000
3001
0000
1000
0020
0000
0032
,
0000
0023
0000
2030
0000
3200
0000
0320
,
0000
0031
1000
0001
0200
0000
0310
0000
,
0202
0303
1010
0010
,
0110
0100
2002
3003
,
1100
1100
0011
0011
,
2002
0000
3003
0000
0001
0020
0000
0100
,
0000
0100
0000
0100
0000
0130
0000
1100
,
0000
0011
0000
1000
0010
0200
0000
0320
,
0000
1030
0100
0000
0010
0000
0001
0100
,
0000
0100
0010
0000
2000
0000
3001
0000
,
0101
0000
0100
0000
0110
0000
1000
0100
,
1000
0100
0010
0001
0010
0001
1000
0000
,
1001
0000
0000
0000
,
0202
0000
0303
1000
0100
1000
0001
0000
,
2200
0000
3300
0001
0100
0001
1000
0000
,
2002
0000
3003
0001
0010
0100
1000
0000
,
0001
0100
0010
0000
1000
0100
0010
0000
,
0012
0000
1003
1000
0001
0001
0100
0100
,
0210
0000
0301
0001
1000
1000
0100
0100
,
2100
0000
3001
0001
0010
0010
0100
0100
,
1000
0010
0001
0010
1000
0100
0110
0000
,
0001
0000
0100
0010
0000
0010
1000
0000
,
1010
0000
0000
0000
0001
1000
0001
1000
,
0000
0001
0010
0000
0100
0000
1000
0001
,
1000
0000
0000
0000
0001
0000
1000
0100
,
0000
0100
0010
0000
0001
0000
1000
0010
,
1000
0000
0000
0000
0001
1000
0001
1000
,
0200
0000
0000
0320
0000
0000
0031
0000
,
0011
0000
0000
1100
0000
0000
1001
0000
,
1000
0000
0010
0100
0000
0100
0001
0000
,
0101
0000
0000
0000
1000
0001
1000
0001
,
0000
1000
0100
0000
0010
0000
0001
1000
,
0001
0000
0000
0000
1000
0000
0001
0010
,
0000
0010
0100
0000
1000
0000
0001
0100
,
0001
0000
0000
0000
1000
0001
1000
0001
,
0020
0000
0000
0230
0000
0000
1300
0000
,
0001
1000
0000
0010
0000
0110
0000
2002
,
0000
0000
3003
0000
;

//---------------dance-single - ----------------
#NOTES:
     dance-single:
     :
     Easy:
     8:
     0.415709,0.609732,0.077714,0.302222,0.008635,337.000000,328.000000,9.000000,35.000000,0.000000,0.000000,0.415709,0.609732,0.077714,0.302222,0.008635,337.000000,328.000000,9.000000,35.000000,0.000000,0.000000:
0000
0000
0000
0000
,
0000
0000
0000
0000
,
0000
0000
0000
0000
,
0000
0000
0000
0000
,
0000
0000
0000
0000
,
0000
0000
0000
0000
,
0000
0000
0000
0000
,
0000
0000
0000
0000
,
2000
0000
3001
0100
0020
0000
1030
0000
,
0002
0000
1003
0100
0010
0001
1000
0001
,
0200
0000
0310
1000
0002
0000
0013
0000
,
0001
0100
0310
0000
1000
0100
0010
0000
,
0001
0100
0010
0000
,
1000
0100
0010
0000
,
0001
0001
1000
0000
,
1000
1000
0010
0000
,
1000
0010
0100
0000
,
0001
0010
0100
0000
,
1000
0100
1000
0100
,
0010
0001
1000
0000
,
0001
0100
0001
0100
,
0010
0100
0010
0100
,
0010
1000
0010
1000
,
0100
1000
0200
0000
,
1300
0010
1000
0010
,
0100
0010
0100
0010
,
0100
0001
0100
0001
,
0010
0001
0020
0000
,
0032
0000
1003
0010
,
0200
0000
0302
0000
,
1003
0100
0010
0001
,
0200
0000
0310
0000
,
1000
0010
0100
0010
,
1000
1000
0001
0000
,
0001
0010
0100
0010
,
0001
0001
1000
0001
,
0000
0100
0100
0010
,
0010
0000
1000
0000
2002
0000
0000
3003
,
0002
0000
0103
0010
0200
0000
0310
0000
,
2000
0000
3001
0010
0100
1000
0100
1000
,
0002
0000
0103
0010
2000
0000
3001
0000
,
1000
0000
0100
0000
0010
0000
0000
0000
0100
0000
0000
0100
0000
0100
0000
0000
,
1000
0001
0100
0010
,
1000
0000
0001
0000
,
1000
0100
0010
0001
,
0100
0000
0010
0000
,
1000
1000
0001
0001
,
1000
1000
0001
0001
,
0100
0000
0000
0100
0000
0000
0100
0000
,
0020
0000
0230
0000
,
0301
0000
0000
1000
0000
1000
0000
1000
,
0000
0000
0100
0000
0100
0000
0000
0010
,
0000
0010
0000
0000
0001
0000
0001
0000
,
0001
0000
1000
0000
,
0001
0000
0000
0100
0000
0100
0000
0100
,
0000
0000
0010
0000
0010
0000
0000
1000
,
0000
1000
0000
0000
0001
0000
0000
0000
,
1000
0100
0010
0001
,
1000
0010
1000
0010
,
0100
0010
0100
0010
,
0100
0001
0100
0001
,
1000
0100
0020
0000
,
0031
0010
0001
0010
,
0100
0010
0100
0010
,
0100
1000
0100
1000
,
0001
0100
0010
0000
,
2300
0000
3001
0010
,
0200
0000
2330
0000
,
3001
0100
0010
1000
,
0020
0000
0130
0000
,
0001
0010
0100
1000
,
0010
0010
0100
0000
,
0010
1000
0100
0010
,
0001
0001
0100
0000
,
0001
1000
0001
1000
,
0100
0010
0001
0000
,
1001
0000
0000
0000
,
0002
0000
0003
0000
0100
0010
0100
0000
,
0020
0000
0030
0000
1000
0010
1000
0000
,
0002
0000
0003
0000
1000
0100
1000
0000
,
0002
0023
0230
1300
,
2002
0000
3003
0000
0001
0100
0010
1000
,
0200
0000
0300
0000
1000
0100
0010
0001
,
0200
0000
0300
0000
0010
1000
0001
1000
,
0010
0100
0010
0000
1000
0000
0001
0000
,
1000
0100
0010
0000
,
0110
0000
0010
0000
,
0001
0100
0010
0000
,
0110
0000
1000
0000
,
0001
1000
0010
0000
,
1001
0000
0001
0000
,
1000
0001
0010
0000
,
0001
1000
0010
0000
,
1000
0100
0010
0000
,
0110
0000
0001
1000
,
0001
1000
0010
0000
,
0110
0000
1000
0010
,
1000
0001
0010
0000
,
1001
0000
0001
0010
,
0100
1000
0010
0000
,
0100
0000
0000
0010
0000
0010
0000
0010
;

//---------------dance-single - ----------------
#NOTES:
     dance-single:
     :
     Beginner:
     4:
     0.166530,0.347123,0.025905,0.000000,0.000000,135.000000,132.000000,3.000000,0.000000,0.000000,0.000000,0.166530,0.347123,0.025905,0.000000,0.000000,135.000000,132.000000,3.000000,0.000000,0.000000,0.000000:
0000
0000
0000
0000
,
0000
0000
0000
0000
,
0000
0000
0000
0000
,
0000
0000
0000
0000
,
0000
0000
0000
0000
,
0000
0000
0000
0000
,
0000
0000
0000
0000
,
0000
0000
0000
0000
,
1000
0000
1000
0000
,
1000
0000
0000
0000
,
0010
0000
0010
0000
,
0010
0000
0000
0000
,
0100
0000
0000
0000
,
0100
0000
0000
0000
,
0001
0000
0000
0000
,
0001
0000
0000
0000
,
0010
0000
0000
0000
,
0010
0000
0000
0000
,
0100
0000
0000
0000
,
0100
0000
0000
0000
,
1000
0000
1000
0000
,
1000
0000
0000
0000
,
1000
0000
0000
0000
,
0001
0000
0000
0000
,
0001
0000
0001
0000
,
0001
0000
0000
0000
,
0001
0000
0000
0000
,
0100
0000
0000
0000
,
0100
0000
0000
0000
,
0010
0000
0000
0000
,
1000
0000
1000
0000
,
1000
0000
0000
0000
,
0001
0000
0001
0000
,
0001
0000
0000
0000
,
0010
0000
0010
0000
,
0010
0000
0010
0000
,
0000
0000
0000
0000
,
0100
0000
0000
0000
,
1001
0000
0000
0000
,
1000
0000
1000
0000
,
1000
0000
0000
0000
,
0010
0010
0010
0000
,
1000
0000
0000
0000
,
1000
0000
0000
0000
,
0100
0000
0100
0000
,
0100
0000
0000
0000
,
0010
0000
0010
0000
,
0010
0000
0010
0000
,
0001
0000
0001
0000
,
0001
0000
0000
0000
,
1000
0000
0000
0000
,
1000
0000
0000
0000
,
0010
0000
0000
0000
,
0010
0000
0000
0000
,
0100
0000
0100
0000
,
0100
0000
0100
0000
,
0100
0000
0100
0000
,
0100
0000
0000
0000
,
1001
0000
0000
0000
,
0001
0000
0000
0000
,
0010
0000
0010
0000
,
0010
0000
0010
0000
,
0010
0000
0000
0000
,
0100
0000
0000
0000
,
1000
0000
1000
0000
,
1000
0000
1000
0000
,
1000
0000
0000
0000
,
0010
0000
0000
0000
,
0100
0000
0100
0000
,
0100
0000
0000
0000
,
0001
0000
0001
0000
,
0001
0000
0000
0000
,
1000
0000
1000
0000
,
1000
0000
0000
0000
,
0100
0000
0100
0000
,
0100
0000
0100
0000
,
0100
0000
0000
0000
,
1000
0000
0000
0000
,
0001
0000
0000
0000
,
0100
0000
0000
0000
,
0010
0000
0000
0000
,
1001
0000
0001
0001
,
0001
0000
0010
0010
,
0010
0000
0100
0100
,
0100
0000
1000
0000
,
0001
0000
0000
0000
,
1000
0000
0000
0000
,
0010
0000
0010
0000
,
0010
0000
0000
0000
,
0100
0000
0100
0000
,
0100
0000
0000
0000
,
0001
0000
0000
0000
,
0001
0000
0000
0000
,
1000
0000
0000
0000
,
0100
0000
0100
0000
,
0100
0000
0000
0000
,
0010
0000
0010
0000
,
0010
0000
0000
0000
,
0001
0000
0000
0000
,
1000
0000
1000
0000
,
1000
0000
1000
0000
;

//---------------dance-double - ----------------
#NOTES:
     dance-double:
     :
     Challenge:
     17:
     0.873359,1.270843,0.319492,0.828951,0.388571,708.000000,671.000000,37.000000,96.000000,0.000000,0.000000,0.873359,1.270843,0.319492,0.828951,0.388571,708.000000,671.000000,37.000000,96.000000,0.000000,0.000000:
// measure 0
00000000
00000000
00000000
00000000
,  // measure 1
00000000
00000000
00000000
00000000
,  // measure 2
00000000
00000000
00000000
00000000
,  // measure 3
00000000
00000000
00000000
00000000
,  // measure 4
00000000
00000000
00000000
00000000
,  // measure 5
00000000
00000000
00000000
00000000
,  // measure 6
00000000
00000000
00000000
00000000
,  // measure 7
00000000
00000000
00000000
00000000
,  // measure 8
10000000
00200000
00000000
02300000
00000000
03010000
00100000
00010000
00100000
00001000
00010000
00002000
00000000
00013000
00000010
00010000
,  // measure 9
00001000
01000000
00001000
00200000
00000000
01300000
03010000
00001000
00000010
00000100
00000010
00000100
00000010
00000001
00001000
00000010
,  // measure 10
00000100
00000000
00000001
00002300
00000000
00003130
00010000
00000100
00010000
00001000
00100000
00002000
00000000
00013000
00000010
00010000
,  // measure 11
00001000
01000000
00100000
02000000
00000000
03010000
00100000
01000000
10000000
00000000
00010000
10000000
00010000
10000000
00100000
01000000
,  // measure 12
00010000
01000000
00100000
01000000
10000000
01000000
00010000
00000000
,  // measure 13
10000000
01000000
00100000
01000000
00010000
01000000
10000000
00000000
,  // measure 14
00010000
01000000
00100000
00010000
00002000
00000000
00103000
00001000
,  // measure 15
00010000
00000010
00000100
00000000
00000110
00000000
00001001
00000000
,  // measure 16
00000001
00000010
00000100
00000010
00001000
00000010
00000001
00000000
,  // measure 17
00001000
00000010
00000100
00000010
00000001
00000010
00001000
00000000
,  // measure 18
00000001
00000100
00000010
00001000
00000100
00000010
00000100
00010000
,  // measure 19
00001000
01000000
00100000
10000000
01000000
00100000
00010000
02000000
,  // measure 20
00000000
13000000
01000000
10000000
01000000
00010000
00100000
00002000
,  // measure 21
00000000
00103000
01000000
00100000
00001000
00010000
00000010
00000200
,  // measure 22
00000000
00001300
00010000
00002000
00000000
00103000
01000000
00200000
,  // measure 23
00000000
00301000
00010000
00000010
00001000
00000001
00001000
00000020
,  // measure 24
00000000
00000031
00000010
00000001
00000010
00001000
00000100
00020000
,  // measure 25
00000000
00030100
00000010
00000100
00010000
00001000
01000000
00200000
,  // measure 26
00000000
00310000
00001000
00020000
00000000
00030100
00000010
00000200
,  // measure 27
00000000
00010300
00001000
01000000
00010000
10000000
00010000
00000000
,  // measure 28
20100000
00000000
30010000
00100000
01000000
10000000
00100000
01000000
,  // measure 29
00010000
10000000
01000000
00100000
00010000
10000000
00010000
00000000
,  // measure 30
10100000
01010000
00001010
00000101
,  // measure 31
00002002
00000000
00003003
00000000
00000001
00000010
00000100
00002000
,  // measure 32
00000000
00003001
00000100
00002000
00000000
00013000
00100000
20000000
,  // measure 33
00000000
30020000
00000000
10030000
01000000
00010000
01000000
00200000
,  // measure 34
00000000
00310000
10000000
00010000
01000000
00100000
10000000
02000000
,  // measure 35
00000000
03100000
00001000
00010000
00000010
00000100
00001000
00010000
,  // measure 36
00000000
00001000
00100000
00001000
00010000
00000010
00010000
00001000
,  // measure 37
00000100
00000010
00000100
00000010
00001000
00000100
00000001
00000100
,  // measure 38
00001000
00000020
00000000
00000230
00000000
00001300
00010000
00001000
00010000
00100000
10000000
02000000
00000000
13000000
00010000
10000000
,  // measure 39
00100000
02000000
00000000
03020000
00000000
00130000
01000000
00100000
00001000
00010000
00001000
00010000
00001000
01000000
00100000
10000000
,  // measure 40
01000000
00200000
03000000
02300000
00000000
03013000
00001000
00010000
00001000
00000010
00000001
00000200
00000000
00000310
00001300
00000001
,  // measure 41
00001000
00000020
00000000
00000230
00000000
00000301
00000010
00000100
00001000
00000010
00000000
00010010
00000000
00011000
00000000
00001000
,  // measure 42
00100000
01000000
00100000
10000000
00100000
00010000
01000000
00000000
,  // measure 43
00001000
00010000
00100000
00010000
00001000
00000100
00000010
00000000
,  // measure 44
00001000
00000001
00000010
00000100
00001000
00000010
00000100
00000010
,  // measure 45
00001000
00000100
00010000
00001000
00100000
00010000
01000000
00100000
,  // measure 46
10000000
10100000
10010000
00110000
,  // measure 47
00010000
01000000
00100000
01000000
00001000
00010000
00000100
00000010
,  // measure 48
00000001
00000000
00001000
00000010
00000000
00000010
00000100
00000001
,  // measure 49
00001000
00000100
00000001
00000100
00001000
00000010
00000100
00000001
,  // measure 50
00001000
00000000
00000100
00020000
00000000
00230000
00000000
20300000
,  // measure 51
00000000
31000000
00100000
00000000
00100000
00000000
00010000
20000000
,  // measure 52
00000000
30200000
00000000
00310000
00001000
00000000
00001000
00000000
,  // measure 53
00010000
00000100
00000010
00000001
00000100
00000010
00010000
00000100
,  // measure 54
00010000
00000000
00001000
01000000
00000000
01001000
00000000
01002000
,  // measure 55
00000000
00013000
00000100
00000000
00020100
00000000
00031000
00100000
,  // measure 56
00000000
00201000
00000000
00301000
00010000
00000000
00010020
00000000
,  // measure 57
00010030
00001000
00010000
00001000
00100000
01000000
10000000
00020000
,  // measure 58
00000000
10030000
00100000
00010000
00100000
01000000
00001000
00020000
,  // measure 59
00000000
01030000
00010000
00001000
00000010
00000001
00001000
00000020
,  // measure 60
00000000
00001030
00000001
00001000
00000001
00000100
00000010
00020000
,  // measure 61
00003000
00030100
00000010
00000100
00001000
00000001
00000000
00002010
,  // measure 62
00000000
00003001
00000100
00001000
00000100
00000010
00010000
00002000
,  // measure 63
00000000
00003010
00001000
00010000
01000000
10000000
00010000
02000000
,  // measure 64
00000000
03010000
00100000
00001000
00010000
00000010
00000100
00000002
,  // measure 65
00000000
00001003
00000100
00000001
00000100
00000000
00000110
00000000
,  // measure 66
00001002
00000000
00001003
00000010
00000100
00000001
00000010
00000100
,  // measure 67
00001000
00000001
00000100
00000010
00001000
00000001
00001000
00000000
,  // measure 68
00000101
00001010
01010000
10100000
,  // measure 69
20020000
00000000
30030000
00000000
10000000
00100000
01000000
00020000
,  // measure 70
00000000
10030000
01000000
00020000
00000000
00031000
00000010
00000002
,  // measure 71
00000000
00002003
00000000
00003010
00000100
00000010
00001000
00000200
,  // measure 72
00000000
00000301
00000100
00001000
00000020
00000000
00001030
00000100
,  // measure 73
00010000
00001000
01000000
00100000
01000000
00001000
00010000
00000000
,  // measure 74
00012000
00000000
00103000
00010000
01000000
00100000
10000000
01000000
,  // measure 75
00100000
00010000
01000000
00001000
00010000
00000010
00000100
00000001
,  // measure 76
00001000
00000000
00000000
00000000
,  // measure 77
00000002
00000000
00000000
00000023
00000003
00000000
00001030
00000000
00010000
00000000
01000000
00000000
10000000
00000000
00010000
00000000
,  // measure 78
20000000
00000000
00000000
30200000
00000000
00000000
00310000
00000000
00001000
00000000
00000100
00000000
00000001
00001000
00000000
00000000
,  // measure 79
00000002
00000000
00000000
00000023
00000000
00000000
00000130
00000000
00000001
00000000
00000100
00000000
00001000
00000000
00000010
00000000
,  // measure 80
00010000
00001000
00000000
00010000
00001000
00000000
00100000
00010000
00000000
00100000
00010000
00000000
10000000
00100000
01000000
00000000
,  // measure 81
01020000
00000000
00000000
00000000
10030000
01000000
10000000
00000000
01000000
00100000
01000000
00000000
00100000
00001000
00010000
00000000
,  // measure 82
00021000
00000000
00000000
00000000
00030010
00001000
00000010
00000000
00001000
00000100
00001000
00000000
00000100
00000010
00000001
00000000
,  // measure 83
00000012
00000000
00000000
00000000
00001003
00000010
00001000
00000000
00000010
00000100
00000010
00000000
00001000
00000100
00010000
00000000
,  // measure 84
00001000
00010000
00001000
00010000
01000000
00100000
01000000
00100000
00010000
10000000
00100000
01000000
00010000
00000000
00000000
00000000
,  // measure 85
10000000
01000000
10000000
01000000
00000000
21000000
00000000
30010000
,  // measure 86
01000000
00001000
00020000
00000000
00030100
00000010
00000100
00000020
,  // measure 87
00000000
00000031
00001000
00000000
00000101
00000000
00001000
00000100
,  // measure 88
00010000
00000000
00001000
00000000
00010000
00000000
00002000
00000000
00000000
00000000
00000000
00000000
00103000
00000000
00000000
00010000
00000000
00000000
00100000
00000000
00000000
00020000
00000000
00000000
,  // measure 89
00000000
02030000
00000000
03100000
00020000
00000000
00031000
00100000
,  // measure 90
00001000
00020000
00000000
00030010
00000200
00000000
00000301
00001000
,  // measure 91
00000010
00000100
00000000
00000102
00000000
00001003
00000100
00010000
,  // measure 92
00001000
00010000
00000100
00000010
00000001
00001000
00000010
00000100
,  // measure 93
00000001
00000010
00000001
00000010
00000000
00000012
00000000
00001003
,  // measure 94
00000010
00010000
00002000
00000000
00103000
01000000
00100000
02000000
,  // measure 95
00000000
13000000
00010000
00000000
10100000
00000000
00010000
00100000
,  // measure 96
00001000
00000000
00010000
00000000
00001000
00000000
00020000
00000000
00000000
00000000
00000000
00000000
00030100
00000000
00000000
00001000
00000000
00000000
00000100
00000000
00000000
00002000
00000000
00000000
,  // measure 97
00000000
00003020
00000000
00000130
00002000
00000000
00013000
00000100
,  // measure 98
00010000
00002000
00000000
01003000
00200000
00000000
10300000
00010000
,  // measure 99
01000000
00100000
00000000
20100000
00000000
30010000
00100000
00001000
,  // measure 100
00010000
00000010
00000130
00002000
00000000
00013000
00000000
00022000
,  // measure 101
00000000
00000000
00033000
00000000
;

//---------------dance-double - ----------------
#NOTES:
     dance-double:
     :
     Hard:
     15:
     0.754938,1.139376,0.500825,0.993014,0.215873,612.000000,554.000000,58.000000,115.000000,0.000000,0.000000,0.754938,1.139376,0.500825,0.993014,0.215873,612.000000,554.000000,58.000000,115.000000,0.000000,0.000000:
00000000
00000000
00000000
00000000
,
00000000
00000000
00000000
00000000
,
00000000
00000000
00000000
00000000
,
00000000
00000000
00000000
00000000
,
00000000
00000000
00000000
00000000
,
00000000
00000000
00000000
00000000
,
00000000
00000000
00000000
00000000
,
00000000
00000000
00000000
00000000
,
00020000
00000000
00000000
00032000
00000000
00000000
01003000
00000000
00010000
10000000
00010000
10000000
00000000
00010000
00100000
00000000
,
02000000
00000000
00000000
03020000
00000000
00000000
01030000
00000000
00100000
00010000
00100000
00000000
00001000
00100000
00001000
00100000
,
00002000
00000000
00000000
00023000
00000000
00000000
00030010
00000000
00001000
00000001
00001000
00000001
00000000
00001000
00000100
00000000
,
00000020
00000000
00000000
00002030
00000000
00000000
00003010
00000000
00000110
00000000
00000001
00001000
00000001
00000100
00000010
00000000
,
00001000
00000000
00001100
00000000
00000001
00000100
00000010
00000000
,
00001000
00000100
00010000
00001000
01000000
00100000
10000000
00000000
,
00010000
00000000
00110000
00000000
10000000
00100000
01000000
00020000
,
00000000
10030000
01000000
00100000
00001000
00000000
00011000
00000000
,
00010000
00000010
00010000
00000000
00001000
00100000
00001000
00000000
,
00010000
00000100
00000010
00000001
00000100
00000010
00001000
00000000
,
00000002
00000000
00000013
00000100
00000000
00000100
00010000
00000000
,
00011000
00000000
00001000
01000000
00100000
10000000
00010000
00200000
,
00000000
00310000
01000000
00010000
01000000
00002000
00000000
00023000
,
00000000
00030100
00001000
00000100
00001000
00000020
00000000
00000130
,
00000000
00000101
00000000
00000110
00000000
00001010
00000000
00002001
,
00000000
00003013
00000001
00000010
00001000
00000001
00001000
00000200
,
00000000
00001300
00000010
00001000
00000010
00020000
00000000
00032000
,
00000000
00103000
00010000
00100000
00010000
02000000
00000000
03100000
,
00000000
10100000
00000000
01100000
00000000
01010000
00000000
20010000
,
00000000
31000000
00100000
01000000
00200000
00000000
00301000
00000000
,
00022000
00033000
00010100
00000100
,
00000110
00000010
00002002
00003003
,
00000002
00000203
00002300
00023000
,
00230000
00000000
00000000
00000000
10300000
00010000
10000000
00200000
,
00000000
10300000
01000000
20000000
00000000
30010000
01000000
00020000
,
00000000
00230000
00000000
00301000
00010000
00000010
00001000
00000100
,
00000000
00000100
00000020
00000000
00000032
00000000
00001003
00000010
,
00000100
00000001
00000010
00000100
00010000
00001000
00010000
00001000
,
00000000
00100000
00010000
00100000
00001000
00010000
00000010
00000000
,
00010000
00001000
00010000
00001000
00100000
01000000
00100000
01000000
,
20000000
00000000
00000000
30200000
00000000
00000000
01300000
00010000
01000000
00000000
00010000
00200000
00000000
00000000
00301000
00010000
,
00001000
00000000
00010000
00000010
00000000
00000010
00000100
00000000
00000001
00000010
00000100
00000000
00001000
00000010
00000100
00000000
,
00000002
00000000
00000000
00000203
00000000
00000000
00000310
00001000
00000010
00000000
00001000
00000200
00000000
00000000
00010300
00001000
,
00010000
00000000
00001000
01000000
00000000
01000000
00100000
00000000
10000000
01000000
00000000
11000000
00000000
01010000
00000000
10030000
,
00010000
00100000
01000000
00100000
00001000
00010000
00001000
00000000
,
00010000
00000000
00010010
00000000
00000010
00001000
00000100
00000000
,
00001000
00000100
00000010
00000100
00010000
00001000
00010000
00000000
,
00001000
01000000
00100000
00000000
10000000
00010000
10000000
00000000
,
10100000
10010000
00110000
00101000
,
00011000
00010010
00001010
00001001
,
00000001
00000010
00000100
00002000
00000000
00003010
00000100
00000010
,
00020000
00300000
00000100
00000000
00002000
00000000
00033000
00000000
,
00021000
00000000
00030010
00000200
00000000
00002300
00000000
00023000
,
00000000
00031000
00200000
00000000
02300000
00000000
03100000
00002000
,
00000000
00023000
00000000
00130000
02000000
00000000
03020000
00000000
,
00130000
00001000
00010000
00000000
00000010
00010000
00001000
00000000
,
00011000
00000000
00000000
00101000
00000000
00011000
00000000
00010100
,
00000000
00000000
00010010
00000000
00010010
00000000
00000000
00101000
,
00000000
00101000
00000000
00000000
00011000
00000000
00011000
00000000
,
00010000
00000010
00000100
00000001
00000010
00000100
00001000
00000020
,
00000300
00000130
00000001
00001000
00000001
00000010
00000000
00000012
,
00000000
00001003
00000010
00001000
00000100
00010000
00000000
00020100
,
00000000
00000010
00000000
00000100
00000000
00031000
00000000
01002000
,
00000000
00203000
00000000
00310000
10000000
00010000
00000000
02010000
,
00300000
03100000
10000000
00010000
10000000
01000000
00000000
21000000
,
00000000
30010000
01000000
00010000
00100000
00001000
00000000
00102000
,
00000000
01000000
00000000
00100000
00000000
00013000
00000000
00020010
,
00000000
00030100
00001000
00000310
00020000
00000000
00031000
00000000
,
00022000
00033000
00101000
00100000
,
01100000
01000000
20020000
30030000
,
20000000
30200000
00320000
00032000
,
00003200
00000000
00000000
00000000
00000301
00001000
00000001
00000200
,
00000000
00000301
00000010
00000002
00000000
00001003
00000010
00002000
,
00000000
00003200
00000000
00010300
00001000
01000000
00010000
00100000
,
00000000
00100000
02000000
00000000
23000000
00000000
30010000
01000000
,
00100000
10000000
01000000
00100000
00001000
00010000
00001000
00000000
,
00022000
00000000
00033000
00000000
00010010
00000000
00000010
00000100
,
00000010
00000100
00000001
00000010
00000100
00010000
00001000
00000000
,
00011000
00000000
00000000
00000000
,
00020000
00000000
00000000
00032000
00000000
00000000
00103000
00000000
00010000
00000000
00100000
00000000
00010000
00000000
01000000
00000000
,
00002000
00000000
00000000
00023000
00000000
00000000
00030010
00000000
00001000
00000000
00000010
00000000
00001000
00000001
00000000
00000000
,
00000002
00000000
00000000
00000023
00000000
00000000
00000130
00000000
00001000
00000000
00000100
00000000
00001000
00000000
00000001
00000000
,
00000200
00000000
00000000
00002330
00030000
00000000
00023000
00003000
00000000
00230000
00000000
00000000
13300000
00000000
01000000
00000000
,
21000000
00000000
30010000
01000000
00100000
00010000
00001000
00000010
,
00000012
00000000
00001003
00000010
00000100
00001000
00010000
01000000
,
21000000
00000000
00000000
00000000
30010000
01000000
00010000
00000000
00100000
00001000
00100000
00300000
00001000
00010000
00001000
00000000
,
00010000
00000010
00010000
00000010
00000100
00000001
00000100
00000001
00001000
00000100
00000010
00000001
00001000
00000000
00000000
00000000
,
00000001
00000100
00000001
00000200
00000000
00000320
00000000
00001030
,
00000100
00000000
00000200
00000000
00010300
00001000
00010000
00002000
,
00000000
01003000
00100000
00000000
00100000
00000000
10000000
01000000
,
00010000
01000000
20000000
00000000
30100000
01000000
00100000
02000000
,
00000000
03020000
00000000
00130000
00001000
00000000
00010000
00001000
,
00010000
00002000
00000000
00013000
00000010
00000000
00000010
00000100
,
00000001
00000000
00001000
00000200
00000000
00010300
00001000
00010000
,
00002000
00000300
00103000
00010000
00000000
00010000
00100000
01000000
,
10000000
00010000
10000000
00200000
00000000
02300000
00000000
03010000
,
00100000
00000000
00200000
00000000
00301000
00010000
00001000
00020000
,
00000000
00030010
00000100
00000000
00000100
00000000
00000001
00000010
,
00001000
00000010
00000002
00000000
00000103
00000010
00000100
00000020
,
00000000
00002030
00000000
00003100
00010000
00000000
00001000
00010000
,
00001000
00020000
00000000
00031000
01000000
00000000
01000000
00100000
,
10000000
00000000
00010000
00100000
00000000
00100000
00001000
00010000
,
00001000
00010000
00000010
00000100
00000000
00000110
00000000
00002002
,
00000000
00000000
00003003
00000000
;

//---------------dance-double - ----------------
#NOTES:
     dance-double:
     :
     Medium:
     13:
     0.650085,0.832621,0.518094,0.803046,0.073397,527.000000,467.000000,60.000000,93.000000,0.000000,0.000000,0.650085,0.832621,0.518094,0.803046,0.073397,527.000000,467.000000,60.000000,93.000000,0.000000,0.000000:
00000000
00000000
00000000
00000000
,
00000000
00000000
00000000
00000000
,
00000000
00000000
00000000
00000000
,
00000000
00000000
00000000
00000000
,
00000000
00000000
00000000
00000000
,
00000000
00000000
00000000
00000000
,
00000000
00000000
00000000
00000000
,
00000000
00000000
00000000
00000000
,
00010000
00000000
00000000
00001000
00000000
00000000
00010000
00000000
00000020
00000000
00000000
00000000
00000130
00000000
00000001
00000000
,
00001000
00000000
00000000
00000100
00000000
00000000
00000010
00000000
00001000
00000000
00010000
00000000
00001000
00000000
00100000
00000000
,
00001000
00000000
00000000
00010000
00000000
00000000
00001000
00000000
02000000
00000000
00000000
00000000
03100000
00000000
10000000
00000000
,
00010000
00000000
00000000
00100000
00000000
00000000
01000000
00000000
00010000
00000000
00001000
00000000
00000010
00000000
00000001
00000000
,
00000100
00000000
00000101
00000000
00000001
00001000
00000100
00000000
,
00010000
00000000
00010000
00002000
00000000
00000000
01003000
00000000
,
00010000
00000000
01010000
00000000
10000000
00010000
00100000
00000000
,
00010000
10000000
00010000
00000000
10000000
01000000
00100000
00010000
,
10000000
00000000
10100000
00000000
10000000
00010000
00100000
00000000
,
00001000
00000000
00001000
00020000
00000000
00000000
00030010
00000000
,
00001000
00000000
00001010
00000000
00000001
00001000
00000100
00000000
,
00001000
00000001
00001000
00000001
00000100
00000020
00000300
00000032
,
00000000
00000000
00000013
00000000
00001000
00000200
00000000
00000302
,
00000000
00000000
00000103
00000000
00001000
00000020
00000000
00000230
,
00000000
00002300
00000000
00023000
00000000
00230000
00000000
02300000
,
00000000
03020000
00000000
10030000
00010000
02000000
00300000
23000000
,
00000000
00000000
31000000
00000000
00010000
00200000
00000000
20300000
,
00000000
00000000
30100000
00000000
00010000
02000000
00000000
03200000
,
00000000
00320000
00000000
00032000
00000000
00003200
00000000
00000320
,
00000000
00001030
00000100
00003010
00000002
00000000
00000103
00000000
,
00002002
00003003
00000101
00000100
,
00000110
00000010
00002002
00003003
,
00000002
00002003
00023000
10030000
,
20020000
00000000
30030000
00000000
00010000
00100000
01000000
20000000
,
00000000
30200000
00000000
00320000
00000000
00230000
00000000
02300000
,
00000000
03002000
00000000
00013000
00000100
00010000
00000100
00000020
,
00000000
00000031
00000100
00000000
00000101
00000000
00001000
00000100
,
00001000
00000100
00010000
00000000
00001000
00010000
00001000
00010000
,
00000000
00001000
01000000
00000000
01000000
00100000
00000000
10000000
,
01000000
00000000
00100000
00000000
00010000
10000000
00010000
10000000
,
00100000
00000000
00000000
00100000
00000000
00000000
00100000
00000000
02100000
00000000
00000000
00000000
03010000
00000000
00100000
00000000
,
00002000
00000000
00000000
00023000
00000000
00000000
00030100
00000000
00001000
00000100
00001000
00000000
00000001
00001000
00000001
00001000
,
00000010
00000000
00000000
00000010
00000000
00000000
00000010
00000000
00000120
00000000
00000000
00000000
00001030
00000000
00000100
00000000
,
00020000
00000000
00000000
00032000
00000000
00000000
00103000
00000000
00010000
01000000
00000000
01100000
00000000
01100000
00000000
10000000
,
00010000
00000000
01010000
00000000
10000000
01000000
00100000
00000000
,
00010000
01000000
00001000
00000000
00010000
00000100
00001000
00000000
,
00000001
00000000
00000011
00000000
00001000
00000010
00000100
00000000
,
00000001
00001000
00000001
00000000
00001000
00000100
00010000
00000000
,
00010100
00010100
00011000
00011000
,
01001000
01001000
00011000
00011000
,
00101000
00000000
00000000
01100000
00000000
00000000
10010000
00000000
,
10000000
01000000
00100000
00000000
00010000
01000000
00100000
00000000
,
10100000
00000000
10000000
01000000
00000000
01000000
00000000
01000000
,
00000000
00100000
00010000
00000000
00010000
00000000
01000000
00001000
,
00000000
00001000
00000000
00010000
00000100
00000000
00000100
00000000
,
00001000
00000010
00001000
00000000
00000001
00000010
00000001
00000000
,
00001000
00000000
00000000
00000101
00000000
00000101
00000000
00000101
,
00000000
00000000
00001100
00000000
00001100
00000000
00000000
00011000
,
00000000
00011000
00000000
00000000
01010000
00000000
01010000
00000000
,
10000000
01000000
00100000
00000000
00010000
01000000
00100000
00000000
,
10020000
00000000
00130000
00000000
01000000
10000000
01000000
00000000
,
20000000
00000000
30100000
00000000
01000000
00010000
01000000
00002000
,
00000000
00023000
00000000
02030000
00000000
03020000
00000000
00032000
,
00000000
00003010
00000001
00000000
00001000
00000010
00000100
00000000
,
00002001
00000000
00003100
00000000
00000010
00000001
00000010
00000000
,
00000002
00000000
00000103
00000000
00000010
00001000
00000010
00020000
,
00000000
00032000
00000000
00003020
00000000
00002030
00000000
00023000
,
00000000
01030000
10000000
00000000
00010000
01000000
00100000
00000000
,
20020000
30030000
10100000
00100000
,
01100000
01000000
20020000
30030000
,
20000000
30020000
00032000
00003001
,
00002002
00000000
00003003
00000000
00001000
00000100
00000010
00000002
,
00000000
00000203
00000000
00002300
00000000
00003200
00000000
00000320
,
00000000
00020030
00000000
00031000
00100000
00001000
00100000
02000000
,
00000000
13000000
00200000
00000000
02300000
00000000
03010000
10000000
,
00000000
10000000
00020000
00000000
00130000
00001000
00010000
00000000
,
00022000
00000000
00033000
00000000
00010010
00000000
00000010
00001000
,
00000100
00000000
00000010
00000001
00000100
00000010
00001000
00000000
,
00001001
00000000
00000000
00000000
,
00000202
00000000
00000303
00000000
00001000
00000010
00010000
00001000
,
00202000
00000000
00303000
00000000
00100000
00010000
01000000
00100000
,
02200000
00000000
03300000
00000000
10000000
00100000
01000000
00010000
,
10000000
00000000
00000000
10000000
00000000
00000000
00010000
00000000
00000000
00010000
00000000
00000000
00100000
00000000
00001000
00000000
,
00021000
00000000
00000010
00000010
00000100
00000100
00031000
00000000
,
00012000
00000000
00100000
00100000
01000000
01000000
00013000
00000000
,
00001000
00010000
00001000
00010000
00000010
00000100
00000010
00000100
,
00001000
00010000
00001000
00010000
01000000
00100000
01000000
00000000
,
10010000
00000000
10000000
00100000
,
01100000
00000000
01000000
00000000
00001000
00010000
00001000
00010000
,
00000000
00010000
00000100
00000010
,
00000110
00000000
00000001
00000000
00001000
00000001
00001000
00000001
,
00000000
00001000
00000010
00000000
00000010
00000000
00010000
00000000
,
00011000
00000000
00000000
00001000
01000000
00000000
00010000
10000000
,
00010000
00000000
10000000
01000000
00000000
01000000
00100000
00000000
,
00001000
00010000
00001000
00000000
00010000
00000010
00000100
00000001
,
00001000
00000000
00000001
00000100
,
00000110
00000000
00000010
00000000
00010000
00001000
00010000
00001000
,
00000000
00001000
00100000
01000000
,
01100000
00000000
10000000
00000000
00010000
10000000
00010000
10000000
,
00000000
00010000
01000000
00000000
01000000
00000000
00001000
00000000
,
00011000
00000000
00000000
00010000
00000010
00000000
00001000
00000001
,
00001000
00000000
00000001
00000010
00000001
00000000
00001000
00000010
,
00000100
00000010
00010000
00001000
00000000
00010000
00000000
00022000
,
00000000
00000000
00033000
00000000
;

//---------------dance-double - ----------------
#NOTES:
     dance-double:
     :
     Easy:
     9:
     0.394739,0.569688,0.129524,0.388571,0.000000,320.000000,305.000000,15.000000,45.000000,0.000000,0.000000,0.394739,0.569688,0.129524,0.388571,0.000000,320.000000,305.000000,15.000000,45.000000,0.000000,0.000000:
00000000
00000000
00000000
00000000
,
00000000
00000000
00000000
00000000
,
00000000
00000000
00000000
00000000
,
00000000
00000000
00000000
00000000
,
00000000
00000000
00000000
00000000
,
00000000
00000000
00000000
00000000
,
00000000
00000000
00000000
00000000
,
00000000
00000000
00000000
00000000
,
00020000
00031000
00022000
00033000
,
00001000
00100000
02200000
03300000
,
00010000
00100000
01000000
00000000
10000000
00100000
01000000
00000000
,
00100000
01000000
00001000
00000000
00020000
00000000
00031000
00000000
,
00010000
00000000
00000100
00000000
,
00000010
00000001
00000100
00000000
,
00000001
00000100
00000010
00000000
,
00001000
00000100
00010000
00000000
,
00001000
00000000
00100000
00000000
,
00010000
00100000
01000000
00000000
,
10000000
00100000
01000000
00000000
,
00100000
00000000
01000000
00000000
00001000
00000000
00000000
00020000
,
00000000
00000000
00030000
00000000
00001000
00000000
00000000
00020000
,
00000000
00030000
00001000
00100000
,
00010000
00010000
01000000
00100000
,
01000000
00000000
00001000
00000000
00010000
00000000
00000000
00002000
,
00000000
00000000
00003000
00000000
00010000
00000000
00000000
00002000
,
00000000
00003000
00010000
00000100
,
00000010
00000010
00000001
00000100
,
00000010
00001000
00000001
00000000
,
00002002
00003003
00000001
00001000
,
00000100
00010000
00000020
00000000
,
00010030
00001000
00100000
00010000
,
02000000
00000000
00100000
00000000
,
03100000
10000000
01000000
00000000
,
00100000
00100000
00001000
00000000
,
00010000
00001000
00010000
00000010
,
00000100
00000001
00001000
00001000
,
00000000
00000001
00000010
00000100
,
00010000
00000000
00001000
00010000
,
00022000
00000000
00033000
00000000
00001000
00000000
01000000
00010000
,
01000000
00100000
20020000
30030000
,
10000000
01000000
00100000
00000000
00010000
01000000
00001000
00000000
,
00010000
00000100
00001000
00000000
00000010
00000010
00000010
00000000
,
00001000
00000001
00000100
00000010
,
00001000
00001000
00001000
00000000
,
00000100
00010000
00001000
00100000
,
00010000
00010000
00010000
00000000
,
10000000
10000000
00010000
00010000
,
01000000
01000000
00100000
00100000
,
01000000
00000000
00000000
01000000
00000000
00000000
01000000
00000000
,
00002000
00000000
00023000
00000000
,
00030100
00000000
00000000
00001000
00000000
00001000
00000000
00001000
,
00000000
00000000
00000001
00000000
00000100
00000000
00000000
00000010
,
00000000
00000010
00000000
00000000
00010000
00000000
00001000
00000000
,
00100000
00100000
00010000
00000000
,
10000000
00000000
00000000
00010000
00000000
00010000
00000000
00010000
,
00000000
00000000
01000000
00000000
01000000
00000000
00000000
00001000
,
00000000
00001000
00000000
00000000
00010000
00000000
00000100
00000000
,
00000010
00000001
00000100
00000000
,
00002002
00003003
00000001
00000100
,
00000010
00000000
00001000
00000100
,
00010000
00001000
00010000
00001000
,
00100000
00010000
01000000
00000000
,
20020000
30030000
10000000
00010000
,
00100000
00000000
00010000
00100000
,
00001000
00010000
00001000
00010000
,
00000010
00000100
00000001
00000000
,
00002002
00003003
00000001
00001000
,
00000100
00010000
00000020
00000000
,
00010030
00001000
00100000
00010000
,
02000000
00000000
00100000
00000000
,
03100000
10000000
01000000
00000000
,
00100000
00100000
00010000
00000000
,
00100000
00001000
00010000
00000000
,
00001000
01000000
00100000
00000000
,
20000000
00000000
31000000
00100000
,
00010000
01000000
00002000
00000000
,
00013000
00000000
00000000
00000000
,
00020000
00000000
00030000
00000000
00000100
00000010
00000100
00000000
,
00000020
00000000
00000030
00000000
00000001
00001000
00000001
00000000
,
00002000
00000000
00003000
00000000
00000010
00010000
00000010
00000000
,
00020000
00032000
00203000
01300000
,
20020000
00000000
30030000
00000000
00010000
01000000
00010000
01000000
,
00002000
00000000
00003000
00000000
00010000
00000100
00010000
00000100
,
00000020
00000000
00000030
00000000
00000001
00001000
00000001
00001000
,
00000020
00000230
00002300
00013000
,
00001000
00100000
00010000
00000000
,
01100000
00000000
10000000
00000000
,
00010000
01000000
00001000
00000000
,
00011000
00000000
00010000
00000000
,
00000100
00000010
00000001
00000000
,
00000110
00000000
00000001
00000000
,
00001000
00000001
00000100
00000010
,
00001000
00000100
00010000
00000000
,
00001000
00010000
00001000
00000000
,
00011000
00000000
00100000
00000000
,
00010000
00100000
01000000
00000000
,
01100000
00000000
10000000
00000000
,
00010000
01000000
00001000
00000000
,
00011000
00000000
00010000
00000100
,
00000010
00000001
00000100
00000010
,
00010000
00000000
00000000
00001000
00000000
00020000
00000000
00002000
,
00000000
00000000
00033000
00000000
;
