#TITLE:ひまパンケーキメイキング;
#SUBTITLE:;
#ARTIST:ひまわり*パンチ;
#TITLETRANSLIT:HimaPancake Making;
#SUBTITLETRANSLIT:;
#ARTISTTRANSLIT:Himawari*Punch;
#GENRE:;
#CREDIT:;
#BANNER:Himapancake Making.png;
#BACKGROUND:HimaPancake Making-bg.png;
#LYRICSPATH:;
#CDTITLE:;
#MUSIC:HimaPancake Making.ogg;
#OFFSET:-0.301000;
#SAMPLESTART:6.596309;
#SAMPLELENGTH:13.714000;
#SELECTABLE:YES;
#BPMS:0.000000=152.000000
,32.000000=153.000000
,48.000000=154.000000
,56.000000=155.000000
,64.000000=156.000000
,73.000000=157.000000
,81.000000=158.000000
,89.000000=159.000000
,97.000000=160.000000
,105.000000=161.000000
,113.000000=162.000000
,121.000000=163.000000
,129.000000=164.000000
,139.000000=165.000000
,147.000000=166.000000
,151.000000=167.000000
,155.000000=168.000000
,157.000000=169.000000
,159.000000=170.000000
,160.000000=171.000000
,161.000000=172.000000
,162.000000=174.000000
,163.000000=176.000000
,167.000000=100.059998
,171.000000=176.000000
,189.000000=186.000000
,208.000000=176.000000
,236.000000=154.000000
,279.000000=161.000000
,284.000000=164.000000
,289.000000=167.000000
,293.000000=170.000000
,297.000000=173.000000
,299.000000=176.000000
;
#STOPS:
;
#BGCHANGES:0.000=HimaPancake Making.mp4=1.000=0=0=1=====,
99999=-nosongbg-=1.000=0=0=0 // don't automatically add -songbackground-
;
#KEYSOUNDS:;
#ATTACKS:;

//---------------dance-single - ----------------
#NOTES:
     dance-single:
     :
     Hard:
     13:
     0.611025,0.685036,0.416879,0.333503,0.721200,513.000000,463.000000,50.000000,40.000000,0.000000,0.000000,0.611025,0.685036,0.416879,0.333503,0.721200,513.000000,463.000000,50.000000,40.000000,0.000000,0.000000:
// measure 0
0000
0000
0000
0000
,  // measure 1
0000
0000
0000
0000
,  // measure 2
1000
0000
1000
0001
0000
0100
0000
0000
0001
1000
0000
0000
,  // measure 3
0001
1000
0001
0100
0010
0100
0001
1000
0001
0010
0000
0000
,  // measure 4
0001
0010
0100
1000
0000
0000
1000
0010
0100
0001
0000
0000
,  // measure 5
0101
1010
1100
0011
,  // measure 6
1000
0000
1000
0001
0000
0001
0100
0000
0100
0010
0000
0010
,  // measure 7
1000
1010
2002
3033
,  // measure 8
0001
0000
0001
0100
0000
0100
1000
0000
1000
0100
0000
0100
,  // measure 9
0001
0000
0001
1000
0000
1000
0100
0000
0100
0010
0000
0010
,  // measure 10
0100
2002
3003
0001
,  // measure 11
1000
0010
1000
0010
0000
0000
0100
0001
0100
0001
0000
0000
,  // measure 12
1000
0000
0100
1000
0000
1000
0001
0000
0100
0001
0000
0001
,  // measure 13
1000
0000
0010
1000
0000
1000
0002
0000
0000
0013
0000
0000
,  // measure 14
0001
0000
0001
0100
0000
0100
0010
0000
0010
1000
0000
1000
,  // measure 15
0001
0000
1000
0001
1000
0001
0100
0000
0000
0000
0000
0000
,  // measure 16
0001
0100
0001
1000
0100
1000
0010
0000
0000
1000
0100
0010
,  // measure 17
0001
0011
1100
1010
,  // measure 18
0101
0000
0000
1000
0000
1000
0001
0000
0100
0010
0000
0010
,  // measure 19
1000
0000
0001
0010
0000
0000
0011
0000
0000
2002
0000
0000
,  // measure 20
3003
0000
0000
1000
0000
1000
0010
0000
0010
0001
0000
0001
,  // measure 21
0010
0000
0010
0200
0000
0000
0301
0000
0010
0200
0000
0000
,  // measure 22
1300
0000
0000
0001
0000
0001
0010
0000
0010
1000
0000
1000
,  // measure 23
0010
0000
0010
0100
0000
1000
0100
0000
1000
0001
0000
0100
,  // measure 24
0001
0100
1001
2002
,  // measure 25
3003
0000
0000
0001
0100
0001
0100
0000
0000
0010
1000
0010
,  // measure 26
1000
0000
0000
0001
0000
1000
0100
0000
0100
1000
0000
0001
,  // measure 27
0100
0000
0100
0010
0000
0010
1000
0000
1000
0001
0000
0001
,  // measure 28
0010
0000
0000
0001
0100
0001
0100
0000
0000
0010
1000
0010
,  // measure 29
1000
0000
0000
1000
0100
0010
0001
0000
0000
0001
0010
0100
,  // measure 30
1000
1100
0101
0011
,  // measure 31
1010
1001
0110
2002
,  // measure 32
3003
0000
0000
0001
0010
0001
1000
0010
1000
0001
0000
0000
,  // measure 33
1000
0010
1000
0001
0010
0001
1000
0000
0000
1001
0000
0000
,  // measure 34
1100
0000
0000
1001
0000
0000
0101
0000
0000
1000
0000
0001
,  // measure 35
0100
0000
0100
0010
0000
1000
0100
0000
0100
0010
0000
0000
,  // measure 36
0110
0000
0000
2002
0000
0000
3003
0000
0000
0001
0000
1000
,  // measure 37
0100
0000
1000
0001
0000
1000
0010
0000
1000
0001
0000
0001
,  // measure 38
1000
0000
1000
0100
0000
0100
0010
0000
0001
1000
0000
0001
,  // measure 39
0010
0000
0001
1000
0000
0001
0100
0000
0001
1000
0000
1000
,  // measure 40
0100
0000
0100
0001
0000
0001
0100
0000
1000
0010
0000
0000
,  // measure 41
1001
1001
2002
3003
,  // measure 42
0000
0000
0000
0000
,  // measure 43
0000
0000
0000
0000
0000
0000
0001
0100
0001
1000
0100
1000
,  // measure 44
0001
0100
0001
1000
0000
0000
0001
0000
1003
0001
0010
0100
,  // measure 45
1000
0000
0000
0000
1100
0000
0000
0100
0010
0000
0001
0000
1000
0000
0010
0000
,  // measure 46
0100
0000
0000
0000
0101
0000
0000
0100
0010
0000
1000
0000
0031
0000
0010
0000
,  // measure 47
0100
0000
0000
1000
0100
1000
0100
1000
0100
1000
0000
0000
,  // measure 48
0001
0100
0001
0100
0001
0100
0001
0100
0001
0100
0000
0000
,  // measure 49
0101
0110
1010
1001
,  // measure 50
1000
0000
1000
0100
0000
0010
0001
0000
0001
1000
0000
0010
,  // measure 51
0100
0110
2302
3003
,  // measure 52
0001
0010
0100
0010
1000
0010
0100
0010
,  // measure 53
0001
0100
0010
0100
1000
0100
0010
0100
,  // measure 54
0002
0023
2030
3002
,  // measure 55
0203
0000
2300
0000
3010
0100
0031
0000
,  // measure 56
1000
0100
0010
0100
0001
0100
0010
0100
,  // measure 57
1000
0010
0100
0010
0001
0010
0100
0010
,  // measure 58
2000
3200
0320
0032
,  // measure 59
2000
0000
0000
3003
,  // measure 60
0001
0000
0001
0100
0000
0100
0010
0000
0010
1000
0000
1000
,  // measure 61
0100
0000
0100
0010
0000
0010
0001
0000
0001
1000
0000
1000
,  // measure 62
0010
0000
0010
0100
0000
0100
0001
0000
0001
1000
0000
1000
,  // measure 63
0100
0010
1001
1001
,  // measure 64
1001
0000
0000
2002
0000
0000
3003
0000
0000
1000
0000
1000
,  // measure 65
0100
0000
0010
0001
0000
0001
1000
0000
0001
0100
0000
0100
,  // measure 66
0010
0000
1000
0002
0000
0000
0023
0003
0000
2030
0000
0000
,  // measure 67
3200
0302
2000
0000
,  // measure 68
0000
3003
1000
0100
,  // measure 69
0010
0000
0000
0001
0000
0000
0100
0000
0000
0001
0100
0010
,  // measure 70
1000
1010
0110
0101
,  // measure 71
1000
0100
0010
0001
0000
0000
0101
0000
0101
0000
0000
0000
,  // measure 72
1000
0001
1000
0010
0000
0000
1010
0000
1010
0000
0000
0000
,  // measure 73
0001
0010
0100
1000
0000
0000
0001
0100
0001
0100
0010
1000
,  // measure 74
0001
0000
0000
0000
1000
0100
1000
0100
0000
0000
0000
0000
0010
0001
0010
0001
,  // measure 75
0000
0000
0000
0000
,  // measure 76
0000
0000
0000
0000
,  // measure 77
0000
0000
2000
0002
0000
0000
0000
0000
,  // measure 78
0000
3003
0000
0000
;

//---------------dance-single - ----------------
#NOTES:
     dance-single:
     :
     Challenge:
     16:
     0.709885,0.848139,0.208439,0.325165,1.121403,596.000000,571.000000,25.000000,39.000000,0.000000,0.000000,0.709885,0.848139,0.208439,0.325165,1.121403,596.000000,571.000000,25.000000,39.000000,0.000000,0.000000:
0000
0000
0000
0000
,
0000
0000
0000
0000
,
0001
0000
0001
0100
0000
0010
0000
0000
1000
0001
0000
0000
,
1000
0100
1000
0001
0100
0001
1000
0100
0010
0001
0000
0000
,
1000
0010
1000
0001
0000
1000
0001
0010
0001
1000
0000
0001
,
0200
2300
3200
0302
,
1033
0030
0001
0010
0000
0010
0100
0000
1000
0010
0000
0010
,
0100
0101
2010
3001
,
1000
0000
0001
0100
0000
0001
1000
0100
0010
0001
0100
0010
,
1000
0000
1000
0001
0000
0001
0100
0000
0001
0010
0100
1000
,
0001
2002
3003
0001
,
1000
0100
1000
0001
0100
0001
1000
0100
0001
1000
0010
0001
,
0100
0000
0100
0010
0000
1000
0100
0000
0100
0010
0000
0001
,
1000
0000
1000
3001
0000
1000
0103
0010
0001
1000
0010
0100
,
0001
0012
1003
2100
,
3001
0000
1000
0010
0100
0001
1000
0000
0000
0000
0000
0000
,
0001
0100
0001
1000
0100
1000
0010
0000
1000
0100
0001
0100
,
1003
0000
0001
0100
0000
0100
0010
0000
1000
0100
0000
0100
,
0010
0000
0001
1000
0000
1000
0010
0000
0100
0001
0000
0001
,
1000
0000
0100
0010
0000
0001
1000
0010
0100
0002
0000
0000
,
1003
0000
0000
0001
0000
1000
0100
0000
1000
0010
0100
0001
,
0010
0100
1000
0020
0000
0000
0133
0000
0000
1001
0000
1000
,
0010
0000
0100
3001
0000
1000
0100
1000
0010
0100
0001
1000
,
0001
0100
0010
1000
0000
1000
0001
0000
0001
0100
0000
0001
,
0010
0100
1000
0001
0000
0000
1001
0000
0000
2002
0000
0000
,
3003
0000
0000
0001
0010
0001
1000
0010
1000
0001
0010
1000
,
0001
0100
1000
0010
0000
0010
0130
0000
0001
0010
0000
0010
,
0100
0000
1000
0001
0100
0001
1000
0010
1000
0001
0010
0001
,
0100
0010
1000
0001
0010
0001
0010
0000
0001
1000
0010
1000
,
0010
0000
1000
0001
0010
0100
1000
0000
0001
1000
0010
0100
,
0001
0000
1000
0100
0000
0100
0001
0000
0001
0100
0000
0100
,
1000
0000
0001
0100
0000
0001
0010
0100
1000
0001
0000
0000
,
1001
0000
0000
1000
0010
1000
0001
0100
0001
0010
0000
0001
,
1000
0100
1000
0001
0010
0001
0100
0000
0001
1000
0000
1000
,
0010
0000
0100
0001
0000
0001
0010
0000
0001
1000
0000
1000
,
0010
0000
0010
0100
0000
0100
0001
0000
1000
0100
0000
0000
,
1100
0000
0000
1002
0000
0000
3103
0000
0000
0001
0000
1000
,
0010
0000
1000
0100
0000
0100
0001
0000
0001
0100
0000
1000
,
0010
0100
0001
0010
0100
1000
0001
0100
0010
1000
0000
1000
,
0100
0000
1000
0001
0100
0010
1000
0100
0010
0001
0000
0001
,
1000
0000
0010
0100
0000
0001
0010
0100
1000
0001
0000
0000
,
1001
1001
2002
3003
,
0000
0000
0000
0000
,
0000
0000
0000
0000
0000
0000
1000
0100
0010
0001
0100
0010
,
1000
0001
1000
0001
0000
0000
1000
0000
0001
0100
1000
0100
,
0001
0000
0000
0000
0101
0000
0000
1000
0010
0000
0001
0000
0010
0000
1000
0000
,
0100
0000
0010
0000
0011
0000
0000
1000
0010
0000
0100
0000
0110
0000
0000
0000
,
1001
0000
0000
0001
0100
0001
1000
0010
1000
0001
0000
0001
,
1000
0100
1000
0001
0100
0001
1000
0100
0010
0001
0000
1000
,
0010
0000
0010
0100
0000
0001
0010
0000
0010
0100
0000
1000
,
0001
0000
1000
0010
1000
0010
0100
0000
0001
0010
0001
0010
,
0100
0000
0110
0000
2002
0000
0000
3003
,
0001
0000
0100
0000
1000
0000
0100
0010
0100
0000
0001
0000
1000
0000
0000
0000
,
1000
0000
0100
0000
0001
0000
0100
0010
0100
0000
1000
0000
0001
0000
0000
0000
,
0002
0100
2003
0100
3002
0010
2003
0010
,
3002
0100
2003
0100
3001
0100
0010
1000
,
0001
0000
0100
0000
1000
0000
0100
0010
0100
0000
0001
0010
0100
0000
0000
0000
,
1000
0000
0010
0000
0001
0000
0010
0100
0010
0000
1000
0100
0010
0000
0000
0000
,
0002
0010
2003
0100
3002
0100
2003
0010
,
0002
0000
0000
3003
,
1010
0000
0010
0100
0000
0001
1000
0100
0010
0001
1000
0001
,
0100
0010
1000
0001
0010
0100
1000
0000
0001
0100
0000
0010
,
1000
0000
0001
0010
0100
1000
0010
0100
0001
1000
0010
1000
,
0001
0010
0100
1000
0000
0000
1001
0000
0000
1001
0000
0000
,
1001
0000
0000
2002
0000
0000
3003
0000
0000
1000
0000
0001
,
0100
0000
0100
0010
1000
0001
0010
0100
0010
0100
0000
1000
,
0010
0100
0001
2000
0000
0000
3200
0000
0000
0302
0000
0000
,
0023
2030
0002
0000
,
0000
3003
0000
0000
,
0000
0000
0000
0000
0000
0000
0000
0000
0000
0001
0100
0010
,
1000
0000
0001
0010
0000
0010
0100
1000
0010
0100
0001
1000
,
0001
0000
1000
0100
0010
0000
0001
1000
0001
0100
0010
1000
0001
0010
0100
1000
,
0001
0000
0000
0000
0100
0000
0000
0000
0001
0000
0000
0000
0000
0000
0000
0000
0000
0000
0000
0000
0000
0000
0000
0000
1000
0000
0000
0010
0000
0000
1000
0000
0000
0001
0000
0000
0010
0000
0000
0100
0000
0000
1000
0000
0000
0001
0000
0000
,
0100
0000
0000
0000
0010
0000
0000
0000
0100
0000
0000
0000
0000
0000
0000
0000
0000
0000
0000
0000
0000
0000
0000
0000
0001
0000
0000
0100
0000
0000
0010
0000
0000
1000
0000
0000
0001
0000
0000
0000
0010
0000
0000
0000
0001
0000
0000
0000
,
0000
0000
0000
0000
1000
0010
1000
0010
0000
0000
0000
0000
0100
0001
0100
0001
,
0000
0000
0000
0000
,
0000
0000
0000
0000
,
0000
0000
2000
0002
0000
0000
0000
0000
,
0000
3003
0000
0000
;

//---------------dance-single - ----------------
#NOTES:
     dance-single:
     :
     Medium:
     9:
     0.471668,0.521932,0.291815,0.566955,0.333503,396.000000,361.000000,35.000000,68.000000,0.000000,0.000000,0.471668,0.521932,0.291815,0.566955,0.333503,396.000000,361.000000,35.000000,68.000000,0.000000,0.000000:
0000
0000
0000
0000
,
0000
0000
0000
0000
,
0001
1000
0000
0010
,
1000
0000
1000
0001
0000
0001
0100
0000
0100
0010
0000
0000
,
1000
0000
1000
0100
0000
0000
0010
0000
0010
0001
0000
0000
,
2000
3020
0230
0302
,
1003
0000
0100
1000
0000
0000
0001
0000
0100
0001
0000
0000
,
1010
0110
2002
3003
,
0001
0000
0001
0010
0000
0000
0100
0000
0000
1000
0000
1000
,
0010
0000
0010
0100
0000
0000
0001
0000
0010
0100
0000
1000
,
0001
2002
3003
1000
,
0001
0000
0001
0100
0000
0100
0010
0000
0010
1000
0000
0000
,
0002
0013
0200
1300
,
0001
0000
0001
1000
0000
0000
0001
0100
0001
0100
0000
0000
,
0001
0110
1000
0110
,
0001
1001
1001
0000
,
1000
0000
1000
0100
0000
0100
0010
0000
0000
0001
0000
0001
,
1000
0002
0203
0320
,
2030
0000
0000
3001
0000
0100
0001
0000
0000
1000
0000
0100
,
1000
0011
0110
2002
,
3003
0000
0000
1000
0000
1000
0100
0000
0100
0020
0000
0000
,
0031
0000
0000
1000
0000
1000
0010
0000
0010
0200
0000
0000
,
0301
0000
0000
1000
0000
1000
0001
0000
0001
0100
0000
0100
,
0010
0000
0000
1000
0000
1000
0001
0000
0001
0010
0000
0010
,
0100
1000
1001
2002
,
3003
0000
0000
1000
0000
0100
1000
0000
0000
0001
0000
0100
,
0001
0000
0000
1000
0000
0010
1000
0000
1000
0001
0000
0100
,
0001
0000
0000
2000
0000
0000
3200
0000
0000
0310
0000
0001
,
1000
0000
0000
0001
0000
0100
0001
0000
0000
1000
0000
0100
,
1000
0000
0000
0001
0000
0010
0001
0000
0000
1000
0000
0010
,
1000
0000
0000
0001
0000
0001
0100
0000
0100
0010
0000
0010
,
1000
0000
1000
0100
0000
0000
1100
0000
0000
0110
0000
0000
,
1001
0000
0000
1000
0000
1000
0100
0000
0100
0010
0000
0000
,
0001
0000
0001
0100
0000
0100
0010
0000
0000
2000
0000
0000
,
3002
0000
0000
0203
0000
0000
0320
0000
0000
1030
0000
0100
,
1000
0000
0000
0001
0000
0100
0001
0000
0000
1010
0000
0000
,
0110
0000
0000
2002
0000
0000
3003
0000
0000
0001
0000
0010
,
0001
0000
0000
1000
0000
0100
1000
0000
0000
0002
0000
0000
,
0203
0000
0000
0320
0000
0000
2030
0000
0000
3001
0000
0100
,
0001
0000
0000
1000
0000
0100
1000
0000
0000
0002
0000
0000
,
0023
0230
2300
3010
,
1001
1001
1001
0000
,
0000
0000
0000
0000
,
0000
0000
1000
0001
,
0010
0000
0100
1000
0000
0000
0001
0000
0000
1000
0000
0010
,
0100
0000
0102
0000
1003
0000
0001
0010
,
0100
0000
2100
0000
3001
0000
1000
0010
,
0100
0000
0000
0001
0000
0100
0001
0000
0000
0101
0000
0000
,
1000
0000
1000
0100
0000
0100
0010
0000
0010
0001
0000
0000
,
2000
3002
0203
0320
,
1030
0000
0010
1000
0000
0000
0001
0000
0100
0001
0000
0000
,
1000
0110
1001
0000
,
0002
0000
0103
0000
0010
0010
0010
0000
,
2000
0000
3100
0000
0010
0010
0010
0000
,
0002
2003
3020
0230
,
0302
0000
0023
0000
0130
1000
0001
0000
,
2000
0000
3100
0000
1000
0001
1000
1000
,
0002
0000
0103
0000
0001
1000
0001
0001
,
2000
3002
0203
0310
,
2002
0000
0000
3003
,
1000
0000
1000
0010
0000
0000
0110
0000
0000
0002
0000
0000
,
0013
0000
0000
0100
0000
1000
0001
0000
0001
0200
0000
0000
,
0310
0000
0000
2000
0000
0000
3100
0000
0000
0010
0000
0001
,
1000
0000
1000
0001
0000
0000
1001
0000
0000
1001
0000
0000
,
1001
0000
0000
1001
0000
0000
0000
0000
0000
1000
0000
1000
,
0010
0000
0000
0100
0000
0100
0001
0000
0001
1000
0000
1000
,
0100
2000
3002
0203
,
0320
2030
0002
0000
,
0000
3003
1000
0001
,
0100
0000
0000
0010
0000
0000
1000
0000
0000
0001
0010
0001
,
0010
0000
0000
1001
0000
0000
1000
0000
1000
0001
0000
0000
,
0100
0000
0000
0001
0000
0000
0010
0000
0010
0001
0000
0000
,
1000
0000
0000
0001
0000
0000
0100
0000
0100
0010
0000
0000
,
1000
0000
0000
0001
0000
0000
0010
0000
0010
0130
0000
0000
,
1000
0000
0001
1000
0000
0000
0001
1000
,
0000
0000
0000
0000
,
0000
0000
0000
0000
,
0000
0000
0000
2002
0000
0000
0000
0000
,
0000
3003
0000
0000
;

//---------------dance-single - ----------------
#NOTES:
     dance-single:
     :
     Easy:
     6:
     0.316828,0.397702,0.183427,0.300153,0.000000,266.000000,244.000000,22.000000,36.000000,0.000000,0.000000,0.316828,0.397702,0.183427,0.300153,0.000000,266.000000,244.000000,22.000000,36.000000,0.000000,0.000000:
0000
0000
0000
0000
,
0000
0000
0000
0000
,
1000
0010
0000
0010
,
1000
0100
0010
0001
,
1000
1001
0001
1001
,
2000
3020
0230
0302
,
1003
1000
0001
0001
,
0010
0100
1001
0000
,
1000
0100
1000
1000
,
0001
0100
0010
1000
,
0000
2002
3003
0000
,
0001
0010
0100
0000
,
0010
0010
0001
0001
,
0100
0100
0010
0000
,
1000
1000
0001
0001
,
0100
0010
1000
0000
,
0001
0010
0110
1000
,
1001
0002
0203
0320
,
2030
3001
0001
1000
,
1000
0001
0010
1001
,
0000
1000
0100
0010
,
0001
1000
0010
0100
,
0000
0001
0100
0010
,
1000
0001
0010
0100
,
0100
0000
1001
2002
,
3003
1000
0001
0100
,
0000
0001
0001
0100
,
0100
0010
1000
0001
,
0000
1000
1000
0100
,
0100
0010
0010
0001
,
0001
1000
0010
0100
,
0001
1000
0001
0100
,
0000
0001
0100
0110
,
1000
0001
1001
2000
,
3200
0320
0032
0103
,
0100
0010
0010
1000
,
0001
1001
0000
1000
,
0010
0100
0001
1000
,
0100
1000
0000
0001
,
0010
0100
1000
0001
,
0100
0001
1000
0000
,
1001
1001
1001
0000
,
0000
0000
0000
0000
,
0000
0000
1000
0010
,
0100
0001
0010
0010
,
0100
2002
3003
0001
,
1000
0020
0030
0200
,
0300
0001
0100
0010
,
0010
1000
0100
0010
,
0002
2003
3020
0230
,
0310
0010
1000
1000
,
0001
0010
0100
0000
,
2000
3000
1000
0100
,
0020
0030
0010
0001
,
0100
0100
0010
0010
,
1000
0001
1000
0000
,
0002
0003
0001
0010
,
0200
0300
0100
1000
,
0010
0010
0100
0100
,
2002
0000
0000
3003
,
1000
0001
0100
0001
,
1000
0100
1000
0001
,
0010
0001
1000
0010
,
0100
0000
1001
1001
,
1001
2002
3003
0001
,
0010
0100
0000
1000
,
0010
0100
0100
0010
,
0010
2000
0002
0000
,
0000
0000
3003
0000
,
0000
0000
0000
0001
,
0010
0100
1000
0010
,
0100
0100
0010
0010
,
1000
0001
1000
0100
,
0010
0010
0001
1000
,
0010
0100
0000
0100
,
0000
0000
0000
0000
,
0000
0000
0000
0000
,
0000
0000
0000
2002
0000
0000
0000
0000
,
0000
3003
0000
0000
,
0000
0000
3003
0000
;

//---------------dance-single - ----------------
#NOTES:
     dance-single:
     :
     Beginner:
     3:
     0.139357,0.311617,0.100051,0.000000,0.000000,117.000000,105.000000,12.000000,0.000000,0.000000,0.000000,0.139357,0.311617,0.100051,0.000000,0.000000,117.000000,105.000000,12.000000,0.000000,0.000000,0.000000:
0000
0000
0000
0000
,
0000
0000
0000
0000
,
0001
0000
0000
0000
,
1000
0000
0000
0000
,
0010
0000
0010
0000
,
0010
0000
0000
0000
,
0100
0000
0100
0000
,
0100
0000
0000
0000
,
0001
0000
0000
0000
,
1000
0000
0000
0000
,
0000
1001
0000
0000
,
1000
0000
1000
0000
,
1000
0000
0000
0000
,
0010
0000
0000
0000
,
0100
0000
0100
0000
,
0100
0000
0000
0000
,
0001
0000
0001
0000
,
0000
1000
0000
1000
,
0000
1000
0000
0000
,
0000
0010
0000
0000
,
0000
0100
0000
0100
,
0000
0100
0000
0000
,
0000
0001
0000
0001
,
0000
0001
0000
0001
,
0000
0000
1001
1001
,
0000
1000
0000
1000
,
0000
1000
0000
0000
,
0000
0010
0000
0000
,
0000
0100
0000
0100
,
0000
0100
0000
0100
,
0000
0100
0000
0000
,
0000
0001
0000
0000
,
0000
1000
0000
1000
,
0000
0000
0000
1000
,
0000
1000
0000
1000
,
0000
0000
0000
0010
,
0000
0000
0000
0100
,
0000
0100
0000
0100
,
0000
0000
0000
0001
,
0000
0001
0000
0001
,
0000
0001
0000
0000
,
1001
1001
1001
0000
,
0000
0000
0000
0000
,
0000
0000
0000
1000
,
1000
0000
0001
0001
,
0000
0100
0000
0000
,
0000
0010
0000
0000
,
0000
1000
0000
0000
,
1000
0000
0000
0000
,
0001
0000
0001
0000
,
0001
0000
0000
0000
,
0010
0000
0000
0000
,
0001
0000
0000
0000
,
1000
0000
0000
0000
,
0010
0000
0010
0000
,
0010
0000
0010
0000
,
0010
0000
0000
0000
,
0100
0000
0000
0000
,
0001
0000
0001
0000
,
0001
0000
0000
0000
,
1000
0000
0000
0100
,
0000
0000
0010
0000
,
0000
0001
0000
0000
,
0000
0000
1001
1001
,
1001
1001
0000
1000
,
0000
0000
0010
0000
,
0000
0100
0000
0100
,
0000
0100
0100
0000
,
0000
0000
0000
0000
,
0000
0000
0000
0001
,
0000
1000
0000
0000
,
0010
0000
0010
0000
,
0000
0100
0000
0100
,
0000
0000
0001
0000
,
0000
1001
0000
1001
;

//---------------dance-double - ----------------
#NOTES:
     dance-double:
     :
     Challenge:
     16:
     0.672961,0.815519,0.200102,0.408541,0.975496,565.000000,541.000000,24.000000,49.000000,0.000000,0.000000,0.672961,0.815519,0.200102,0.408541,0.975496,565.000000,541.000000,24.000000,49.000000,0.000000,0.000000:
00000000
00000000
00000000
00000000
,
00000000
00000000
00000000
00000000
,
00001000
00000000
00001000
00100000
00000000
00001000
00000000
00000000
00010000
00001000
00000000
00000000
,
00010000
00000010
00010000
00001000
00100000
00001000
00010000
00000100
00010000
00001000
00000000
00000000
,
00010000
00001000
00000100
00000010
00000000
00000010
00001000
00000100
00000010
00000001
00000000
00000001
,
00002000
00003002
00000203
00002300
,
00013000
00000000
00001000
00100000
00000000
00100000
00010000
00000000
10000000
00100000
00000000
00100000
,
01000000
01100000
20010000
31000000
,
10000000
00000000
10000000
00010000
00000000
00010000
01000000
00100000
01000000
00010000
10000000
01000000
,
00100000
00000000
00100000
00001000
00000000
00001000
00010000
00000000
00000010
00000100
00000000
00001000
,
00010000
00022000
00033000
00001000
,
00010000
00001000
00000010
00001000
00000010
00000001
00000010
00000001
00000100
00000001
00000100
00001000
,
00000100
00000000
00000100
00000010
00000000
00001000
00000100
00000000
00000100
00010000
00000000
00001000
,
00100000
00000000
00100000
00010000
00000000
10000000
00100000
10000000
00010000
10000000
01000000
00100000
,
00010000
00102000
00013000
00010020
,
00001030
00000000
00000001
00000100
00000001
00001000
00000100
00000000
00000000
00000000
00000000
00000000
,
00010000
00000100
00010000
00001000
00100000
00001000
00010000
00000000
00010000
00100000
01000000
00010000
,
10000000
00000000
10000000
00020000
00000000
00000000
02030000
00000000
00000000
33200000
03000000
00000000
,
00320000
00000000
00000000
00031000
00000000
00010000
00000100
00000000
00000100
00001000
00000000
00000001
,
00000100
00000000
00000100
00000010
00000000
00000000
00000110
00000000
00000000
00001002
00000000
00000000
,
00000013
00000000
00000000
00000001
00000000
00000001
00000100
00000000
00000100
00000010
00001000
00000010
,
00001000
00000100
00010000
00002000
00000000
00000000
00100000
00000000
00000000
00023000
00000000
00000000
,
00000100
00000000
00000000
00031000
00000000
00100000
00010000
10000000
00100000
10000000
00010000
01000000
,
00100000
10000000
00010000
00100000
00000000
00100000
01000000
00000000
01000000
10000000
00000000
00010000
,
00100000
00000000
00001000
00010000
00000000
00000000
00011000
00000000
00000000
00022000
00000000
00000000
,
00033000
00000000
00000000
00001000
00010000
01000000
00010000
01000000
10000000
01000000
10000000
00100000
,
10000000
00100000
00010000
00100000
00000000
00100000
01000000
00000000
00010000
00100000
00000000
00100000
,
00001000
00000000
00010000
00000100
00000000
00000100
00001000
00000000
00000001
00000100
00000010
00001000
,
00000001
00000000
00000000
00001000
00000010
00001000
00000010
00000000
00000000
00010000
00001000
00010000
,
00001000
00000000
00000000
00100000
00010000
00100000
00010000
00000000
00000000
10000000
00000000
00100000
,
01000000
00000000
00000000
00010000
00000000
00010000
10000000
00000000
10000000
01000000
00000000
01000000
,
00100000
00000000
00100000
00001000
00000000
00100000
00010000
00100000
00001000
00010000
00000000
00000000
,
00011000
00000000
00000000
00001000
01000000
00001000
00010000
00000100
00010000
00001000
00000000
00010000
,
00000010
00000100
00000010
00001000
00000001
00001000
00000010
00000000
00001000
00000002
00000000
00000000
,
00000023
00000000
00000000
00002030
00000000
00000000
00023000
00000000
00000000
00031000
00000000
01000000
,
00100000
00000000
00100000
10000000
00000000
01000000
00100000
00000000
00100000
00010000
00000000
00000000
,
00110000
00000000
00000000
00102000
00000000
00000000
00013000
00000000
00000000
00001000
00000000
00010000
,
00000100
00000000
00000100
00001000
00000000
00000001
00000100
00000000
00000100
00000010
00000000
00001000
,
00000001
00000100
00000001
00001000
00000100
00001000
00000001
00000010
00000100
00001000
00000000
00001000
,
00000100
00000000
00010000
00001000
00010000
00001000
00100000
00010000
00100000
00010000
00000000
01000000
,
00100000
00000000
10000000
01000000
00000000
00100000
00010000
00000000
00100000
00001000
00000000
00000000
,
00011000
00011000
00011000
00000000
,
00000000
00000000
00000000
00000000
,
00000000
00000000
00000000
00000000
00000000
00000000
00010000
00001000
00000100
00001000
00000100
00000010
,
00001000
00000100
00000010
00000001
00000000
00000000
00001000
00000000
00000001
00000100
00001000
00010000
,
00001000
00000000
00000000
00000000
00101000
00000000
00000000
00100000
00010000
00000000
01000000
00000000
00100000
00000000
00010000
00000000
,
00001000
00000000
00000000
00000000
00010100
00000000
00000000
00000100
00001000
00000000
00000010
00000000
00000100
00000000
00000001
00000000
,
00001000
00000000
00000000
00000001
00000100
00000001
00001000
00000100
00001000
00000010
00000000
00000010
,
00010000
00000100
00010000
00001000
00130000
00001000
00010000
00000010
00010000
00001000
00000000
00100000
,
00020000
02030000
03200000
20300000
,
30010000
00000000
10000000
01000000
00000000
01000000
00100000
00000000
00001000
00010000
00000000
00010000
,
00000010
00000110
00002002
00003003
,
00000001
00000000
00000100
00000000
00000010
00000000
00001000
00000100
00001000
00000000
00000001
00000000
00001000
00000000
00000000
00000000
,
00000100
00000000
00010000
00000000
00001000
00000000
00100000
00010000
00100000
00000000
00001000
00000000
00010000
00000000
00000000
00000000
,
00002000
00010000
02003000
00010000
03002000
00010000
00203000
00010000
,
00302000
00000000
00010000
00000000
00023000
00000000
00100000
00000000
00130000
00000000
10000000
00010000
10000000
00000000
00000000
00000000
,
10000000
00000000
00100000
00000000
01000000
00000000
00010000
00100000
00010000
00000000
10000000
00000000
00010000
00000000
00000000
00000000
,
00100000
00000000
00001000
00000000
00010000
00000000
00000100
00001000
00000100
00000000
00010000
00000000
00001000
00000000
00000000
00000000
,
00020000
00001000
00030020
00001000
00020030
00001000
00030200
00000010
,
00000020
00000000
00003000
00030330
,
00001001
00000000
00000001
00000100
00000000
00000100
00000010
00001000
00000010
00001000
00000100
00010000
,
00000100
00000000
00010000
00001000
00010000
00001000
00100000
00000000
00100000
00010000
00000000
10000000
,
00100000
00000000
01000000
00010000
10000000
01000000
00100000
00010000
01000000
00100000
10000000
00010000
,
00100000
00001000
00010000
00001000
00000000
00000000
00011000
00000000
00000000
00011000
00000000
00000000
,
00011000
00000000
00000000
00022000
00000000
00000000
00033000
00000000
00000000
00000100
00000000
00000100
,
00001000
00000000
00000001
00000100
00000001
00001000
00000010
00000000
00000100
00000001
00001000
00000001
,
00000010
00000100
00001000
00000002
00000000
00000000
00002003
00000000
00000000
00010000
00000000
00000000
,
00023000
20030000
00020000
00000000
,
00000000
30030000
10000000
01000000
,
00010000
00000000
00000000
00001000
00000000
00000000
00000010
00000000
00000000
00000010
00000001
00001000
,
00000001
00000000
00001000
00000100
00000000
00010000
00001000
00100000
00010000
10000000
00100000
01000000
,
00010000
00000000
10000000
00100000
10000000
00000000
00010000
01000000
00010000
10000000
01000000
00100000
00010000
00000000
00100000
00000000
,
00001000
00000000
00000000
00000000
00010000
00000000
00000000
00000000
00000100
00000000
00000000
00000000
00001000
00000000
00000000
00000000
00000000
00000000
00000000
00000000
00000000
00000000
00000000
00000000
00000001
00000000
00000000
00000100
00000000
00000000
00000001
00000000
00000000
00001000
00000000
00000000
00000100
00000000
00000000
00000010
00000000
00000000
00000001
00000000
00000000
00001000
00000000
00000000
,
00000100
00000000
00000000
00000000
00010000
00000000
00000000
00000000
00001000
00000000
00000000
00000000
00000000
00000000
00000000
00000000
00000000
00000000
00000000
00000000
00000000
00000000
00000000
00000000
00010000
00000000
00000000
00001000
00000000
00000000
00010000
00000000
00000000
00001000
00000000
00000000
00100000
00000000
00000000
00000000
00010000
00000000
00000000
00000000
01000000
00000000
00000000
00000000
,
00000000
00000000
00000000
00000000
00010000
01000000
00010000
01000000
00000000
00000000
00000000
00000000
00000100
00010000
00300100
00010000
,
00000000
00000000
00000000
00000000
,
00000000
00000000
00000000
00000000
,
00000000
00002000
00020300
00000000
00000000
00000000
00000000
00000000
,
00000000
00033000
00000000
00000000
;

//---------------dance-double - ----------------
#NOTES:
     dance-double:
     :
     Hard:
     13:
     0.577675,0.685036,0.333503,0.558617,0.712862,485.000000,445.000000,40.000000,67.000000,0.000000,0.000000,0.577675,0.685036,0.333503,0.558617,0.712862,485.000000,445.000000,40.000000,67.000000,0.000000,0.000000:
00000000
00000000
00000000
00000000
,
00000000
00000000
00000000
00000000
,
00010000
00000000
00010000
00000010
00000000
00010000
00000000
00000000
00001000
00100000
00000000
00000000
,
00001000
00010000
00001000
00010000
00001000
00010000
00001000
00010000
00001000
00010000
00000000
00000000
,
00001000
00100000
00001000
00100000
00000000
00000000
00001000
00010000
00001000
00010000
00000000
00000000
,
00020100
00032000
02003000
03200000
,
10300000
00000000
10000000
01000000
00000000
01000000
00100000
00000000
00100000
00010000
00000000
00010000
,
02000000
03002000
00023000
00030000
,
00010100
00000000
00000100
00000010
00000000
00000010
00000001
00000000
00000001
00001000
00000000
00001000
,
00000010
00000000
00000100
00000001
00000000
00000100
00000010
00000000
00001000
00000200
00000000
00000000
,
00010300
00022000
00033000
00001000
,
00100000
00010000
00100000
00010000
00000000
00000000
10000000
00100000
10000000
00100000
00000000
00000000
,
10000000
00000000
10000000
01000000
00000000
10000000
00010000
00000000
00010000
01000000
00000000
00010000
,
00200000
00000000
00000000
00302000
00000000
00000000
00013000
00000100
00010000
00000100
00000000
00000000
,
00001000
00000012
00000103
00002010
,
00003001
00000000
00001000
00000100
00001000
00000100
00010000
00000000
00000000
00000000
00000000
00000000
,
00010000
00001000
00010000
00001000
00010000
00001000
00100000
00000000
00000000
00001000
00010000
00001000
,
01000000
00012000
00203000
02300000
,
23000000
00000000
00000000
30010000
00000000
01000000
00100000
00000000
00100000
10000000
00000000
01000000
,
00100000
00000000
00100000
00002000
00000000
00000000
00023000
00000000
00000000
00030200
00000000
00000000
,
00000300
00000000
00000000
00001100
00000000
00001000
00000001
00000000
00000001
00000100
00000000
00000100
,
00000010
00000000
00000010
00020000
00000000
00000000
00001000
00000000
00000000
00031000
00000000
00100000
,
00010000
00000000
10000000
00100000
00000000
00100000
01000000
00000000
00010000
00100000
00000000
00100000
,
01000000
00000000
10000000
00010000
00000000
00010000
00100000
00000000
00100000
00001000
00000000
00001000
,
00010000
00000000
00010000
00001000
00000000
00000000
00011000
00000000
00000000
00022000
00000000
00000000
,
00033000
00000000
00000000
00000100
00001000
00000100
00001000
00000000
00000000
00000001
00000100
00000001
,
00000100
00000000
00000000
00000001
00000000
00000001
00000010
00000000
00000001
00001000
00000000
00001000
,
00000010
00000000
00001000
00000200
00000000
00000000
00020300
00000000
00000000
00031000
00100000
00001000
,
00100000
00000000
00000000
00010000
01000000
00010000
10000000
00000000
00000000
10000000
01000000
10000000
,
00010000
00000000
00000000
00010000
00100000
00010000
10000000
00000000
00000000
10000000
00100000
10000000
,
00010000
00000000
00000000
10000000
00000000
10000000
01000000
00000000
01000000
00100000
00000000
00100000
,
00010000
00000000
00010000
01000000
00000000
00001000
00010000
00001000
00010000
00001000
00000000
00000000
,
00011000
00000000
00000000
00010000
00000010
00001000
00000010
00010000
00000010
00010000
00000000
00000000
,
00001000
00100000
00001000
00010000
00001000
00010000
00001000
00000000
00000000
00012000
00000000
00000000
,
00003200
00000000
00000000
00000320
00000000
00000000
00002030
00000000
00000000
00003001
00000000
00000010
,
00000100
00000000
00000100
00001000
00000000
00000001
00000100
00000000
00000100
00000020
00000000
00000000
,
00000130
00000000
00000000
00002002
00000000
00000000
00003003
00000000
00000000
00000001
00000000
00000001
,
00000100
00000000
00000100
00000010
00000000
00000010
00001000
00000000
00001000
00000100
00000000
00000100
,
00010000
00000000
00010000
00001000
00000000
00001000
00100000
00000000
00100000
00010000
00000000
00010000
,
01000000
00000000
01000000
00100000
00000000
00100000
10000000
00000000
10000000
00010000
00000000
00100000
,
00010000
00000000
00100000
00001000
00000000
00010000
00001000
00000000
00010000
00000100
00000000
00000000
,
00011000
00011000
00022000
00033000
,
00000000
00000000
00000000
00000000
,
00000000
00000000
00000000
00000000
00000000
00000000
00020000
00000000
00000000
00030100
00001000
00000100
,
00010000
00000100
00001000
00000100
00000000
00000000
00010000
00000000
00001000
01000000
00001000
00010000
,
00001000
00000000
00012000
00000000
00003100
00000000
00000010
00001000
,
00000100
00000000
00010000
00030000
00021000
00000000
00000000
00000000
00130000
00000000
00000000
00000000
01000000
00000000
00010000
00000000
,
00100000
00000000
00000000
00010000
10000000
00010000
10000000
00010000
10000000
00010000
00000000
00000000
,
00100000
00001000
00100000
00001000
00100000
00001000
00100000
00001000
00100000
00001000
00000000
00000000
,
00101000
00011000
00010100
00001100
,
00001000
00000000
00001000
00000001
00000000
00000001
00000100
00000000
00000100
00000010
00000000
00000010
,
00002000
00003200
00020300
00031000
,
00102000
00000000
00013000
00000000
00010000
00001000
00010000
00000000
,
00020010
00000000
00031000
00000000
00001000
00010000
00001000
00000000
,
00021000
00230000
20300000
32000000
,
03020000
00000000
00032000
00000000
00003010
00000001
00001030
00000000
,
00001002
00000000
00000203
00000000
00001300
00010000
00001000
00000000
,
00021000
00000000
02030000
00000000
13000000
00010000
10000000
00000000
,
10200000
00310000
00012000
00003010
,
00002002
00000300
00000000
00000000
00000000
00000000
00003003
00000000
,
00000001
00000000
00000001
00000100
00000000
00000100
00000010
00000000
00000010
00001000
00000000
00001000
,
00000100
00000000
00000100
00010000
00000000
00010000
00001000
00000000
00001000
00100000
00000000
00100000
,
00010000
00000000
00010000
01000000
00000000
01000000
00100000
00000000
00100000
10000000
00000000
10000000
,
00010000
00000000
00010000
00100000
00000000
00000000
00011000
00000000
00000000
00011000
00000000
00000000
,
00011000
00000000
00000000
00022000
00000000
00000000
00033000
00000000
00000000
00010000
00000000
00010000
,
00000010
00000000
00001000
00000010
00000000
00000010
00000100
00000000
00000001
00001000
00000000
00001000
,
00000100
00000000
00000010
00000002
00000000
00000000
00000203
00000000
00000000
00002300
00000000
00000000
,
00023000
00230000
20000000
00000000
,
00000000
00000000
30300000
00000000
,
00000000
00000000
00000000
00000000
00000000
00000000
00000000
00000000
00000000
00010000
01000000
00010000
,
01000000
00011000
00010000
00010100
,
00000100
00000010
00000130
00000010
00000000
00000000
00000011
00000000
00001001
00000000
00000000
00000000
,
00000001
00000100
00000001
00001000
00000000
00000000
00001100
00000000
00001100
00000000
00000000
00000000
,
00000100
00010000
00001000
00010000
00000000
00000000
00101000
00000000
00000000
00100000
00010000
10000000
,
00010000
00000000
00000000
00000000
10000000
00100000
10000000
00100000
00000000
00000000
00000000
00000000
01000000
00010000
01000000
00010000
,
00000000
00000000
00000000
00000000
,
00000000
00000000
00000000
00000000
,
00000000
00200000
00002000
00000000
00000000
00000000
00000000
00000000
,
00000000
00333000
00000000
00000000
;

//---------------dance-double - ----------------
#NOTES:
     dance-double:
     :
     Medium:
     9:
     0.407350,0.489311,0.308490,0.600305,0.204270,342.000000,305.000000,37.000000,72.000000,0.000000,0.000000,0.407350,0.489311,0.308490,0.600305,0.204270,342.000000,305.000000,37.000000,72.000000,0.000000,0.000000:
00000000
00000000
00000000
00000000
,
00000000
00000000
00000000
00000000
,
00020000
00000000
00000000
00000000
00000000
00002000
00000000
00000000
00000000
00033000
00000000
00000000
,
00001000
00010000
00100000
10010000
,
10000000
01000000
10000000
01000000
00000000
00000000
00100000
00010000
00100000
00010000
00000000
00000000
,
02000000
00000000
00000000
03002000
03000000
00000000
00023000
00000000
00000000
00030200
00000000
00000000
,
00001300
00001100
00000001
00000101
,
00002000
00003002
00000203
00000300
,
00000001
00000000
00000000
00000100
00000000
00000000
00000010
00000000
00000010
00001000
00000000
00000000
,
00000200
00000000
00000000
00010300
00000000
00000000
00001000
00000000
00001000
00100000
00000000
00001000
,
00010000
00022000
00033000
00001000
,
00010000
00100000
10000000
00010000
,
10000000
00000000
01000000
10000000
00000000
00000000
00010000
00000000
01000000
00010000
00000000
00000000
,
10000000
00000000
00100000
10000000
00000000
00000000
00010000
00000000
00100000
00010000
00000000
00000000
,
00100000
10020000
01030000
20010000
,
30010000
00000000
00100000
00001000
00000000
00000000
00011000
00000000
00000000
00000000
00000000
00000000
,
00010000
00000000
00001000
00010000
00000000
00000100
00010000
00000000
00000000
00001000
00000000
01000000
,
00001000
00020000
00030200
00000320
,
00000032
00000000
00000000
00001003
00000000
00000010
00001000
00000000
00000000
00000001
00000000
00000010
,
00000001
00000020
00000130
00002002
,
00003003
00000000
00000000
00000001
00000000
00000000
00001000
00000000
00000000
00000100
00000000
00000100
,
00010000
00002000
00000000
00103000
,
00010000
00000000
00000000
10000000
00000000
10000000
00100000
00000000
00000000
01000000
00000000
01000000
,
00010000
00200000
00302000
00023000
,
00030200
00000300
00011000
00022000
,
00033000
00010000
00001000
00000010
,
00000001
00000000
00000000
00001000
00000000
00000100
00001000
00000000
00000000
00000001
00000000
00000100
,
00000001
00000000
00000000
00001000
00000000
00000010
00001000
00000000
00000000
00000001
00000000
00000010
,
00000001
00000000
00000000
00001000
00000100
00001000
00000100
00000000
00000000
00000000
00000000
00000000
,
00001100
00000000
00000000
00010000
00001000
00010000
00001000
00000000
00000000
00000000
00000000
00000000
,
00011000
00100000
00100000
01000000
,
01000000
10000000
00010000
01000000
,
00000000
00000000
00000000
00010000
00000000
10000000
00010000
00000000
10000000
01000000
00000000
00000000
,
10000000
00000000
00010000
10000000
00000000
00010000
01000000
00000000
00000000
00020000
00000000
00000000
,
00230000
00302000
00023000
00030100
,
00001100
00000001
00000101
00002000
,
00003200
00020300
00030000
00001000
,
00001000
00000000
00000000
00100000
00000000
00000000
00100000
00000000
00000000
00010000
00000000
00100000
,
00010000
00000000
00000000
10000000
00000000
00100000
10000000
00000000
00000000
00010000
00000000
00000000
,
00010000
00000000
00000000
01000000
00000000
00000000
01000000
00000000
00000000
00001000
00000000
00010000
,
00001000
00000000
00010000
00001000
00000000
00010000
00001000
00000000
00000000
00000000
00000000
00000000
,
00011000
00011000
00011000
00000000
,
00000000
00000000
00000000
00000000
,
00000000
00000000
00000000
00000100
,
00000010
00000001
00000100
00000010
,
00001000
00000000
00002002
00000000
00003003
00000000
00001000
00000100
,
00001000
00000000
00020200
00000000
00030300
00000000
00010000
00001000
,
00010000
00001000
00001000
00110000
,
00110000
00010000
10000000
10100000
,
10200000
02300000
03020000
00230000
,
00301000
00000000
00010000
00001000
00000000
00000000
00010000
00000000
00001000
00010000
00000000
00000000
,
00000200
00000320
00000032
00000003
,
00002001
00000000
00003100
00000000
00000100
00000100
00000000
00000000
,
00020100
00000000
00031000
00000000
00001000
00001000
00000000
00000000
,
00020000
00032000
00203000
02300000
,
23000000
30200000
02300000
03100000
,
20010000
00000000
00100000
00000000
00100000
30100000
00000000
00000000
,
10020000
00000000
00100000
00000000
00100000
00130000
00000000
00000000
,
00020000
00230000
00302000
00013000
,
00022000
00000000
00000000
00033000
,
00001001
00000000
00000000
00000001
00000000
00000000
00000100
00000000
00000010
00000100
00000000
00000000
,
00000010
00000000
00000000
00001000
00000000
00000100
00001000
00000000
00000000
00000100
00000000
00000000
,
00010000
00000000
00001000
00010000
00000000
00000000
00001000
00000000
00000000
00100000
00000000
00010000
,
00100000
00000000
00001000
00010000
00000000
00000000
00011000
00000000
00000000
00011000
00000000
00000000
,
00011000
00022000
00033000
00001000
,
00100000
00000000
00000000
00010000
00000000
01000000
00010000
00000000
00000000
10000000
00000000
00000000
,
00100000
20000000
32000000
03020000
,
00032000
00003020
00000002
00000000
,
00000000
00000000
00000033
00000000
,
00000000
00000000
00000000
00000001
,
00000100
00000010
00000110
00001000
,
00000100
00010000
00010000
00001000
,
00011000
00100000
00100000
00010000
,
10010000
10000000
00100000
01000000
,
01100000
00000000
00000000
00000000
00010000
00000000
00000000
00010000
00000000
00000000
00000000
00000000
10000000
00000000
00000000
10000000
,
00000000
00000000
00000000
00000000
,
00000000
00000000
00000000
00000000
,
00000000
00200000
02000000
00000000
00000000
00000000
00000000
00000000
,
00000000
03300000
00000000
00000000
;

//---------------dance-double - ----------------
#NOTES:
     dance-double:
     :
     Easy:
     6:
     0.277522,0.391449,0.150076,0.141739,0.000000,233.000000,215.000000,18.000000,17.000000,0.000000,0.000000,0.277522,0.391449,0.150076,0.141739,0.000000,233.000000,215.000000,18.000000,17.000000,0.000000,0.000000:
00000000
00000000
00000000
00000000
,
00000000
00000000
00000000
00000000
,
00001000
00000000
00010000
00000000
,
00000100
00000100
00000010
00000000
,
00000001
00000100
00000001
00000100
,
00000010
00000010
00001000
00001000
,
00000100
00000000
00010000
00000000
,
00001000
00010000
00001000
00000000
,
00100000
00100000
00010000
00000000
,
01000000
01000000
00001000
00000000
,
00000000
00011000
00000000
00000000
,
00010000
00001000
00010000
00000000
,
00001000
00001000
00100000
00100000
,
00010000
00010000
10000000
00000000
,
00010000
00010000
01000000
01000000
,
00100000
10000000
00010000
00000000
,
10000000
01000000
00100000
00010000
,
10000000
00100000
00100000
01000000
,
01000000
00010000
00000000
00100000
,
00000000
00001000
00010000
00001000
,
00000000
00010000
00000100
00000010
,
00000000
00000010
00000001
00001000
,
00000000
00000001
00001000
00000010
,
00000000
00001000
00001000
00000100
,
00010000
00000000
00011000
00011000
,
00000000
00010000
00000000
00000100
,
00000000
00001000
00001000
00000100
,
00000000
00000010
00000010
00000001
,
00000000
00001000
00000010
00001000
,
00000000
00000001
00000100
00000001
,
00000000
00001000
00001000
00000100
,
00000100
00010000
00001000
00010000
,
00000000
00001000
00001000
00001000
,
00100000
00100000
00100000
00010000
,
10000000
00010000
10000000
00100000
,
00000000
01000000
00000000
00010000
,
00100000
00001000
00000000
00010000
,
00000000
00010000
00010000
00100000
,
00000000
00100000
00100000
10000000
,
00000000
10000000
10000000
01000000
,
00100000
00001000
00010000
00000000
,
00011000
00011000
00011000
00000000
,
00000000
00000000
00000000
00000000
,
00000000
00000000
00000000
00001000
,
00010000
00010000
00000100
00000010
,
00000001
00002000
00003000
00000001
,
00001000
00000020
00000030
00000200
,
00000300
00000001
00000100
00000001
,
00000100
00000010
00000100
00000010
,
00001000
00000000
00000100
00000000
,
00010000
00010000
00001000
00000000
,
00001000
00001000
00100000
00000000
,
00120000
00000000
10030000
00000000
,
20100000
00000000
30010000
00000000
,
10000000
01000000
00100000
00010000
,
00001000
00000100
00000010
00000000
,
00000012
00000000
00001003
00000000
,
00002010
00000000
00003001
00000000
,
00000001
00000100
00000010
00010000
,
00022000
00000000
00000000
00033000
,
00001000
00100000
00010000
10000000
,
00100000
01000000
00010000
10000000
,
01000000
00100000
00010000
01000000
,
00001000
00000000
00011000
00011000
,
00011000
00011000
00000000
00010000
,
00000100
00000010
00000001
00001000
,
00000010
00000100
00000100
00000010
,
00000010
00002000
00000002
00000000
,
00000000
00000000
00003003
00000000
,
00000000
00000000
00000000
00000001
,
00000010
00000100
00001000
00000000
,
00000100
00010000
00001000
01000000
,
00000000
00010000
01000000
00100000
,
00000000
10000000
01000000
00100000
,
00000000
00022000
00033000
00022000
,
00033000
00000000
00000000
00000000
,
00000000
00000000
00000000
00000000
,
00000000
00022000
00000000
00000000
,
00000000
00033000
00000000
00000000
;
