#TITLE:Here With Me;
#SUBTITLE:;
#ARTIST:Dido;
#TITLETRANSLIT:;
#SUBTITLETRANSLIT:;
#ARTISTTRANSLIT:;
#CREDIT:;
#BANNER:Here With Me-ban.png;
#BACKGROUND:Here With Me-bg.png;
#LYRICSPATH:;
#CDTITLE:;
#MUSIC:Here With Me.mp3;
#OFFSET:-0.980;
#SAMPLESTART:84.528;
#SAMPLELENGTH:16.160;
#SELECTABLE:YES;
#DISPLAYBPM:83.000;
#BPMS:0.000=83.320,115.500=80.100,116.000=83.320,147.500=85.140,148.000=83.320;
#STOPS:;
#BGCHANGES:-1.320=Here With Me.avi=1.000=1=0=0,
99999=-nosongbg-=1.000=0=0=0 // don't automatically add -songbackground-
;

//---------------dance-single - ----------------
#NOTES:
     dance-single:
     :
     Beginner:
     1:
     0.097,0.132,0.059,0.000,0.000:
0000
0000
0000
0000
,
0000
0000
0000
0000
,
0100
0000
0000
0000
,
0100
0000
0000
0000
,
0001
0000
0010
0000
,
0001
0000
1000
0000
,
0100
0000
0000
0000
,
1000
1000
1000
0000
,
1000
0000
0000
0000
,
0010
0000
0010
0000
,
0100
0000
0000
0000
,
0001
0001
0001
0000
,
0001
0000
0000
0000
,
1001
0000
0100
0000
,
1000
0000
0010
0000
,
1000
0000
0001
0000
,
0010
0000
0001
0000
,
0100
0000
0001
0000
,
1000
0000
0100
0000
,
0100
0000
1000
0000
,
0010
0000
0100
0000
,
0001
0000
0001
0000
,
1000
0000
0001
0000
,
1000
0000
0100
0000
,
1000
0000
0010
0000
,
0010
0010
0000
0000
,
1000
1000
0000
0000
,
0001
0001
0000
0000
,
0010
0010
0000
0000
,
1001
0000
0100
0000
,
0110
0000
0010
0000
,
1001
0000
0000
0000
,
0010
0010
0010
0000
,
0110
0000
0001
0000
,
1001
0000
1000
0000
,
0110
0000
0000
0000
,
1000
1000
1000
0000
,
0110
0000
0000
0001
,
0001
0000
0000
1000
,
1000
0000
0000
0100
,
0100
0000
0000
0010
,
0010
0000
0000
0001
,
0001
0000
0000
1000
,
1000
0000
0100
0000
,
0010
0000
0001
0001
,
0001
0000
0000
0000
;

//---------------dance-single - ----------------
#NOTES:
     dance-single:
     :
     Medium:
     5:
     0.227,0.232,0.125,0.147,0.000:
0000
0000
0000
0000
,
0000
0000
0000
0000
,
0200
0000
0000
0000
,
0302
0000
1000
1003
,
1100
0000
0100
1000
,
1010
0000
1000
0001
,
0101
0000
0000
0000
0010
0000
0100
0100
,
0001
0000
1000
1000
0100
0000
1000
0000
,
1010
0000
1000
0001
,
0110
0000
0100
0001
,
1100
0000
0000
0000
0010
0000
0001
0001
,
0100
0000
0010
0010
2000
0000
3002
0000
,
0203
0000
0000
0300
,
1001
1000
0010
0000
0000
0100
0001
0000
,
0010
0010
0100
0000
0000
0010
0001
0000
,
1000
1000
0100
0000
0000
0001
0100
0000
,
0001
0001
0010
0000
0000
0100
0010
0000
,
0200
0000
0000
0000
0310
0000
0001
0001
,
1000
0000
0100
0000
1000
1000
0010
0000
,
0200
0000
0310
1000
,
0001
0000
0000
0000
0010
0001
1000
0100
,
0200
0000
0310
1001
,
0010
0000
0100
0000
0001
0000
0100
0100
,
0020
0000
0000
0000
1030
0100
1000
0000
,
0100
0000
1000
0000
0010
0010
1000
0000
,
0100
0010
0100
0020
0000
0030
0000
0000
,
0001
1000
0001
2000
0000
3000
0000
0000
,
0001
0100
0001
0200
0000
0300
0000
0000
,
1000
0010
1000
0020
0000
0030
0000
0000
,
0101
0100
0010
0000
1000
0001
0100
0000
,
1100
0100
0010
0000
0001
1000
0001
0000
,
0220
0000
0330
0001
,
0100
1000
0010
0001
,
1001
1000
0100
0000
0010
0001
0100
0000
,
0110
0010
0100
0000
0001
1000
0100
0000
,
0022
0000
0033
0001
,
0010
1000
0100
0001
,
0110
0110
0001
1000
,
0100
1000
0010
0000
1000
0100
0010
0000
,
0001
0001
0100
0000
0010
0000
0100
0000
,
0001
0100
1000
0100
0001
0000
0000
0000
,
0010
0010
0010
0000
0001
0000
1000
0000
,
0100
0100
0100
0000
2000
0000
3020
0000
,
0230
0000
0000
0000
0300
0000
0001
0001
,
0100
0010
1000
0100
,
1010
0000
0000
0000
;

//---------------dance-single - ----------------
#NOTES:
     dance-single:
     :
     Hard:
     8:
     0.338,0.281,0.074,0.272,0.063: // measure 1
0000
0000
0000
0000
,  // measure 2
0000
0000
0000
0000
,  // measure 3
0200
0001
0001
0301
,  // measure 4
0020
0000
0100
0000
0130
0000
0001
1000
,  // measure 5
2001
0000
3100
0000
1000
0010
0100
0000
,  // measure 6
0210
0000
0310
0000
0100
0001
0010
0000
,  // measure 7
0022
0000
0000
0000
0033
0100
0100
0001
,  // measure 8
0001
1000
0100
0010
0001
0000
0100
0010
,  // measure 9
2000
0100
3100
0000
1000
0010
0100
0000
,  // measure 10
0210
0000
0301
0000
0010
0001
1000
0000
,  // measure 11
2200
0000
0000
0000
3300
0010
0010
0001
,  // measure 12
0001
1000
0100
0020
0000
0032
0000
0103
,  // measure 13
0020
1000
0000
1000
0000
1000
0000
1030
,  // measure 14
1100
0000
1000
0000
0010
0000
0100
0000
0001
1000
0001
0000
0010
0000
0000
0000
,  // measure 15
0001
0000
0100
0000
0010
0000
1000
0000
0100
1000
0010
0000
0100
0000
0000
0000
,  // measure 16
0010
0000
0010
0000
0100
0000
0001
0000
1000
0100
0010
0000
0001
0000
0000
0000
,  // measure 17
1000
0000
1000
0000
0001
0000
1000
0000
0010
1000
0100
0000
0010
0000
0000
0000
,  // measure 18
0002
0100
0103
0010
0100
0000
0001
0000
,  // measure 19
0100
0000
0010
1000
0100
1000
0001
1000
,  // measure 20
0200
0000
0000
0000
0310
0000
0000
0000
0001
1000
0100
0000
1000
0000
0000
0000
,  // measure 21
0010
0000
0010
0000
1000
0000
0000
0000
0100
0001
0010
0000
0010
0000
0000
0000
,  // measure 22
0001
0100
0010
0100
0001
1000
0100
0000
,  // measure 23
0010
0001
0100
0001
1000
0001
0010
0001
,  // measure 24
0200
0000
0000
0000
0310
0000
0000
0000
0100
0001
1000
0000
0010
0000
0000
0000
,  // measure 25
1000
0000
1000
0000
0100
0000
0000
0000
1000
0010
0100
0000
1000
0000
0000
0000
,  // measure 26
0010
1000
0100
0020
0001
0001
0031
0000
,  // measure 27
0010
0001
0100
0010
2000
0100
3100
0000
,  // measure 28
2002
0000
0000
0000
3003
0000
0010
0100
,  // measure 29
0002
2000
0000
0000
3003
0100
1000
0010
,  // measure 30
0100
0001
1000
0000
0100
0000
1000
0000
0010
0000
0100
0000
0001
0000
0000
0000
,  // measure 31
0010
0001
1000
0000
0100
0000
1000
0000
0010
0000
0100
0000
0002
0000
0000
0000
,  // measure 32
2003
0000
0100
0000
3100
0010
0010
0001
,  // measure 33
0001
0100
0010
1000
0001
0000
0020
0000
,  // measure 34
0031
0100
0010
0000
2000
0000
0000
0000
3100
0000
2000
0000
0000
0000
3002
0000
,  // measure 35
0000
0000
0203
0000
0000
0000
0310
0000
0100
0001
1000
0000
0100
0000
1000
0000
,  // measure 36
0002
1000
1003
0000
0100
1000
1000
0010
,  // measure 37
0010
0200
0000
0001
0000
0310
0100
0001
,  // measure 38
1000
0100
0010
0000
0001
0000
1000
0000
0001
0000
0001
0000
0100
0000
0010
0000
,  // measure 39
0100
0001
1000
0000
0010
0000
0010
0000
1000
0000
1100
0000
0000
0000
1001
0000
,  // measure 40
0000
0102
0000
0000
0003
0100
0100
0001
,  // measure 41
1000
0000
1000
0000
0100
0000
0010
0000
0001
0000
0000
0000
0200
0000
0000
0300
,  // measure 42
0010
1000
0001
0000
1000
0000
0000
0000
0100
0000
1000
0000
0010
0100
0010
0000
,  // measure 43
1000
0000
0100
0000
0010
0000
0000
0000
0001
0000
1000
0000
0001
0100
0010
0000
,  // measure 44
2000
0000
3010
0000
1000
0100
0010
0001
,  // measure 45
0100
0200
0000
0302
0000
2003
0000
3010
,  // measure 46
0100
0000
0000
0000
;

//---------------dance-single - ----------------
#NOTES:
     dance-single:
     :
     Easy:
     3:
     0.163,0.182,0.088,0.243,0.000:
0000
0000
0000
0000
,
0000
0000
0000
0000
,
0200
0000
0000
0000
,
0020
0000
0330
0001
,
2000
3000
0000
0100
,
0020
0030
0000
0001
,
0200
0300
0000
0010
,
1000
0100
1000
0001
,
0200
0300
0000
0010
,
2000
3000
0000
0100
,
0020
0030
0000
0001
,
0010
0001
0100
0010
,
2000
0000
0000
3000
,
0110
0001
0100
0100
,
0010
1000
0200
0300
,
1010
1000
0001
0001
,
0100
0001
2000
3000
,
0200
0000
0310
0010
,
0001
0000
1000
0001
,
0100
0000
0001
1000
,
0100
0000
1000
1000
,
0020
0000
0130
0001
,
0100
0000
0001
1000
,
0100
0000
0010
0010
,
0100
0000
1000
0000
,
0001
0001
0000
0000
,
1000
1000
0000
0000
,
0220
0000
0000
0330
,
2002
0000
0000
3003
,
1100
0100
1000
1000
,
0010
1000
0001
0100
,
0002
0000
0003
1000
,
0100
0010
0001
0000
,
0200
0300
0010
0100
,
0002
0003
0010
0100
,
2000
3000
0000
1000
,
0100
0010
0001
0000
,
2002
3003
0000
0100
,
0202
0303
0000
0010
,
0220
0330
0000
0001
,
0010
0100
1000
0000
,
2200
3300
0000
0010
,
2020
3030
0000
0100
,
0220
0330
0000
0001
,
0010
0100
1000
0000
,
1001
0000
0000
0000
;
