#TITLE:Drive By;
#SUBTITLE:;
#ARTIST:Train;
#TITLETRANSLIT:;
#SUBTITLETRANSLIT:;
#ARTISTTRANSLIT:;
#CREDIT:;
#BANNER:Drive By-bn.png;
#BACKGROUND:Drive By-bg.png;
#LYRICSPATH:;
#CDTITLE:;
#MUSIC:Drive By.mp3;
#OFFSET:-0.200;
#SAMPLESTART:76.868;
#SAMPLELENGTH:16.160;
#SELECTABLE:YES;
#DISPLAYBPM:122.000;
#BPMS:0.000=122.020,139.000=124.740,141.000=122.020;
#STOPS:;
#BGCHANGES:-0.600=Drive By.avi=1.000=1=1=0,
99999=-nosongbg-=1.000=0=0=0 // don't automatically add -songbackground-
;

//---------------dance-single - ----------------
#NOTES:
     dance-single:
     :
     Beginner:
     1:
     0.102,0.118,0.017,0.000,0.000:
0000
0000
0000
0000
,
0000
0000
0000
0000
,
0100
0000
0000
0000
,
0010
0000
0000
0000
,
1000
0000
0000
0000
,
0001
0000
0010
0000
,
0001
0000
0000
0000
,
1000
0000
0000
0000
,
0100
0000
0000
0000
,
1000
0000
0010
0000
,
1000
0000
0000
0000
,
0100
0100
0000
0000
,
1000
0000
0000
0000
,
0001
0001
0000
0000
,
0010
0000
0000
0000
,
0001
0001
0000
0000
,
0100
0000
0100
0000
,
0100
0000
0000
0000
,
1001
0000
0000
0000
,
0100
0000
0000
0000
,
1000
0000
0100
0000
,
1000
0000
0010
0000
,
0100
0000
0000
0000
,
0001
0000
0000
0000
,
0010
0000
0001
0000
,
0100
0000
0010
0000
,
1000
0000
0000
0000
,
0100
0100
0000
0000
,
1000
1000
0000
0000
,
0001
0001
0000
0000
,
0100
0000
0000
0000
,
0001
0000
0000
0000
,
0010
0000
0001
0000
,
0100
0000
0010
0000
,
0100
0000
0000
0000
,
0000
0100
0000
0000
,
0000
0001
0000
0000
,
0000
1000
0000
0000
,
0000
0000
0000
0000
,
0010
0000
1000
0000
,
0100
0000
0100
0000
,
1000
0000
0000
0000
,
0010
0000
0000
0000
,
0100
0100
0000
0001
,
0000
0100
0000
0010
,
0000
1000
0000
0100
,
0000
1000
0000
0000
,
0100
0100
0000
0000
,
1000
1000
0000
0000
,
0010
0010
0000
0000
,
0100
0100
0000
0000
,
0001
0000
0000
0000
,
0010
0010
0000
0010
,
0000
0100
0000
0100
,
0000
1000
0000
0000
,
1001
0000
0000
0000
;

//---------------dance-single - ----------------
#NOTES:
     dance-single:
     :
     Medium:
     6:
     0.307,0.311,0.206,0.206,0.000:
0000
0000
0000
0000
,
0000
0000
0000
0000
,
1000
1000
0100
1000
,
0010
0100
0001
0000
,
0010
0010
0001
0100
,
0001
1000
0100
0000
,
0010
0010
0100
0010
,
0001
0100
0010
0000
,
1000
1000
0010
1000
,
0001
0100
0010
0000
,
2000
3001
0100
0101
,
0002
0103
0010
0110
,
2000
3010
1000
1100
,
0020
0031
0100
0101
,
0020
0000
1030
0000
0100
0010
0100
0000
,
2000
0000
3001
0000
0100
0001
0100
0000
,
0002
0000
0013
0000
0100
1000
0001
0000
,
0200
0010
0310
0000
,
1010
0000
0010
0000
1000
0000
0100
0100
,
0000
0000
0010
0000
0001
0000
0100
0100
,
0000
0001
1000
0100
,
0100
0110
0011
1001
,
0200
1300
1000
0010
,
0100
0001
0100
0000
0010
0000
0010
0000
,
0100
0001
1000
0000
0100
0000
0100
0000
,
0010
0001
2000
3000
,
0010
0010
0110
1001
,
1000
0100
1000
0000
0200
0000
0300
0000
,
0010
0001
0100
0100
,
0010
0100
0010
0100
0002
0000
0003
0000
,
1001
1001
1001
0000
,
0010
1000
0100
0000
0200
0000
0300
0000
,
1000
0200
0310
0002
,
0103
0000
0110
0000
0001
1000
0100
0000
,
0020
0000
0000
0030
,
0000
0001
0000
1000
,
0000
0001
0000
1000
,
0000
0010
0000
0100
,
0000
0000
0000
0000
,
0101
0000
0100
0000
0001
0000
0010
0010
,
0000
0000
0100
0000
1000
0000
0010
0010
,
0000
1000
0001
0010
,
0010
0110
1100
1001
,
0020
0031
0001
0100
,
0010
1000
0010
0000
0100
0000
0100
0000
,
0010
1000
0001
0000
0010
0000
0010
0000
,
0100
1000
0002
0003
,
0100
0100
0110
1001
,
0001
0010
0001
0000
0020
0000
0030
0000
,
0100
1000
0010
0010
,
0100
0010
0100
0010
2000
0000
3000
0000
,
1001
1001
1001
0000
,
0100
0001
0010
0000
0020
0000
0030
0000
,
0001
0020
0130
2000
,
3010
0000
0110
0000
1000
0001
0010
0000
,
0200
0000
0000
0300
;

//---------------dance-single - ----------------
#NOTES:
     dance-single:
     :
     Hard:
     8:
     0.415,0.407,0.069,0.524,0.000: // measure 1
0000
0000
0000
0000
,  // measure 2
0000
0000
0000
0000
,  // measure 3
0010
0000
0010
0000
1000
0100
0001
0000
,  // measure 4
0010
0000
0010
0000
0001
0100
1000
0000
,  // measure 5
0010
0010
2000
3001
,  // measure 6
0100
0000
0100
0000
0001
1000
0100
0000
,  // measure 7
1000
0000
1000
0000
0100
0010
0001
0100
,  // measure 8
0010
0000
0010
0000
0100
0001
0100
0000
,  // measure 9
0010
0000
0010
0000
1000
0001
0100
0000
,  // measure 10
0001
0000
0001
0000
0100
0010
1000
0000
,  // measure 11
1100
1001
0100
0002
,  // measure 12
1003
0000
0010
1000
0001
1000
0010
0000
,  // measure 13
0100
0000
0010
0100
0002
0000
0203
0000
,  // measure 14
0310
0000
1000
1000
1000
0000
0100
0000
,  // measure 15
0010
0001
0010
0100
1000
0001
1000
0000
,  // measure 16
0010
1000
0010
0100
0001
1000
0001
0000
,  // measure 17
0010
0000
0110
0000
1000
0000
0001
0100
,  // measure 18
2000
3002
0203
0300
,  // measure 19
2010
0000
3002
0000
0023
0000
0100
0130
,  // measure 20
0000
0000
0010
0001
0200
0000
0001
0301
,  // measure 21
0000
0000
0001
0100
0010
1000
0200
0000
,  // measure 22
2300
0000
3010
0000
0100
0002
0000
1003
,  // measure 23
0000
0000
0100
0010
0200
0000
2300
0000
,  // measure 24
3010
1000
0010
1000
0002
0000
0203
0000
,  // measure 25
0310
0100
0001
1000
0200
0000
2300
0000
,  // measure 26
3010
0001
0010
0100
0001
2000
0000
3001
,  // measure 27
0000
0000
0100
0001
2000
0000
3002
0000
,  // measure 28
0013
0001
0010
0001
1000
0100
2000
0000
,  // measure 29
3010
0100
0010
0100
0001
0100
0020
0000
,  // measure 30
1030
0100
1000
0001
0200
0000
0310
0000
,  // measure 31
0012
0000
0203
0000
0320
0000
1000
1030
,  // measure 32
0000
0000
0100
0010
0002
0000
0100
0103
,  // measure 33
0000
0000
0001
0100
0010
1000
0200
0000
,  // measure 34
2300
0000
3010
0000
0100
0010
0100
0000
,  // measure 35
2001
0100
0010
3001
,  // measure 36
0000
0010
0000
1000
,  // measure 37
0000
0100
0000
0010
,  // measure 38
0000
0001
0000
1000
,  // measure 39
0020
0000
0000
0030
,  // measure 40
0102
0000
2003
0000
3200
0000
0010
0310
,  // measure 41
0000
0000
0100
1000
0020
0000
1000
1030
,  // measure 42
0000
0000
1000
0010
0100
0001
0020
0000
,  // measure 43
0032
0000
0103
0000
0010
2000
0000
3001
,  // measure 44
0000
0000
0010
0100
0020
0000
0032
0000
,  // measure 45
0103
0001
0100
0001
2000
0000
3020
0000
,  // measure 46
0130
0010
1000
0001
0020
0000
0032
0000
,  // measure 47
0103
1000
0100
0010
1000
0002
0000
1003
,  // measure 48
0000
0000
0010
1000
0002
0000
2003
0000
,  // measure 49
3100
1000
0100
1000
0001
0010
0002
0000
,  // measure 50
0103
0010
0100
0010
1000
0010
0200
0000
,  // measure 51
0301
0010
0001
1000
0020
0000
0130
0000
,  // measure 52
2100
0000
3020
0000
0230
0000
0001
0301
,  // measure 53
0000
0000
0010
0100
2000
0000
0010
3010
,  // measure 54
0000
0000
1000
0010
0100
0001
0020
0000
,  // measure 55
0032
0000
0203
0000
0310
1000
0100
1000
,  // measure 56
0002
0000
0000
0003
;

//---------------dance-single - ----------------
#NOTES:
     dance-single:
     :
     Easy:
     3:
     0.182,0.192,0.026,0.043,0.000:
0000
0000
0000
0000
,
0000
0000
0000
0000
,
0010
0000
0100
0001
,
0010
0000
0001
1000
,
0100
0000
1000
0010
,
0100
0000
0010
1000
,
0100
0000
0010
0001
,
0100
0000
0001
0100
,
0010
0000
1000
0001
,
0100
0000
0001
1000
,
0100
0100
1000
0000
,
0010
0010
0100
0000
,
0001
0001
0010
0000
,
0100
0100
1001
0000
,
0010
0010
1000
0000
,
0001
0001
0100
0000
,
1000
1000
0010
0000
,
0100
0100
1001
0000
,
0100
1000
0001
0000
,
0000
0100
0001
0000
,
0000
1000
0100
1000
,
0010
0000
0000
0000
,
0010
1000
0001
0000
,
0010
0001
0100
0000
,
0001
0100
0010
0000
,
1000
0100
0010
0000
,
0001
1000
0100
0000
,
1000
0000
0001
0000
,
0010
0010
0010
0000
,
0100
0100
0100
0000
,
1000
0010
1000
0000
,
0000
0001
0100
0000
,
0000
0001
0010
0100
,
2000
0000
0000
0000
,
3001
0000
0000
0000
,
0000
0100
0000
0100
,
0000
0100
0000
0100
,
0000
0100
0000
0100
,
0020
0000
0000
0030
,
0100
1000
0001
0000
,
0000
0100
0001
0000
,
0000
1000
0100
1000
,
0010
0000
0000
0000
,
0010
1000
0001
0000
,
0010
0001
0100
0000
,
0001
0100
0010
0000
,
1000
0100
0010
0000
,
0001
1000
0100
0000
,
1000
0000
0001
0000
,
0010
0010
0010
0000
,
0100
0100
0100
0000
,
1000
0010
1000
0000
,
0000
0001
0100
0000
,
0000
0001
0010
0100
,
2000
0000
3100
0000
,
2002
0000
0000
3003
;
