#TITLE:CAN'T HUG EVERY CAT;
#SUBTITLE:;
#ARTIST:The Gregory Brothers ft. Cara Hartmann;
#TITLETRANSLIT:;
#SUBTITLETRANSLIT:;
#ARTISTTRANSLIT:;
#CREDIT:;
#BANNER:CAN'T HUG EVERY CAT-bn.png;
#BACKGROUND:CAN'T HUG EVERY CAT-bg.png;
#LYRICSPATH:;
#CDTITLE:;
#MUSIC:CAN'T HUG EVERY CAT.mp3;
#OFFSET:-0.060;
#SAMPLESTART:29.348;
#SAMPLELENGTH:16.100;
#SELECTABLE:YES;
#BPMS:0.000=125.000,164.000=62.500,164.500=61.120,165.000=62.500,174.000=125.000;
#STOPS:59.000=0.480
,188.000=0.480
;
#BGCHANGES:-0.600=CAN'T HUG EVERY CAT.avi=1.000=1=0=0,
99999=-nosongbg-=1.000=0=0=0 // don't automatically add -songbackground-
;

//---------------dance-single - ----------------
#NOTES:
     dance-single:
     :
     Beginner:
     1:
     0.092,0.147,0.042,0.000,0.000: // measure 1
0000
0000
0000
0000
,  // measure 2
0000
0000
0000
0000
,  // measure 3
0000
0000
0000
0000
,  // measure 4
0000
0000
0000
0000
,  // measure 5
0000
0000
0000
0000
,  // measure 6
0000
0000
0000
0000
,  // measure 7
0000
0000
0000
0000
,  // measure 8
0000
0010
0000
0000
,  // measure 9
0000
0010
0000
0000
,  // measure 10
0000
0010
0000
0000
,  // measure 11
0000
0010
0000
0000
,  // measure 12
0000
1000
0000
0000
,  // measure 13
0000
0100
0000
0000
,  // measure 14
0000
1000
0000
0000
,  // measure 15
0000
0001
0000
0000
,  // measure 16
0000
0100
0000
0100
,  // measure 17
0000
0100
0000
0000
,  // measure 18
0000
0001
0000
0001
,  // measure 19
0000
0000
0000
0000
,  // measure 20
1000
0000
0000
0000
,  // measure 21
0100
0000
0000
0000
,  // measure 22
1000
0000
0000
0000
,  // measure 23
0010
0000
0010
0000
,  // measure 24
0010
0000
0000
0000
,  // measure 25
1000
0000
0000
0000
,  // measure 26
0001
0000
0000
0000
,  // measure 27
0100
0000
0000
0000
,  // measure 28
0001
0000
0001
0000
,  // measure 29
0000
0001
0001
0000
,  // measure 30
1000
1000
1000
1000
,  // measure 31
0000
0000
0000
0000
,  // measure 32
0100
0100
0000
0000
,  // measure 33
1000
1000
0000
0000
,  // measure 34
0001
0000
0000
0000
,  // measure 35
1000
0000
0000
0000
,  // measure 36
0010
0010
0000
0000
,  // measure 37
1000
1000
0000
0000
,  // measure 38
0001
0000
0000
0000
,  // measure 39
1000
0000
0000
0000
,  // measure 40
1001
0000
0000
0000
,  // measure 41
1001
0000
0000
0000
,  // measure 42
1001
0000
0100
0000
,  // measure 43
0100
0000
1000
0000
,  // measure 44
0001
0000
0110
0000
,  // measure 45
0000
0000
0000
1000
,  // measure 46
1000
1000
0000
0000
,  // measure 47
0000
0000
0000
0001
,  // measure 48
0001
0000
0100
0000
,  // measure 49
0100
0000
0100
0000
,  // measure 50
0000
0000
0001
0000
,  // measure 51
0001
0000
0000
0000
,  // measure 52
0000
1001
0000
0000
,  // measure 53
0000
0000
1000
1000
,  // measure 54
1000
0000
0000
0000
,  // measure 55
0000
0000
0100
0100
,  // measure 56
0100
0000
0000
0000
,  // measure 57
0000
1000
0000
0001
,  // measure 58
0000
1000
0000
0001
;

//---------------dance-single - ----------------
#NOTES:
     dance-single:
     :
     Medium:
     6:
     0.251,0.318,0.085,0.203,0.000:
0000
0000
0000
0000
,
0000
0000
0000
0000
,
0000
0000
0000
0000
,
0000
0000
0000
0000
,
0000
0000
0000
0000
,
0000
0000
0000
0000
,
0000
0000
0000
0000
,
0000
0100
0000
0001
,
0000
1000
0000
0010
,
0000
1000
0000
0100
,
0000
0010
0001
0100
,
0010
2000
3100
1000
,
0000
0002
0103
0001
,
0000
0020
0130
0010
,
0000
0200
1300
0100
,
1000
0100
0010
0001
,
0100
0010
0010
0000
,
0100
0001
1000
0010
,
1000
0000
0000
0000
,
0020
0130
0001
1000
,
0020
0130
0001
1000
,
0020
0130
0001
1000
,
0020
0230
0320
0030
,
2100
0010
0100
0010
,
0100
0100
3100
0000
,
0102
0010
0100
1000
,
0100
0100
0103
0000
,
0010
0000
0100
0000
0001
0001
0001
0000
,
0010
0001
1000
0000
,
0100
0000
1000
1000
1000
0000
0010
0000
,
0000
0110
1001
0000
,
0100
0100
1000
0020
,
0130
0100
0001
2000
,
3001
0001
0010
0001
,
1000
0100
0010
0000
0001
0000
0100
0000
,
0010
0010
0100
0002
,
1003
1000
0100
1000
,
0010
0000
0100
0000
0001
0010
0100
0000
,
1000
0000
0100
0000
0010
0001
0100
0000
,
0010
0000
0100
0000
,
1010
1100
0101
0011
,
2000
3000
0100
1000
,
0001
0000
1000
0000
0010
0010
0100
0100
,
0001
1000
0001
0000
1001
0000
0100
0000
,
0100
0000
1000
0000
0010
0000
0100
0010
,
0100
0000
0101
0010
,
0100
0001
1000
0200
,
1300
0020
0130
1000
,
0100
0020
0031
1000
,
0000
0002
0103
0010
,
1000
0100
1000
0000
0000
0000
0000
0000
,
0000
0000
0200
0000
0000
1300
0000
0000
,
0000
0000
0002
0000
0000
0103
0000
0000
,
0000
0000
0020
0000
0000
0130
0000
0000
,
0000
0000
2000
0000
0000
3100
0000
0000
,
0000
0000
0001
0000
0000
1000
0000
0000
,
0000
0000
0100
0000
0000
1000
0000
0000
,
0000
0000
0010
0000
0000
0001
0000
0000
;

//---------------dance-single - ----------------
#NOTES:
     dance-single:
     :
     Hard:
     8:
     0.333,0.464,0.297,0.136,0.008:
0000
0000
0000
0000
,
0000
0000
0000
0000
,
0000
0000
0000
0000
,
0000
0000
0000
0000
,
0000
0000
0000
0000
,
0000
0000
0000
0000
,
0000
0000
0000
0000
,
0000
0100
0000
0100
,
0000
0001
0000
0001
,
0000
1000
0000
1000
,
0000
0010
0000
0010
,
0000
0000
1000
0000
0010
0000
0100
0001
,
1000
0000
0010
0000
1000
0000
0100
0010
,
0001
1000
1001
0100
,
0101
1000
1100
0020
,
0130
0000
0001
0010
0100
0000
2000
0000
,
3200
0000
1300
0010
0100
0000
0000
0000
,
0001
1000
0001
0000
0020
0000
0230
0000
,
1300
0000
0001
0100
0010
1000
0000
1000
,
0001
0110
1000
1001
,
0010
0000
0001
0010
0100
0000
0010
0001
,
1000
0000
0100
0010
0100
0000
1000
0100
,
1000
0000
0001
0100
0001
0000
0010
0000
,
0110
1001
1010
0101
,
1001
0000
0110
0100
0000
0000
0000
0000
,
0101
0011
1100
1010
,
0100
0000
0000
0001
0000
0000
0000
0000
,
0010
0000
0000
0010
0000
0000
0000
0000
0001
0000
1000
0000
0001
0000
0000
0000
,
0100
0000
0000
0100
0000
0000
0001
0000
0001
0000
0000
0000
0000
0000
0000
0000
,
1000
0100
0010
0001
0010
0100
1000
0000
,
0000
0000
2002
3003
,
0110
0000
0110
0000
1000
0000
0010
1000
,
1001
1001
0010
0001
,
0100
0010
1000
0001
1000
0001
0000
0000
,
0010
0100
0010
0002
0000
0003
0000
0000
,
1010
0000
1010
0000
0100
0000
0001
0100
,
0101
0000
0101
0000
0010
0100
1000
0000
,
0020
0000
0130
0000
0010
1000
0100
0000
,
2000
3100
0002
0103
,
2010
0000
0100
3010
,
0001
0100
0001
0100
0010
1000
0010
1000
,
0200
0000
0000
0000
0310
0001
1000
0100
,
1000
1000
0010
0100
0101
0000
1100
0000
,
1010
1001
0101
1001
0100
0000
0001
0000
,
1000
0100
1000
1000
,
0010
1000
0001
0000
0010
0000
0010
0000
,
0001
0000
1000
0000
0100
0000
0010
0001
,
0200
0000
0310
0000
0100
0001
1000
0000
,
0010
0000
1000
0100
0010
0001
1000
0000
,
0000
0000
0010
1000
0010
0100
0001
0000
,
1000
0100
2000
0000
3010
0000
0101
0000
,
1010
0000
0200
0000
0300
0000
0010
0001
,
1000
0000
0100
0000
1000
0001
0100
0000
,
0001
1000
0001
0000
0000
0000
0010
0000
,
0001
1000
0100
0000
1000
0010
0100
0000
,
0010
1000
0001
0000
0000
1000
0000
0000
,
0000
0000
0100
0000
0000
0010
0000
0000
,
0000
0000
1001
0000
0000
0110
0000
0000
;

//---------------dance-single - ----------------
#NOTES:
     dance-single:
     :
     Easy:
     2:
     0.139,0.218,0.085,0.000,0.000:
0000
0000
0000
0000
,
0000
0000
0000
0000
,
0000
0000
0000
0000
,
0000
0000
0000
0000
,
0000
0000
0000
0000
,
0000
0000
0000
0000
,
0000
0000
0000
0000
,
0000
0100
0000
0100
,
0000
0100
0000
0100
,
0000
0100
0000
0100
,
0000
0100
0000
0100
,
0000
0001
0000
1000
,
0000
0010
0010
0010
,
0000
1000
0000
0100
,
0000
0010
0000
0001
,
0100
0000
0001
0000
,
1000
1000
1000
0000
,
0100
0000
1000
0000
,
0010
0000
0000
0000
,
1001
0000
0010
0000
,
1000
0000
0100
0100
,
0100
0000
1000
0000
,
0010
0000
1000
0000
,
0001
0000
0001
0000
,
0001
0010
0100
0000
,
1000
0000
1000
0000
,
1000
0100
0010
0000
,
0001
0000
1000
0000
,
0010
0000
0010
0000
,
1000
0000
0100
0000
,
0100
0000
0000
0000
,
1001
1001
0000
0000
,
1001
1001
0000
0000
,
0010
0000
1000
0000
,
0100
0010
0001
0000
,
0110
0110
0000
0000
,
0110
0110
0000
0000
,
0100
0000
1000
0000
,
0010
0000
1000
0000
,
0001
0000
0000
1000
,
1000
0000
0000
0000
,
0100
0000
1000
0000
,
0010
0000
1000
0100
,
0010
0001
0100
0000
,
0000
0001
0100
0000
,
0000
0010
0100
0000
,
0000
1000
0010
0000
,
1000
0100
0000
1000
,
0000
0010
0000
1000
,
0000
0001
0000
0100
,
0100
0000
0000
0000
,
0000
0110
0000
1000
,
0000
0100
0100
0100
,
0000
1000
0000
0001
,
0000
0010
0000
0001
,
0000
0100
0000
0000
,
0000
0010
0000
0000
,
0000
1000
0000
0000
;

//---------------dance-single - ----------------
#NOTES:
     dance-single:
     :
     Challenge:
     11:
     0.449,0.513,0.254,0.042,0.093:
0000
0000
0000
0000
,
0000
0000
0000
0000
,
0000
0000
0000
0000
,
0000
0000
0000
0000
,
0000
0000
0000
0000
,
0000
0000
0000
0000
,
0000
0000
0000
0000
,
0000
0000
0100
0001
0000
1000
0000
0000
,
0100
0000
1000
0000
0010
0000
0000
1000
0000
0000
0001
0000
0000
0000
0000
0000
,
0010
0000
0001
0000
1000
0000
0000
0100
0000
0000
1000
0000
0000
0000
0010
0000
,
0100
0010
0000
0000
1000
0000
0000
0000
0100
0000
0100
0000
0100
0000
0000
0000
,
1100
0000
0101
0001
0010
0100
0010
0000
,
0011
0000
1000
0001
1000
0100
0010
0000
,
1100
0000
0001
1000
0001
0010
1000
0000
,
0110
0000
1000
0100
0010
0001
2000
0000
,
3100
0010
0100
0000
1000
0000
0001
0000
0100
0000
0010
0000
1000
0000
1000
0000
,
0100
0000
1000
0000
0010
0000
0100
0001
0000
0000
0000
0000
1001
0000
1000
0000
,
0100
1000
0100
0000
0010
0000
0001
0000
1000
0000
0010
0000
0100
0000
0001
0000
,
2000
0000
0100
0100
0100
0000
3100
0000
,
0010
1000
0100
1000
0001
0100
0010
0000
,
0100
0001
0010
1000
0010
0100
1000
0000
,
0010
1000
0001
1000
0010
0100
0001
0000
,
1000
0100
1000
0000
0100
0010
0100
0000
0010
0001
0010
0000
0001
0000
0000
0000
,
0100
0001
1000
0100
1000
0010
0100
0000
,
0001
0000
1000
0100
1000
0000
0010
0000
,
1000
0010
1000
0001
0100
0010
1000
0000
,
1100
0000
0010
0110
0100
0000
0001
0000
,
0010
0000
0001
1000
0000
0000
1000
0000
0100
0000
1000
0000
0010
0000
0000
0000
,
0100
0000
0010
1000
0000
0000
0100
0000
0001
0000
1000
0000
0100
0000
0000
0000
,
1000
0001
1000
0010
0100
0001
1000
0000
,
0100
0000
0010
0100
0000
0000
1000
0000
0100
0000
1000
0000
0010
0000
0000
0000
,
1100
0100
0011
0000
1000
0001
1000
0000
,
0110
0010
1010
0000
0100
1000
0001
0000
,
1000
0010
0100
0001
0010
1000
0010
0100
,
1000
0010
1000
0001
0010
0001
0100
0000
,
0011
0010
1100
0000
0010
1000
0100
0000
,
1010
1000
1001
0000
0100
0001
0010
0100
,
0010
0001
1000
0100
1000
0010
0001
0010
,
0100
0001
0010
1000
0010
0100
1000
0010
,
1001
0000
0000
0000
0010
1000
0010
1000
,
0101
1010
1100
0110
,
0012
0000
0000
0000
0000
0000
0000
0000
0103
0001
0000
1000
0000
0000
0100
1000
,
0010
0000
0000
1000
0000
0000
0001
0000
0000
0000
0000
0000
0000
0000
0000
0000
0110
0000
0000
0000
1000
0000
0000
0000
1100
0000
0000
0000
0010
0000
0000
0000
,
1001
0000
0010
0001
0100
0000
0010
1000
0100
0000
1000
0000
0010
0000
1000
0000
,
0100
0010
0001
0010
0100
1000
0010
1000
,
0001
0100
1010
0000
0100
0001
0010
0001
,
1000
0100
0010
0001
1000
0010
1000
0001
,
0200
0000
0000
0000
0301
0010
0100
0000
1000
0000
0001
0000
0100
0000
0010
0000
,
1000
0000
1000
0000
0100
0000
1000
0000
0010
0000
0100
0001
0000
0000
0000
0000
,
1001
0000
1000
0000
0100
1000
0100
0000
0010
0000
0001
0000
1000
0000
0010
0000
,
0100
0001
2000
0000
0100
0100
0100
0000
,
3100
0000
0010
1000
0001
0010
0001
0100
,
1000
0100
0010
1000
0100
0010
0001
1000
,
0101
0000
0010
0001
1000
0100
1000
0010
,
0100
0001
0010
1000
0010
0100
1000
0010
,
0001
1000
0100
0000
0000
0001
0000
0000
,
0000
0000
0010
0000
0000
0100
0000
0000
,
0000
0000
1100
0000
0000
0011
0000
0000
;
