#TITLE:Murder on the Dancefloor;
#SUBTITLE:;
#ARTIST:Sophie Ellis-Bextor;
#TITLETRANSLIT:;
#SUBTITLETRANSLIT:;
#ARTISTTRANSLIT:;
#CREDIT:;
#BANNER:Murder on the Dancefloor-bn.png;
#BACKGROUND:Murder on the Dancefloor-bg.png;
#LYRICSPATH:;
#CDTITLE:;
#MUSIC:Murder on the Dancefloor.mp3;
#OFFSET:-1.730;
#SAMPLESTART:52.840;
#SAMPLELENGTH:16.340;
#SELECTABLE:YES;
#BPMS:0.000=117.300;
#STOPS:;
#BGCHANGES:-4.000=Murder on the Dancefloor.avi=1.000=1=0=0,
99999=-nosongbg-=1.000=0=0=0 // don't automatically add -songbackground-
;

//---------------dance-single - ----------------
#NOTES:
     dance-single:
     :
     Beginner:
     1:
     0.085,0.158,0.047,0.000,0.000:
0000
0000
0000
0000
,
0000
0000
0000
0000
,
0000
0000
0000
0000
,
0000
0000
0000
0000
,
0010
0000
0000
0000
,
0010
0000
0000
0000
,
0100
0000
0000
0000
,
0100
0000
0000
0000
,
0000
0000
0000
0000
,
1001
0000
0000
0000
,
0100
0000
0000
0000
,
0010
0000
0000
0000
,
1000
0000
1000
0000
,
1000
0000
0000
0000
,
0010
0000
0000
0000
,
0100
0000
0000
0000
,
1001
0000
0000
0000
,
0001
0001
0001
0000
,
1001
0000
0000
0000
,
0100
0000
0000
0000
,
0010
0000
0000
0000
,
1000
0000
0000
0000
,
0100
0000
0000
0000
,
1000
0000
0000
0000
,
0010
0000
0010
0000
,
0010
0000
0000
0000
,
0100
0100
0000
0000
,
0100
0000
0000
0000
,
0001
0000
0001
0000
,
0001
0000
0000
0000
,
0010
0000
0000
0000
,
0100
0000
0000
0000
,
1000
1000
1000
1000
,
0000
0000
0000
0000
,
1001
0000
0000
0000
,
0010
0000
0000
0000
,
0100
0000
0000
0000
,
0001
0000
0001
0000
,
0001
0000
0000
0000
,
0100
0000
0000
0000
,
0010
0000
0000
0000
,
1001
0000
0000
0000
,
1000
1000
1000
0000
,
1001
0000
0000
0000
,
0010
0000
0000
0000
,
0100
0000
0000
0000
,
0001
0000
0000
0000
,
0010
0000
0000
0000
,
0001
0000
0000
0000
,
0100
0000
0100
0000
,
0100
0000
0000
0000
,
0010
0010
0000
0000
,
0010
0000
0000
0000
,
1000
0000
1000
0000
,
1000
0000
0000
0000
,
0100
0000
0000
0000
,
0010
0000
0000
0000
,
0001
0001
0001
0001
;

//---------------dance-single - ----------------
#NOTES:
     dance-single:
     :
     Medium:
     4:
     0.186,0.203,0.070,0.140,0.000:
0000
0000
0000
0000
,
0000
0000
0000
0000
,
0110
0000
0000
0000
,
0000
0000
0000
0000
,
0020
0000
2030
0000
,
3200
0000
1000
0000
,
0320
0000
0032
0000
,
0203
0000
0000
0000
,
0000
0000
0300
0000
,
0010
0100
0001
0000
,
0010
0000
0001
1000
,
0100
1000
0010
0000
,
1000
0000
0010
0000
,
0100
0010
1000
0000
,
0100
0000
1000
0001
,
0100
0000
0010
0100
,
0010
0000
1000
0000
,
0001
0000
0100
0000
,
2001
0000
3100
0000
,
0002
0000
0103
0000
,
0020
0000
0130
0000
,
0020
0000
0031
0000
,
0200
0000
0310
0000
,
0200
0000
0301
0000
,
1000
0001
1000
0001
,
1001
0000
0100
0000
,
0010
0000
1000
0010
,
0100
0000
0001
0000
,
1100
0001
1100
0001
,
0100
0000
0010
0000
,
1000
0001
0100
0010
,
0100
0000
0010
0000
,
1000
0001
1000
0001
1000
0001
1000
0000
,
0000
0000
0000
0000
,
0100
0010
1000
0000
,
0100
0000
1000
0001
,
0010
0001
0100
0000
,
0001
0000
0100
0000
,
0010
0100
0001
0000
,
0010
0000
0001
1000
,
0010
0000
0100
0010
,
0100
0000
0001
0000
,
1000
0000
0010
0000
,
1002
0000
0013
0000
,
2000
0000
3010
0000
,
0200
0000
0310
0000
,
0200
0000
1300
0000
,
0020
0000
0130
0000
,
0020
0000
1030
0000
,
0001
1000
0001
1000
,
1001
0000
0010
0000
,
0100
0000
0001
0100
,
0010
0000
1000
0000
,
0011
1000
0011
1000
,
0010
0000
0100
0000
,
0001
1000
0010
0100
,
0010
0000
0100
0000
,
0001
1000
0001
1000
0001
1000
0001
0000
;

//---------------dance-single - ----------------
#NOTES:
     dance-single:
     :
     Hard:
     8:
     0.320,0.385,0.180,0.086,0.016: // measure 1
0000
0000
0000
0000
,  // measure 2
0000
0000
0000
0000
,  // measure 3
1001
0000
0000
0000
,  // measure 4
0000
0000
0000
0000
,  // measure 5
0010
0100
0001
0000
,  // measure 6
0100
0000
0001
0000
1000
0000
0010
1000
,  // measure 7
0100
0000
0000
1000
0001
0000
0000
0100
,  // measure 8
0001
0000
0010
0000
0100
0010
0001
0000
,  // measure 9
0000
0000
0000
0000
,  // measure 10
0110
0000
0001
0000
1000
0000
0100
1000
,  // measure 11
0010
1000
0001
0000
0100
0000
0010
0100
,  // measure 12
0001
0100
0010
1000
,  // measure 13
0002
0000
0000
0000
1003
0000
0100
1000
,  // measure 14
0010
1000
0010
0100
,  // measure 15
0010
0000
1000
0000
0001
1000
0100
0010
,  // measure 16
0001
0000
0100
0000
0010
0100
0010
0000
,  // measure 17
1001
0000
0100
0000
0001
0100
1000
0000
,  // measure 18
0000
0000
0000
0000
0010
0000
1000
0000
0001
0000
0000
0100
0000
0000
0000
0000
,  // measure 19
0102
0000
0000
1003
0000
0000
0000
0000
,  // measure 20
0210
0000
0000
0301
0000
1000
0001
0000
,  // measure 21
2100
0000
0000
3010
0000
0000
0000
0000
,  // measure 22
0120
0000
0000
1030
0000
0100
0010
0000
,  // measure 23
2001
0000
0000
3100
0000
1000
0001
0000
,  // measure 24
0100
0010
0100
0000
0001
0100
0001
0000
,  // measure 25
1000
0100
1000
0001
1000
0001
0100
0000
,  // measure 26
0010
0100
0001
1000
0001
1000
0000
0000
,  // measure 27
0100
1000
0010
0100
,  // measure 28
0001
0010
0001
1000
,  // measure 29
0020
0130
0020
0130
,  // measure 30
0001
0100
0010
1000
0100
1000
0000
0000
,  // measure 31
0010
0000
1000
0000
0001
0000
0100
0010
,  // measure 32
0100
0000
0000
0001
1000
0000
0000
0100
,  // measure 33
0010
0000
0001
0000
0100
0010
1000
0000
,  // measure 34
0001
1000
0100
0000
,  // measure 35
1001
0010
0001
0100
,  // measure 36
0010
0000
0100
0000
0001
1000
0100
1000
,  // measure 37
0001
0100
0010
1000
,  // measure 38
0002
0000
0000
0000
0103
0000
0010
0100
,  // measure 39
0010
0000
1000
0000
0001
0000
1000
0100
,  // measure 40
1000
0010
0100
0000
0001
0000
0100
0001
,  // measure 41
0100
0000
0001
1000
0001
0010
0001
0000
,  // measure 42
0101
0000
0100
0000
0010
1000
0001
0000
,  // measure 43
0000
0000
0000
0000
0001
0000
1000
0000
0100
0000
0000
0010
0000
0000
0000
0000
,  // measure 44
0101
0101
1100
1100
,  // measure 45
1001
0000
1001
0000
0010
1000
0001
0000
,  // measure 46
0110
0110
0101
0101
,  // measure 47
1100
0000
1100
0000
0010
1000
0001
0000
,  // measure 48
1000
0100
0010
0000
0001
0100
0010
0000
,  // measure 49
0100
0010
1000
0000
0001
1000
0100
0000
,  // measure 50
1000
0001
1000
0001
1000
0001
1000
0000
,  // measure 51
0010
0100
0001
0100
0010
1000
0000
0000
,  // measure 52
0010
0000
0000
0010
0000
0000
0000
0000
0100
0000
0001
0000
0100
0000
0010
0000
,  // measure 53
1000
0001
1000
0010
,  // measure 54
0200
0310
0200
0310
,  // measure 55
0100
0001
0100
0010
1000
0001
0000
0000
,  // measure 56
1000
0000
0000
1000
0000
0000
0000
0000
0010
0000
1000
0000
0100
0000
0000
0000
,  // measure 57
1000
0000
0000
0001
0100
0000
0000
0010
,  // measure 58
0100
0000
0001
0000
1000
0100
0010
0000
,  // measure 59
1001
0000
0000
0000
;

//---------------dance-single - ----------------
#NOTES:
     dance-single:
     :
     Easy:
     2:
     0.135,0.180,0.023,0.031,0.000:
0000
0000
0000
0000
,
0000
0000
0000
0000
,
0000
0000
0000
0000
,
0000
0000
0000
0000
,
0020
0000
0030
0000
,
0200
0000
0300
0000
,
0002
0000
0003
0000
,
2000
0000
3000
0000
,
0000
0000
0000
0000
,
0010
0000
0100
0000
,
0001
0000
1000
0000
,
0100
0000
1000
0000
,
0010
0000
0100
0000
,
0001
0000
0010
0000
,
0001
0000
1000
0000
,
0010
0000
1000
0000
,
0100
0000
1000
0000
,
0010
0000
0100
0000
,
0001
0001
0001
0000
,
0001
0000
0100
0000
,
0010
0010
0010
0000
,
0010
0000
0100
0000
,
0010
0000
1000
0000
,
0100
0000
1000
0000
,
0001
0001
0001
0001
,
1001
0000
0000
0000
,
0100
0000
0010
0000
,
0100
0000
0001
0000
,
1000
1000
1000
1000
,
1000
0000
0100
0000
,
1000
0000
0010
0000
,
0100
0000
0001
0000
,
0100
0100
0100
0100
,
0000
0000
0000
0000
,
0110
0000
0010
0000
,
1000
0000
0001
0000
,
0010
0000
0001
0000
,
0100
0000
0010
0000
,
1000
0000
0100
0000
,
1000
0000
0001
0000
,
0100
0000
0001
0000
,
0010
0000
0001
0000
,
0100
0000
0010
0000
,
1000
1000
1000
0000
,
1000
0000
0010
0000
,
0100
0100
0100
0000
,
0100
0000
0010
0000
,
0100
0000
0001
0000
,
0010
0000
0001
0000
,
1000
1000
1000
1000
,
1001
0000
0000
0000
,
0010
0000
0100
0000
,
0010
0000
1000
0000
,
0001
0001
0001
0001
,
0001
0000
0010
0000
,
0001
0000
0100
0000
,
0010
0000
1000
0000
,
0010
0010
0010
0010
;
