#TITLE:MY BOY;
#SUBTITLE:;
#ARTIST:Buono!;
#TITLETRANSLIT:;
#SUBTITLETRANSLIT:;
#ARTISTTRANSLIT:;
#CREDIT:;
#BANNER:MY BOY-bn.png;
#BACKGROUND:MY BOY-bg.png;
#LYRICSPATH:;
#CDTITLE:;
#MUSIC:MY BOY.mp3;
#OFFSET:-0.060;
#SAMPLESTART:91.540;
#SAMPLELENGTH:14.300;
#SELECTABLE:YES;
#BPMS:0.000=412.000,420.000=206.000,437.000=412.000;
#STOPS:286.000=0.140
,416.000=0.160
,417.000=0.160
,418.000=0.140
,419.000=0.140
,420.000=0.720
,575.000=0.440
,576.000=0.140
,577.000=0.460
,580.000=0.440
,581.000=0.140
,582.000=1.020
,776.000=0.160
,777.000=0.160
,778.000=0.140
,779.000=0.140
,780.000=0.860
;
#BGCHANGES:0.000=MY BOY.avi=1.000=1=0=0,
99999=-nosongbg-=1.000=0=0=0 // don't automatically add -songbackground-
;

//---------------dance-single - ----------------
#NOTES:
     dance-single:
     :
     Hard:
     13:
     0.741,1.000,0.577,0.153,0.000:
0000
0000
0000
0000
,
0000
0000
0000
0000
,
0000
0000
0000
0000
,
0000
0000
0000
0000
,
0000
0000
0000
0000
,
0000
0000
0000
0000
,
0000
0000
0000
0000
,
0000
0000
0000
0000
,
0110
0000
0000
0101
,
0000
0000
1100
0000
,
1001
0000
0000
1100
,
0000
0000
0011
0000
,
1100
0000
0000
1001
,
0000
0000
0110
0000
,
0101
0000
2002
0000
,
0000
0000
3003
0000
,
0010
1000
0100
0010
,
0001
0000
1000
0010
,
0100
0001
1000
0000
,
1100
0000
0101
0000
,
0010
0100
0001
1000
,
0100
0000
0010
0001
,
1000
0100
0010
0000
,
0011
0000
1100
0000
,
0001
0100
1000
0100
,
0001
0000
0010
1000
,
0010
0001
1000
0000
,
1100
0000
0101
0000
,
1000
0001
0010
0100
,
1000
0010
0100
0000
,
0001
0010
1000
0010
,
0001
1000
0100
0000
,
1000
0000
1000
0000
,
1000
0000
1000
0000
,
0010
0100
0220
0000
,
0000
0000
0330
0000
,
0010
0000
1000
0000
,
0100
0000
0010
0000
,
0001
0010
0100
1000
,
0010
0100
0001
0000
,
1000
0000
0010
0000
,
1000
0000
0001
0000
,
0010
0100
1000
0000
,
0001
0100
0010
0000
,
0100
0000
0001
0000
,
1000
0000
0010
0000
,
1000
0100
0010
0001
,
1000
0010
0100
0000
,
0010
0000
1000
0000
,
0100
0000
0010
0000
,
0001
0010
0011
0000
,
0100
0010
0100
0000
0110
0000
0000
0000
,
0001
0000
1000
0000
,
0010
0000
0100
0000
,
0001
0010
0100
0010
,
0001
1000
0010
0000
,
1000
0000
0001
0000
,
1000
0100
0010
0000
,
0001
0100
0010
0000
,
1000
0010
0100
0000
,
0001
0000
1000
0000
,
0010
0000
0100
0000
,
0001
0100
1000
0100
,
0010
0100
0001
0000
,
1000
0000
0010
0000
,
1000
0100
0010
0000
,
0001
1000
0010
0000
,
1000
0001
1000
0000
0001
1000
0001
0000
,
0100
0010
1000
0100
,
1000
0001
0100
0010
,
0100
0001
0010
0100
,
1000
0010
0100
0010
,
1000
0100
1000
0001
,
0010
0100
1000
0010
,
0100
0000
0220
0000
0330
0000
0001
0100
,
0001
0101
0000
1010
,
0000
1001
0000
0000
,
0100
0110
0000
0001
,
0000
0101
0000
0000
,
1000
1100
0000
0010
,
0000
1010
0000
0000
,
0100
0101
0000
0010
,
0000
1001
0000
0000
,
0100
1100
0000
0010
,
1000
0100
2000
0000
,
0002
3000
0003
0010
,
0100
1000
0020
0000
,
2000
0030
3000
0010
,
1000
0001
0200
0000
,
0020
0300
0030
1000
,
0100
1100
0000
0010
,
0100
0110
0000
1001
,
0000
0101
0000
0000
,
0010
1010
0000
0100
,
0000
1100
0000
0000
,
0001
0101
0000
1000
,
0000
1001
0000
0000
,
0010
0110
0000
1000
,
0000
1100
0000
0000
,
0001
0101
0000
1010
,
0000
0000
1001
0000
,
0000
0110
0000
0101
,
0000
0000
1100
0000
,
0000
0011
0000
0100
,
1000
0010
0100
0001
,
0100
0000
0010
1000
0100
0000
1000
0001
,
0100
0000
0010
0100
0001
0000
0010
0100
,
1000
0000
0001
1000
0010
0000
0100
0001
,
1000
0000
0010
1000
0001
0100
0010
1000
,
0010
0100
0001
0000
1000
0000
0100
0000
,
0000
1000
0010
0100
,
0000
0001
0010
0100
,
0000
1000
0001
0100
,
0000
0010
1000
0100
,
0000
1000
0001
0100
,
0000
0010
0100
0001
,
0000
0010
0100
1000
,
0000
0001
0100
1000
,
0000
1000
0100
0001
,
0000
0001
0010
1000
,
0000
1000
0010
0001
,
0000
1000
0100
0010
,
0011
0000
1001
0000
,
0000
0010
1000
0001
,
0101
0000
0110
0000
,
0000
1000
0010
0100
,
0001
0010
0100
0010
,
0001
1000
0010
0100
,
0001
1000
0100
0010
,
0000
0001
0010
0100
,
1000
0010
0100
0010
,
1000
0100
0010
0001
,
1000
0010
0100
0001
,
0000
1000
0010
0100
,
0001
0010
0100
0010
,
0001
1000
0010
0100
,
0001
1000
0010
0100
,
0000
0010
1000
0100
,
1100
0000
0110
0000
,
0000
0001
0010
0100
,
1100
0000
1001
0000
,
0000
0010
1000
0001
,
0101
0000
1100
0000
,
1000
0001
1000
0000
0000
0000
0110
0000
,
1001
1001
0010
1000
,
1010
0011
0011
1000
,
0010
0100
0001
1000
,
0100
1000
0001
0100
,
0010
1000
0001
1000
,
0010
0100
0000
0010
,
1000
0100
1000
0001
,
0010
0100
1000
0000
,
0000
0010
0000
1000
,
0000
0100
0000
1000
,
0000
0010
0100
0010
,
0100
0010
0000
1000
,
0000
0100
0000
1000
,
0001
0100
0000
0010
,
0100
0001
0000
0010
,
0100
1000
0000
0001
,
1000
0100
1100
0000
,
0001
0000
1000
0000
0100
0010
0100
0000
,
1000
0010
0100
0001
,
1000
0100
1000
0010
,
0100
0001
1000
0100
,
1000
0001
0000
0010
,
0001
0100
0010
0100
,
0001
1000
0010
0000
,
0000
1000
0000
0001
,
0000
0100
0000
0010
,
0000
1000
0100
1000
,
0100
1000
0000
0010
,
0000
1000
0000
0001
,
1000
0010
0000
1000
,
0001
0100
0000
0010
,
0100
0001
0000
1000
,
0001
0100
0101
0000
,
0010
0000
1000
0000
0100
1000
0100
0000
,
0000
1000
0010
0100
,
0001
1000
0000
0010
,
0000
0100
0000
0110
,
0000
1001
0000
1000
,
0000
0001
0010
0100
,
1000
0001
0000
0100
,
0000
0101
0000
0101
,
0000
1001
0000
0100
,
1000
0010
1000
0001
,
0100
0010
0000
0100
,
0001
1001
0000
1100
,
0000
0101
0000
2010
,
0000
0010
0000
0010
,
0000
0010
0000
0010
,
0000
3010
0000
0100
,
0001
1000
0100
1000
,
0001
0100
0110
1010
,
1001
0010
0001
0100
,
0010
1000
0100
1000
,
0010
0100
0010
1000
,
0100
0020
0000
0032
,
0000
0103
0010
1000
,
0100
1000
0001
0010
,
0100
1000
0010
0100
,
0010
2000
0000
3200
,
0000
0310
0001
0100
,
0010
0100
0001
0010
,
0100
1000
0001
0100
,
0010
2000
0000
3002
,
0000
0013
0100
1000
,
0010
0100
0001
1000
,
0100
1000
0010
0100
,
0001
0010
1000
0010
,
0000
0001
0000
0001
,
0000
0001
0000
0001
,
0000
0100
0010
2002
,
0000
0000
0000
0000
,
3003
0000
0000
0000
;

//---------------dance-single - ----------------
#NOTES:
     dance-single:
     :
     Easy:
     7:
     0.304,0.707,0.037,0.051,0.000: // measure 1
0000
0000
0000
0000
,  // measure 2
0000
0000
0000
0000
,  // measure 3
0000
0000
0000
0000
,  // measure 4
0000
0000
0000
0000
,  // measure 5
0000
0000
0000
0000
,  // measure 6
0000
0000
0000
0000
,  // measure 7
0000
0000
0000
0000
,  // measure 8
0000
0000
0000
0000
,  // measure 9
0010
0000
0000
0010
,  // measure 10
0000
0000
0010
0000
,  // measure 11
1000
0000
0000
1000
,  // measure 12
0000
0000
1000
0000
,  // measure 13
0100
0000
0000
0100
,  // measure 14
0000
0000
0100
0000
,  // measure 15
0010
0000
0010
0000
,  // measure 16
0000
0000
0000
0000
,  // measure 17
0001
0000
0000
0000
,  // measure 18
1000
0000
0000
0000
,  // measure 19
0010
0000
0000
0000
,  // measure 20
1000
0000
1000
0000
,  // measure 21
0100
0000
0000
0000
,  // measure 22
0010
0000
0000
0000
,  // measure 23
0001
0000
0000
0000
,  // measure 24
0100
0000
0100
0000
,  // measure 25
0001
0000
0000
0000
,  // measure 26
0010
0000
0000
0000
,  // measure 27
0100
0000
0000
0000
,  // measure 28
0010
0000
0010
0000
,  // measure 29
0001
0000
0000
0000
,  // measure 30
1000
0000
0000
0000
,  // measure 31
0001
0000
0001
0000
,  // measure 32
1000
0000
1000
0000
,  // measure 33
0100
0000
0100
0000
,  // measure 34
0100
0000
0100
0000
,  // measure 35
0000
0000
1001
0000
,  // measure 36
0000
0000
0000
0000
,  // measure 37
0010
0000
0000
0000
,  // measure 38
1000
0000
0000
0000
,  // measure 39
0001
0000
0000
0000
,  // measure 40
1000
0000
0000
0000
,  // measure 41
0100
0000
0000
0000
,  // measure 42
1000
0000
0000
0000
,  // measure 43
0010
0000
0010
0000
,  // measure 44
1000
0000
1000
0000
,  // measure 45
0100
0000
0000
0000
,  // measure 46
1000
0000
0000
0000
,  // measure 47
0001
0000
0000
0000
,  // measure 48
0010
0000
0000
0000
,  // measure 49
0001
0000
0000
0000
,  // measure 50
0100
0000
0000
0000
,  // measure 51
0001
0000
0001
0000
,  // measure 52
0000
0000
0000
0000
,  // measure 53
0100
0000
0000
0000
,  // measure 54
0010
0000
0000
0000
,  // measure 55
0100
0000
0000
0000
,  // measure 56
0001
0000
0000
0000
,  // measure 57
0010
0000
0000
0000
,  // measure 58
0100
0000
0000
0000
,  // measure 59
1000
0000
1000
0000
,  // measure 60
0100
0000
0100
0000
,  // measure 61
1000
0000
0000
0000
,  // measure 62
0010
0000
0000
0000
,  // measure 63
1000
0000
0000
0000
,  // measure 64
0100
0000
0000
0000
,  // measure 65
0010
0000
0000
0000
,  // measure 66
0001
0000
0000
0000
,  // measure 67
0100
0000
0100
0000
,  // measure 68
0001
0000
0001
0000
,  // measure 69
0010
0000
0000
0000
,  // measure 70
0010
0000
0000
0000
,  // measure 71
0010
0000
0000
0000
,  // measure 72
0010
0000
0000
0100
,  // measure 73
0000
0000
0000
0100
,  // measure 74
0000
0000
0000
0000
,  // measure 75
0000
1001
0000
0000
,  // measure 76
0000
0000
0000
0100
,  // measure 77
0000
0000
0000
1000
,  // measure 78
0000
0000
0000
0010
,  // measure 79
0000
0010
0000
0010
,  // measure 80
0000
0000
0000
1000
,  // measure 81
0000
0000
0000
0100
,  // measure 82
0000
0000
0000
0010
,  // measure 83
0000
0010
0000
0010
,  // measure 84
0000
0000
0000
0001
,  // measure 85
0000
0000
0000
0001
,  // measure 86
0000
0000
0000
1000
,  // measure 87
0000
0000
0000
1000
,  // measure 88
0000
0000
0000
0100
,  // measure 89
0000
0000
0000
0100
,  // measure 90
0000
0000
0000
1000
,  // measure 91
0000
0000
0000
1000
,  // measure 92
0000
0000
0000
0010
,  // measure 93
0000
0000
0000
1000
,  // measure 94
0000
0000
0000
0100
,  // measure 95
0000
0100
0000
0100
,  // measure 96
0000
0000
0000
1000
,  // measure 97
0000
0000
0000
0001
,  // measure 98
0000
0000
0000
0010
,  // measure 99
0000
0010
0000
0010
,  // measure 100
0000
0000
0000
0001
,  // measure 101
0000
0000
0001
0000
,  // measure 102
0000
0001
0000
1000
,  // measure 103
0000
0000
1000
0000
,  // measure 104
0000
1000
0000
0220
,  // measure 105
0000
0000
0000
0330
,  // measure 106
0000
0100
1000
1000
,  // measure 107
0010
1000
0001
0001
,  // measure 108
0010
0001
0100
0100
,  // measure 109
0010
1000
0100
0100
,  // measure 110
0000
1000
0000
0000
,  // measure 111
0000
0001
0000
0000
,  // measure 112
0000
0100
0000
0010
,  // measure 113
0000
1000
0000
0000
,  // measure 114
0000
0001
0000
0000
,  // measure 115
0000
1000
0000
0000
,  // measure 116
0000
0100
0000
0010
,  // measure 117
0000
0001
0000
0000
,  // measure 118
0000
0100
0000
0000
,  // measure 119
0000
0001
0000
0000
,  // measure 120
0000
0010
0000
0100
,  // measure 121
0000
1000
0000
0000
,  // measure 122
0000
0010
0000
0000
,  // measure 123
0000
0100
0000
0000
,  // measure 124
0000
0001
0000
0010
,  // measure 125
0000
0100
0000
0000
,  // measure 126
0000
1000
0000
0000
,  // measure 127
0000
0010
0000
0000
,  // measure 128
0000
1000
0000
0001
,  // measure 129
0000
0100
0000
0000
,  // measure 130
0000
0010
0000
0000
,  // measure 131
0000
0100
0000
0000
,  // measure 132
0000
0001
0000
0010
,  // measure 133
0000
0100
0000
0000
,  // measure 134
0000
0010
0000
0000
,  // measure 135
0000
0001
0000
0000
,  // measure 136
0000
1000
0000
0010
,  // measure 137
0000
0100
0000
0000
,  // measure 138
0000
0010
0000
0000
,  // measure 139
0000
1000
0000
0000
,  // measure 140
0000
0100
0000
1000
,  // measure 141
0000
0010
0000
0000
,  // measure 142
0000
1000
0000
0000
,  // measure 143
0000
0001
0000
0000
,  // measure 144
0000
0010
0000
0001
,  // measure 145
0000
0000
0000
0000
,  // measure 146
2002
0000
3003
0100
,  // measure 147
0000
0100
0000
0100
,  // measure 148
0000
0100
0000
0010
,  // measure 149
0000
0010
0000
0010
,  // measure 150
0000
0010
0000
1000
,  // measure 151
0000
1000
0000
1000
,  // measure 152
0000
1000
0000
0001
,  // measure 153
0000
0001
0000
0001
,  // measure 154
0000
0001
0000
1000
,  // measure 155
0000
0000
0000
0100
,  // measure 156
0000
0000
0000
1000
,  // measure 157
0000
0010
0000
0100
,  // measure 158
0000
0001
0000
0001
,  // measure 159
0000
0000
0000
0010
,  // measure 160
0000
0000
0000
0001
,  // measure 161
0000
0000
0000
1000
,  // measure 162
0000
0000
0000
0010
,  // measure 163
0000
0010
0000
0010
,  // measure 164
0000
0010
0000
1000
,  // measure 165
0000
1000
0000
1000
,  // measure 166
0000
1000
0000
0001
,  // measure 167
0000
0001
0000
0001
,  // measure 168
0000
0001
0000
0010
,  // measure 169
0000
0010
0000
0010
,  // measure 170
0000
0010
0000
0010
,  // measure 171
0000
0000
0000
0001
,  // measure 172
0000
0000
0000
0100
,  // measure 173
0000
0010
0000
1000
,  // measure 174
0000
0100
0000
0100
,  // measure 175
0000
0000
0000
1000
,  // measure 176
0000
0000
0000
0010
,  // measure 177
0000
1000
0000
0001
,  // measure 178
0000
0000
0000
0100
,  // measure 179
0000
0000
0000
0010
,  // measure 180
0000
0000
0000
1000
,  // measure 181
0000
0001
0000
1000
,  // measure 182
0000
0001
0000
1000
,  // measure 183
0000
0000
0000
0100
,  // measure 184
0000
0000
0000
1000
,  // measure 185
0000
0001
0000
1000
,  // measure 186
0000
0001
0000
0100
,  // measure 187
0000
0000
0000
0010
,  // measure 188
0000
0000
0000
1000
,  // measure 189
0000
0001
0000
1000
,  // measure 190
0000
0001
0000
1000
,  // measure 191
0000
0000
0000
0100
,  // measure 192
0000
0000
0000
0010
,  // measure 193
0000
0000
0000
0001
,  // measure 194
0000
0000
0000
0200
,  // measure 195
0000
0000
0000
0000
,  // measure 196
0300
0010
0000
0000
,  // measure 197
0000
1000
0000
0000
,  // measure 198
0000
0100
0000
0100
,  // measure 199
0000
0100
0000
0100
,  // measure 200
0000
1000
0000
0000
,  // measure 201
0000
0010
0000
0000
,  // measure 202
0000
1000
0000
1000
,  // measure 203
0000
1000
0000
1000
,  // measure 204
0000
0001
0000
0000
,  // measure 205
0000
0100
0000
0000
,  // measure 206
0000
0010
0000
0010
,  // measure 207
0000
0010
0000
0010
,  // measure 208
0000
1000
0000
0000
,  // measure 209
0000
0100
0000
0000
,  // measure 210
0000
1000
0000
0100
,  // measure 211
0000
0010
0000
0001
,  // measure 212
0000
0100
0000
0000
,  // measure 213
0000
0000
0000
0000
,  // measure 214
0000
0000
0000
2002
,  // measure 215
0000
0000
0000
0000
,  // measure 216
3003
0000
0000
0000
;

//---------------dance-single - ----------------
#NOTES:
     dance-single:
     :
     Beginner:
     3:
     0.138,0.390,0.015,0.000,0.000:
0000
0000
0000
0000
,
0000
0000
0000
0000
,
0000
0000
0000
0000
,
0000
0000
0000
0000
,
0000
0000
0000
0000
,
0000
0000
0000
0000
,
0000
0000
0000
0000
,
0000
0000
0000
0000
,
0010
0000
0000
0000
,
0000
0000
0000
0000
,
0010
0000
0000
0000
,
0000
0000
0000
0000
,
0100
0000
0000
0000
,
0000
0000
0000
0000
,
0100
0000
0000
0000
,
0000
0000
0000
0000
,
0001
0000
0000
0000
,
0000
0000
0000
0000
,
1000
0000
0000
0000
,
0000
0000
0000
0000
,
0100
0000
0000
0000
,
0000
0000
0000
0000
,
1000
0000
0000
0000
,
0000
0000
0000
0000
,
0010
0000
0000
0000
,
0000
0000
0000
0000
,
1000
0000
0000
0000
,
0000
0000
0000
0000
,
0001
0000
0000
0000
,
0000
0000
0000
0000
,
1000
0000
0000
0000
,
0000
0000
0000
0000
,
0100
0000
0000
0000
,
0000
0000
0000
0000
,
0000
0000
1001
0000
,
0000
0000
0000
0000
,
0010
0000
0000
0000
,
0000
0000
0000
0000
,
1000
0000
0000
0000
,
0000
0000
0000
0000
,
0001
0000
0000
0000
,
0000
0000
0000
0000
,
1000
0000
0000
0000
,
1000
0000
0000
0000
,
1000
0000
0000
0000
,
0000
0000
0000
0000
,
0100
0000
0000
0000
,
0000
0000
0000
0000
,
1000
0000
0000
0000
,
0000
0000
0000
0000
,
0010
0000
0010
0000
,
0000
0000
0000
0000
,
1000
0000
0000
0000
,
0000
0000
0000
0000
,
0001
0000
0000
0000
,
0000
0000
0000
0000
,
0010
0000
0000
0000
,
0000
0000
0000
0000
,
0001
0000
0000
0000
,
0001
0000
0000
0000
,
0001
0000
0000
0000
,
0000
0000
0000
0000
,
1000
0000
0000
0000
,
0000
0000
0000
0000
,
0010
0000
0000
0000
,
0000
0000
0000
0000
,
0100
0000
0000
0000
,
0100
0000
0000
0000
,
0100
0000
0000
0000
,
0000
0000
0000
0000
,
0010
0000
0000
0000
,
0000
0000
0000
1000
,
0000
0000
0000
0000
,
0000
0000
0000
0001
,
0000
0001
0000
0000
,
0000
0000
0000
1000
,
0000
0000
0000
0000
,
0000
0000
0000
0100
,
0000
0000
0000
0000
,
0000
0000
0000
1000
,
0000
0000
0000
0000
,
0000
0000
0000
0010
,
0000
0000
0000
0000
,
0000
0000
0000
1000
,
0000
0000
0000
1000
,
0000
0000
0000
1000
,
0000
0000
0000
1000
,
0000
0000
0000
1000
,
0000
0000
0000
0000
,
0000
0000
0000
0000
,
0000
0000
0000
0000
,
0000
0000
0000
0001
,
0000
0000
0000
0000
,
0000
0000
0000
1000
,
0000
0000
0000
0000
,
0000
0000
0000
0100
,
0000
0000
0000
0000
,
0000
0000
0000
1000
,
0000
0000
0000
0000
,
0000
0000
0000
0010
,
0000
0000
0000
0000
,
0000
0000
0000
0010
,
0000
0000
0000
0000
,
0000
0000
0000
1000
,
0000
0000
0000
0000
,
0000
0010
0000
0000
,
0000
1000
0000
0000
,
0000
0001
0000
0001
,
0000
0100
0100
0100
,
0100
0100
0000
0000
,
0000
0000
0000
0000
,
0000
0010
0000
0000
,
0000
0000
0000
0000
,
0000
1000
0000
0000
,
0000
0000
0000
0000
,
0000
0001
0000
0000
,
0000
0000
0000
0000
,
0000
1000
0000
0000
,
0000
0000
0000
0000
,
0000
0100
0000
0000
,
0000
0000
0000
0000
,
0000
1000
0000
0000
,
0000
0000
0000
0000
,
0000
0010
0000
0000
,
0000
0000
0000
0000
,
0000
1000
0000
0000
,
0000
0000
0000
0000
,
0000
0001
0000
0000
,
0000
0000
0000
0000
,
0000
0010
0000
0000
,
0000
0000
0000
0000
,
0000
0001
0000
0000
,
0000
0000
0000
0000
,
0000
0100
0000
0000
,
0000
0000
0000
0000
,
0000
0010
0000
0000
,
0000
0000
0000
0000
,
0000
0100
0000
0000
,
0000
0000
0000
0000
,
0000
0100
0000
0000
,
0000
0000
0000
0000
,
0000
0001
0000
0000
,
0000
0000
0000
0000
,
0000
0001
0000
0000
,
0000
0000
0000
0000
,
0000
0000
0000
0100
,
0000
0000
0000
0000
,
0000
0000
0000
0100
,
0000
0000
0000
0000
,
0000
0000
0000
0010
,
0000
0000
0000
0000
,
0000
0000
0000
0010
,
0000
0000
0000
0000
,
0000
0000
0000
1000
,
0000
0000
0000
0000
,
0000
0000
0000
1000
,
0000
0000
0000
0000
,
0000
0000
0000
0001
,
0000
0000
0000
0000
,
0000
0000
0000
0001
,
0000
0000
0000
0000
,
0000
0000
0000
0100
,
0000
0000
0000
0000
,
0000
0000
0000
0100
,
0000
0000
0000
0000
,
0000
0000
0000
0001
,
0000
0000
0000
0000
,
0000
0000
0000
0001
,
0000
0000
0000
0000
,
0000
0000
0000
0010
,
0000
0000
0000
0000
,
0000
0000
0000
0010
,
0000
0000
0000
0000
,
0000
0000
0000
0100
,
0000
0000
0000
0000
,
0000
0000
0000
0100
,
0000
0000
0000
0000
,
0000
0000
0000
1000
,
0000
0000
0000
1000
,
0000
0000
0000
1000
,
0000
0000
0000
1000
,
0000
0000
0000
0001
,
0000
0000
0000
0001
,
0000
0000
0000
0001
,
0000
0000
0000
0001
,
0000
0000
0000
0100
,
0000
0000
0000
0100
,
0000
0000
0000
0100
,
0000
0000
0000
0100
,
0000
0000
0000
0010
,
0000
0000
0000
0010
,
0000
0000
0000
0010
,
0000
0000
0000
0010
,
0000
0000
0000
1000
,
0000
0000
0000
0000
,
0000
0010
0000
0000
,
0000
0000
0000
0000
,
0000
1000
0000
0000
,
0000
0000
0000
0000
,
0000
0100
0000
0000
,
0000
0000
0000
0000
,
0000
1000
0000
0000
,
0000
0000
0000
0000
,
0000
0001
0000
0000
,
0000
0000
0000
0000
,
0000
0010
0000
0000
,
0000
0000
0000
0000
,
0000
0001
0000
0001
,
0000
0001
0000
0001
,
0000
0001
0000
0001
,
0000
0001
0000
0001
,
0000
0001
0000
0000
,
0000
0000
0000
0000
,
0000
0000
0000
1001
;

//---------------dance-single - ----------------
#NOTES:
     dance-single:
     :
     Medium:
     11:
     0.515,0.863,0.285,0.058,0.000:
0000
0000
0000
0000
,
0000
0000
0000
0000
,
0000
0000
0000
0000
,
0000
0000
0000
0000
,
0000
0000
0000
0000
,
0000
0000
0000
0000
,
0000
0000
0000
0000
,
0000
0000
0000
0000
,
0010
0000
0000
1000
,
0000
0000
0100
0000
,
0010
0000
0000
0001
,
0000
0000
1000
0000
,
0010
0000
0000
0100
,
0000
0000
0010
0000
,
0100
0000
0220
0000
,
0000
0000
0330
0000
,
0010
0000
1000
0000
,
0100
0000
0010
0000
,
0001
0010
0100
0000
,
1001
0000
1001
0000
,
0010
0000
1000
0000
,
0100
0000
0010
0000
,
0001
1000
0100
0000
,
1001
0000
1001
0000
,
0100
0000
1000
0000
,
0001
0000
0100
0000
,
0010
1000
0100
0000
,
1001
0000
1001
0000
,
0100
0000
0001
0000
,
1000
0000
0100
0000
,
0010
0001
0010
0001
,
0100
0001
1000
0000
,
0100
0000
0100
0000
,
0100
0000
0100
0000
,
0010
0000
2002
0000
,
0000
0000
3003
0000
,
0010
0000
1000
0000
,
0100
0000
0010
0000
,
0001
0000
1000
0000
,
0100
0000
0100
0000
,
1000
0000
0001
0000
,
0100
0000
0010
0000
,
1000
0000
0010
0000
,
0100
0000
0010
0000
,
1000
0000
0001
0000
,
0010
0000
0100
0000
,
1000
0000
0001
0000
,
0100
0000
0100
0000
,
0001
0000
1000
0000
,
0100
0000
0010
0000
,
0001
0000
1001
0000
,
0100
0100
0100
0000
,
1000
0000
0001
0000
,
0100
0000
0010
0000
,
1000
0000
0001
0000
,
0010
0000
0010
0000
,
0001
0000
1000
0000
,
0010
0000
0100
0000
,
0010
0000
1000
0000
,
0100
0000
0010
0000
,
0001
0000
1000
0000
,
0001
0000
0100
0000
,
0010
0000
1000
0000
,
0100
0000
0100
0000
,
1000
0000
0001
0000
,
0100
0000
0010
0000
,
1000
0000
0100
0000
,
1000
0001
1000
0001
,
0100
0000
0010
0000
,
1000
0000
0001
0000
,
1000
0100
0010
0000
,
0001
1000
0100
1000
,
0000
0010
0000
0100
,
0000
0001
0000
1000
,
0000
2002
0000
3003
,
0000
0100
0000
1000
,
0000
0001
0000
0000
,
0100
0001
0000
1000
,
0000
0100
0000
0000
,
1000
0100
0000
0010
,
0000
0001
0000
0000
,
1000
0010
0000
0100
,
0000
0010
0000
0000
,
1000
0100
0000
1000
,
0000
0010
0000
0100
,
0000
0010
0000
1000
,
0000
0100
0000
0010
,
0000
0001
0000
1000
,
0000
0010
0000
0100
,
0000
0001
0000
1000
,
0001
1000
0000
0001
,
1000
0001
0000
0100
,
0000
0010
0000
0000
,
0100
0001
0000
0010
,
0000
0100
0000
0000
,
0010
0001
0000
1000
,
0000
0100
0000
0000
,
1000
0010
0000
0100
,
0000
0010
0000
0000
,
1000
0100
0000
1000
,
0000
0000
0001
0000
,
0000
0100
0000
0010
,
0000
0000
0100
0000
,
0000
0001
0000
0010
,
0010
0100
1000
0010
,
0100
0000
0010
0000
1000
0000
0001
0010
,
0100
0000
1000
0000
0001
0000
1000
0100
,
0010
0000
0001
0000
1000
0000
0010
0100
,
0001
0000
0100
0010
0100
0010
0100
0010
,
0100
0001
0000
0100
,
0000
0010
0000
1000
,
0000
0100
0000
1000
,
0000
1100
0000
1100
,
0000
1000
0000
0010
,
0000
0100
0000
0001
,
0000
1000
0000
0010
,
0000
1010
0000
1010
,
0000
1000
0000
0001
,
0000
0010
0000
0001
,
0000
0100
0000
0010
,
0000
0101
0000
0101
,
0000
0010
0000
0000
,
0110
0000
0110
0000
,
0000
0010
0000
0000
,
1001
0000
1001
0000
,
0000
0100
0000
1000
,
0000
0010
0000
0100
,
0000
0001
0000
1000
,
0000
1001
0000
1001
,
0000
0100
0000
1000
,
0000
0010
0000
0100
,
0000
0010
0000
1000
,
0000
1010
0000
1010
,
0000
0100
0000
1000
,
0000
0001
0000
0100
,
0000
0010
0000
0100
,
0000
0101
0000
0101
,
0000
0010
0000
0000
,
0101
0000
0101
0000
,
0000
0010
0000
0000
,
0101
0000
0101
0000
,
0000
0010
0000
0000
,
1100
0000
1100
0000
,
0000
0010
0000
1000
,
0001
1000
0000
0000
,
0001
1000
0001
0100
,
0000
0010
0000
1000
,
0000
0001
0000
1000
,
0100
1000
0100
0000
,
1000
0100
0000
1000
,
0000
0001
0000
0100
,
0000
0010
0000
0100
,
0000
0001
0000
1000
,
0000
0100
0000
0010
,
0000
0001
1000
0001
,
1000
0001
0000
0100
,
0000
0010
0000
1000
,
0000
0100
0000
1000
,
0000
0010
0000
0100
,
0000
0001
0000
1000
,
0001
1000
0001
0000
,
0000
0000
0000
0010
,
0000
0001
0000
0100
,
0000
0010
0000
1000
,
0001
1000
0001
0000
,
1000
0001
0000
0100
,
0000
0010
0000
1000
,
0000
0100
0000
0010
,
0000
0001
0000
1000
,
0000
0010
0000
0100
,
0000
0001
1000
0001
,
1000
0001
0000
0100
,
0000
0010
0000
1000
,
0000
0100
0000
1000
,
0000
0010
0000
0100
,
0000
0001
0000
1000
,
0010
1000
0010
0000
,
0000
0000
0000
0100
,
0000
0010
0000
1000
,
0000
0100
0000
0010
,
0000
0001
0000
0001
,
0000
0001
0000
0100
,
0000
0010
0000
1000
,
0000
0001
0000
0010
,
0000
0100
0000
0100
,
0000
0100
0000
0010
,
0000
0001
0000
1000
,
0000
0010
0000
0100
,
0000
0010
0000
0010
,
0000
0010
0000
1000
,
0000
0100
0000
1000
,
0000
0001
0000
1000
,
0000
0010
0000
0100
,
0000
0001
0000
0010
,
0100
1000
0010
0100
,
0001
0100
0000
0001
,
0000
0010
0000
0100
,
0000
1000
0100
0010
,
0000
1001
0000
1001
,
0000
0100
0000
0001
,
0000
0010
0000
0100
,
0000
1000
0001
0010
,
0000
1001
0000
1001
,
0000
0010
0000
0001
,
0000
1000
0000
0010
,
0000
0100
0001
0010
,
0000
1001
0000
1001
,
0000
0010
0000
1000
,
0000
0001
0000
0010
,
0000
0100
1000
0010
,
0100
0010
1000
0001
,
0000
0010
0000
0010
,
0000
0010
0000
0010
,
0000
0100
0000
2002
,
0000
0000
0000
3003
;

//---------------dance-single - ----------------
#NOTES:
     dance-single:
     :
     Challenge:
     18:
     1.000,1.000,0.606,0.175,0.051:
0000
0000
0000
0000
,
0000
0000
0000
0000
,
0000
0000
0000
0000
,
0000
0000
0000
0000
,
0000
0000
0000
0000
,
0000
0000
0000
0000
,
0000
0000
0000
0000
,
0000
0000
0000
0000
,
1010
0000
0000
1001
,
0000
0000
0110
0000
,
0101
0000
0000
1100
,
0000
0000
0011
0000
,
1100
0000
0000
0101
,
0000
0000
1010
0000
,
0101
0000
2002
0000
,
0000
0000
3003
0000
,
0010
1000
0100
1000
,
0001
0010
0100
1000
,
0010
0100
0001
1000
,
1001
0000
1100
0000
,
1000
0010
0100
0001
,
0010
0100
0010
0001
,
1000
0010
0100
0010
,
0110
0000
0101
0000
,
0010
1000
0100
0010
,
0001
0100
1000
0100
,
0010
1000
0100
0010
,
0011
0000
1100
0000
,
0010
1000
0001
0010
,
0100
1000
0010
0001
,
0010
1000
0100
0010
,
0001
0100
0001
0000
0001
1000
0001
0000
,
1000
0100
0001
0100
,
1000
0100
0001
0100
,
0010
0001
0202
0000
,
0000
0000
0303
0000
,
0010
1000
0100
1000
,
0001
0100
0010
1000
,
0001
0000
0100
0010
0100
0000
0010
0000
,
1000
0001
0100
0010
,
1000
0100
1000
0001
,
1000
0100
0010
0001
,
1000
0010
0100
0010
,
1000
0100
0010
0001
,
0100
1000
0100
0010
,
1000
0100
0010
0001
,
1000
0000
0100
0010
0100
0000
1000
0000
,
0001
0100
0010
1000
,
0100
1000
0010
0100
,
0010
1000
0100
0010
,
0001
0100
0202
0303
,
1000
0001
1000
0000
2002
0000
3003
0000
,
0110
0100
0001
0010
,
0001
1000
0100
0010
,
0001
0000
0100
0001
1000
0000
0010
0000
,
1000
0100
1000
0001
,
0010
1000
0010
0001
,
1000
0010
0100
0010
,
1000
0100
0010
0001
,
0100
0010
1000
0100
,
0010
0001
0100
1000
,
0100
0010
1000
0100
,
0010
0000
0001
1000
0100
0000
0010
0000
,
0001
0100
0010
0100
,
0001
0010
1000
0010
,
0001
1000
0100
0010
,
0001
0100
0010
0100
,
0001
0100
0001
0000
1000
0010
1000
0000
,
0001
0100
0010
0000
0100
0000
0001
1000
,
0100
0000
1000
0000
0010
1000
0100
0000
,
1000
0000
0010
0100
0001
0000
0010
0000
,
0001
0000
0100
0000
0010
0000
0100
0001
,
1000
0000
0010
0000
1000
0100
0010
0000
,
0001
0000
0100
0010
1000
0000
0100
0000
,
0010
0000
2002
0000
3003
0000
1000
0010
,
1000
2020
3030
0101
,
0100
0010
1000
0100
,
0010
0001
1000
0010
,
0100
0001
1000
0100
,
0010
0001
0100
1000
,
0100
0010
1000
0100
,
0010
0001
1000
0010
,
0001
0010
1000
0100
,
0010
0001
0000
1000
,
0100
1000
2002
3003
,
1100
1000
0010
0100
,
0001
0010
0022
0033
,
0101
0100
0010
0100
,
0001
1000
2002
3003
,
1100
1000
0010
0100
,
0001
0022
0033
1000
,
0001
0202
0303
1010
,
1000
0100
1000
0001
,
0010
0100
1000
0010
,
0100
0001
0010
0100
,
1000
0001
0100
1000
,
0100
0010
1000
0100
,
0010
0001
1000
0010
,
0001
0010
1000
0100
,
1000
0000
0001
0000
0100
0000
0010
0100
,
0010
0000
0100
0000
0001
0100
0001
0000
,
1000
0000
0010
1000
0010
0000
0100
0001
,
0100
0000
0010
0000
1000
0001
1000
0000
,
0100
0000
0010
0001
0010
0000
0110
0000
,
0110
0011
0101
1010
,
1001
0000
0000
0000
0010
0000
0001
0000
0100
0000
0010
1000
0100
0010
0001
0000
,
0100
0000
0010
0000
1000
0000
0100
0000
0010
0000
0001
1000
0100
1000
0010
0000
,
0100
0000
0010
0000
1000
0000
0100
0000
0010
0000
0001
0100
1000
0100
0010
0000
,
1000
0000
0100
0000
0010
0001
0100
0010
1000
0100
1000
0010
0100
0010
1000
0100
,
0010
0001
0100
0010
1000
0000
0000
0000
0100
0000
0000
0000
1000
0000
0000
0000
,
0010
0100
0001
0010
,
0100
0000
1000
0001
0100
0000
0010
0100
,
0001
0000
0010
0100
1000
0000
0001
0100
,
0010
1000
0001
0000
1000
0000
0010
0000
,
0100
0001
0010
0100
,
1000
0000
0010
1000
0100
0000
1000
0001
,
0010
0000
0100
1000
0001
0000
0100
0001
,
0010
0100
1000
0000
0010
0000
0100
0000
,
0010
1000
0100
0010
,
0001
0000
0100
0001
1000
0000
0100
1000
,
0010
0000
1000
0001
0100
0000
0010
1000
,
0100
0010
0001
0000
0100
0000
0010
0000
,
1010
0100
1001
1000
,
0100
0010
0001
1000
,
1010
0100
0101
0001
,
1000
0000
0010
1000
0010
0000
0100
0000
,
0001
0000
1000
0100
1000
0000
0010
0000
,
0100
0000
0010
0001
0010
0000
0100
0000
,
0010
0000
1000
0001
1000
0000
0100
0000
,
1000
0000
0010
1000
0100
0000
1000
0000
,
0010
0000
1000
0100
0010
0000
0001
0000
,
1000
0000
0001
0010
0100
0000
0010
0000
,
0001
0000
1000
0001
0100
0000
0010
0000
,
1000
0000
0100
1000
0010
0000
0100
0000
,
0010
0000
1000
0100
0010
0000
0001
0000
,
0010
0000
0001
1000
0100
0000
1000
0000
,
0100
0000
1000
0010
0100
0000
0001
0000
,
0100
0010
0100
0010
,
1010
0100
1001
1000
,
0100
0010
0001
1000
,
1010
0100
1100
1000
,
0010
0100
0001
0100
,
0110
0100
0101
0010
,
0100
0010
0100
0000
0000
0000
1001
0000
,
1100
0000
0101
0000
0001
0010
0100
1000
,
0001
0000
0101
0000
0110
0000
0010
0100
,
0010
0000
1000
0010
1000
0000
0001
1000
,
0001
0000
0100
0001
0100
0000
0010
0000
,
1000
0100
1000
0010
,
0100
0001
0000
0100
,
0001
0100
0010
1000
,
0100
1000
0001
0100
,
0000
0010
0000
0110
,
0000
0101
0000
0010
,
0000
1000
0100
0001
,
0100
1000
0000
0010
,
0000
1000
0000
1100
,
0000
0101
0000
1010
,
0000
0001
1000
0100
,
1000
0001
0000
1000
,
0100
0010
0011
0000
,
1000
0000
0001
0000
0100
0010
0100
0000
,
0001
0100
0001
0000
1000
0100
1000
0000
,
0010
0100
0010
0000
1000
0100
1000
0000
,
0010
1000
0100
1000
,
0001
0100
0000
0010
,
0100
0001
1000
0100
,
0001
0100
1000
0010
,
0000
0100
0000
0110
,
0000
1001
0000
0100
,
0000
1000
0010
0001
,
0010
1000
0000
0100
,
0000
1000
0000
1010
,
0000
0101
0000
1001
,
0000
0010
1000
0100
,
1000
0001
0000
0010
,
0001
0100
0101
0000
,
0010
0000
1000
0000
0100
1000
0100
0000
,
1000
0010
0100
0001
,
0010
0100
1000
0010
,
0100
0110
0000
0101
,
0000
1100
0000
1000
,
0010
0100
0001
0010
,
0100
1000
0010
0100
,
0001
0101
0000
1100
,
0000
1001
0000
0010
,
1000
0100
1000
0001
,
0010
0100
1000
0010
,
0100
0110
0000
0101
,
0000
1100
0000
1001
,
1000
0100
1000
0001
,
0010
0100
1000
0010
,
1000
0000
0100
0000
0010
0000
0001
0100
,
0010
1000
0100
1000
0010
0100
0001
0000
,
1000
0010
0110
0110
,
1001
0010
0100
0001
,
1000
0100
1000
0010
,
0100
0000
0001
0100
0010
1000
0100
1000
,
0001
0100
0010
0000
0000
0000
1001
0000
,
0000
1000
0001
0100
,
0010
1000
0100
0001
,
0100
0000
0010
0001
0100
0001
1000
0100
,
0010
0001
0100
0000
0000
0000
0110
0000
,
0000
0001
1000
0100
,
1000
0010
0100
0010
,
1000
0000
0100
1000
0010
0100
0010
1000
,
0001
1000
0100
0000
0000
0000
1100
0000
,
0000
1000
0001
0100
,
0010
1000
0100
0010
,
0001
0000
0100
0010
1000
0100
1000
0001
,
0100
0010
1000
0001
0100
0010
0100
0001
,
1000
0010
0001
0010
,
1000
0010
0001
0010
,
1000
0100
0010
2002
,
0000
0000
0000
3003
;
