#TITLE:Qubism;
#SUBTITLE:;
#ARTIST:Hate vs Brilliance;
#TITLETRANSLIT:;
#SUBTITLETRANSLIT:;
#ARTISTTRANSLIT:;
#GENRE:Hard Renaissance;
#CREDIT:;
#BANNER:Qubism.png;
#BACKGROUND:Qubism-bg.png;
#LYRICSPATH:;
#CDTITLE:cdtitle.png;
#MUSIC:Qubism.ogg;
#OFFSET:-1.383763;
#SAMPLESTART:18.717096;
#SAMPLELENGTH:10.666666;
#SELECTABLE:YES;
#BPMS:0.000000=180.000000
,208.000000=90.000000
,224.500000=180.000000
;
#STOPS:208.000000=1.000000,
240.500000=1.167000
;
#BGCHANGES:;
#KEYSOUNDS:;
#ATTACKS:;

//---------------dance-single - ----------------
#NOTES:
     dance-single:
     :
     Beginner:
     4:
     0.240373,0.330970,0.179365,0.145200,0.000000,197.000000,176.000000,21.000000,17.000000,0.000000,0.000000,0.240373,0.330970,0.179365,0.145200,0.000000,197.000000,176.000000,21.000000,17.000000,0.000000,0.000000:
0000
0000
0000
0000
,
0000
0000
0000
0000
,
0000
0000
0000
0000
,
0000
0000
0000
0000
,
0000
0000
0000
0000
,
0001
0000
1000
0000
,
0001
0000
1000
0000
,
0100
0000
0010
0000
,
0100
0000
1001
1001
,
1001
0000
1000
0000
,
0010
0000
0100
0000
,
0001
0000
1000
0000
,
2002
0000
3003
0000
,
0001
0000
0010
0000
,
0100
0000
1000
0000
,
0001
0000
0100
0000
,
0010
0000
1000
0000
,
0001
0000
1000
0000
,
0100
0000
0010
0000
,
0001
0000
0100
0000
,
0010
0000
1001
1001
,
1001
0000
1000
0000
,
0100
0000
0010
0000
,
0001
0000
0100
0000
,
0010
0000
1000
0000
,
0001
0001
0001
0000
,
0010
0010
0010
0000
,
0100
0100
0100
0000
,
1000
1000
1000
0000
,
1002
0000
0103
0000
,
0100
0100
0100
0000
,
2001
0000
3100
0000
,
0100
0100
0200
0000
,
0300
1001
2001
0000
,
3010
0010
0010
0000
,
1002
0000
0013
0010
,
0100
0100
0010
0010
,
0000
1001
0000
0001
,
0000
0010
0000
0001
,
0000
1000
0000
0010
,
0000
1000
0000
0001
,
0000
0010
0000
0100
,
0000
1000
0000
0010
,
0000
0100
0000
0001
,
0000
1001
1001
1001
,
0000
1000
0000
0010
,
0000
0100
0000
0001
,
0000
0010
0000
0100
,
0000
1000
0000
0001
,
0001
0000
0100
0000
,
0010
0000
1000
0000
,
0001
1000
0001
1000
,
0001
2000
0000
0000
0000
3200
0000
0000
,
0000
0320
0000
0000
0000
0032
0000
0000
,
0000
1003
0000
0001
0000
1000
0000
0001
,
0000
0100
0000
0010
0000
0100
0000
0010
,
0000
1000
0000
0000
0000
1000
0000
0000
,
0000
0100
0000
0000
0000
0100
0000
0000
,
0000
0010
0000
0000
0000
0001
0000
0000
,
0000
1000
0000
1000
0000
0001
0000
0001
,
0000
1000
1000
1000
,
0000
0100
0100
0100
,
0000
0010
0010
0010
,
0000
0001
0001
0001
,
0000
1000
1000
1000
,
0000
0010
0010
0010
,
0000
0100
0100
0100
,
0000
0001
0001
0001
,
0000
1000
0001
1000
,
0000
0001
1000
0001
,
0000
0010
0100
0010
,
0000
0100
0010
0100
,
0000
2002
0000
3003
,
1001
2002
0000
3003
,
1001
0100
0100
0100
,
0100
0000
2002
0000
,
0000
0000
0000
0000
,
0000
0000
3003
0000
;

//---------------dance-single - ----------------
#NOTES:
     dance-single:
     :
     Easy:
     8:
     0.402655,0.463358,0.204988,0.179365,0.017082,330.000000,306.000000,24.000000,21.000000,0.000000,0.000000,0.402655,0.463358,0.204988,0.179365,0.017082,330.000000,306.000000,24.000000,21.000000,0.000000,0.000000:
0000
0000
0000
0000
,
0000
0000
0000
0000
,
0000
0000
0000
0000
,
0000
0000
0000
0000
,
0000
0000
0000
0000
,
0001
0010
0001
1000
,
0010
1000
0001
0010
,
0100
1000
0001
0100
,
0001
1000
0100
0110
,
1001
0001
0100
0010
,
1000
0100
1000
0010
,
0100
0001
0010
0100
,
2001
0000
0002
3003
,
1000
1000
0010
0010
,
0100
0000
0100
0000
0001
0000
1000
0001
,
0010
0010
0001
0001
,
0100
0000
0100
0000
0010
0000
0100
0010
,
1000
1000
0001
0001
,
0010
0000
0010
0000
0001
0000
0100
0010
,
1000
1000
0100
0100
,
0010
0000
0000
0000
0010
0000
0000
0000
0001
0000
0000
1000
0000
0000
1000
0000
,
0001
0001
0100
0100
,
0010
0000
0010
0000
1000
0000
0100
1000
,
0010
0010
0100
0100
,
0001
0000
0001
0000
0010
0000
0100
1000
,
0001
0000
1000
0010
1000
0000
0001
0010
,
0001
0000
1000
0010
1000
0000
0001
0000
,
1000
0100
0010
0001
,
1000
0100
0010
0001
1000
0000
0100
0000
,
0012
0000
0103
0010
,
1000
0001
0110
0000
,
1001
0000
1000
0100
0020
0000
0000
0000
,
0031
0000
0100
0010
2000
0000
0000
0000
,
3000
1001
0002
0023
,
0130
0000
1000
0001
1000
0000
0000
0000
,
1001
1000
1010
0101
,
0001
0000
1000
0001
1000
0001
1000
0001
,
0000
1001
0001
0100
,
0010
0000
1000
0000
0001
0000
1000
0100
,
1000
0000
0001
0000
0100
0000
0010
1000
,
0010
0000
0100
0000
0001
0000
0010
0001
,
0010
0000
0100
0000
1000
0000
0001
0100
,
0001
0000
1000
0000
0010
0000
1000
0001
,
1000
0100
0010
0001
,
0000
0000
1000
0000
0000
0001
0000
0000
1000
0000
0000
0000
0001
0000
0000
0000
,
1001
0000
1000
0000
0010
0000
0100
0001
,
0100
0000
0010
0000
1000
0000
0001
0010
,
0001
0000
1000
0000
0100
0000
1000
0001
,
1000
0010
0100
0110
,
0001
1000
0010
1000
,
0001
0010
0100
1000
,
1001
0110
1001
0110
,
1001
0002
0000
0000
0000
0023
0000
0000
,
0000
0230
0000
0000
0000
2300
0000
0000
,
0000
3001
0000
0100
0000
0010
0000
1000
,
0000
0100
0000
0010
0000
0001
0000
1000
,
0000
0001
0000
0001
0000
0100
0000
0100
,
0000
0010
0000
0010
0000
1000
0000
1000
,
0000
0001
0000
0010
0000
0100
0000
1000
,
0000
0001
0010
0100
1000
0001
0000
1000
,
0001
0000
1000
0000
1000
0000
0010
0100
,
0010
0000
0100
0000
0100
0000
0001
0100
,
0001
0000
1000
0000
0100
0000
0010
0001
,
1000
0000
0001
0000
0100
0000
0010
1000
,
0001
0000
1000
0000
0100
0000
0010
0001
,
0100
0000
0010
0000
1000
0000
0100
0010
,
0001
0000
0100
0000
0100
0000
0010
1000
,
0001
0000
0000
0000
1000
0000
0000
1000
0000
0000
1000
0000
0001
0000
0000
0001
,
0000
0001
1000
0000
0100
0000
0010
0000
,
0100
1000
0001
0000
0100
0000
0010
0000
,
0100
0001
1000
0000
0100
0000
0010
0000
,
0001
0000
1000
0100
0010
0001
1000
0000
,
0001
2002
0000
3003
,
1001
0220
0000
0330
,
0110
2001
3200
0320
,
0032
0000
0003
0000
0000
0000
2002
0000
0000
0000
0000
0000
,
0000
0000
0000
0000
,
0000
0000
3003
0000
;

//---------------dance-single - ----------------
#NOTES:
     dance-single:
     :
     Medium:
     11:
     0.523452,0.562649,0.324564,0.170823,0.059788,429.000000,391.000000,38.000000,20.000000,4.000000,0.000000,0.523452,0.562649,0.324564,0.170823,0.059788,429.000000,391.000000,38.000000,20.000000,4.000000,0.000000:
0000
0000
0000
0000
,
0000
0000
0000
0000
,
0000
0000
0000
0000
,
0000
0000
0000
0000
,
0000
0000
0000
0000
,
0001
0100
0001
1000
,
0100
1000
0001
0100
,
0010
1000
0001
0010
,
0001
1000
0100
0110
,
1001
1000
0010
0100
,
0001
0010
0001
0100
,
0010
1000
0100
0010
,
2002
0000
0000
0000
3003
0000
0000
0000
2000
3000
0002
0000
2000
0000
0003
0000
,
3001
0100
0010
0000
0010
0100
0001
0000
,
1000
0100
0010
0000
0010
0100
1000
0000
,
0001
0100
0010
0000
1000
0100
0010
0000
,
0100
1000
0010
0000
0100
0001
0010
0000
,
0100
1000
0001
0000
0001
1000
0010
0000
,
0100
0001
1000
0000
1000
0001
0010
0000
,
0100
1000
0010
0000
0010
1000
0100
0000
,
0010
0000
0001
0000
0100
0000
0000
0000
0110
0000
0000
1001
0000
0000
0001
0000
,
1000
0100
0010
0000
0100
0010
0001
0000
,
0001
0100
0010
0000
0100
0010
1000
0000
,
0100
0010
0001
0000
0100
0010
1000
0000
,
0100
1000
0010
0000
0100
0001
0010
0000
,
0001
0001
0010
0010
,
0100
0100
1000
1000
,
0001
0100
0001
0100
0001
1000
0100
1000
,
0100
0010
0001
0100
0010
1000
0001
0000
,
2001
0000
0000
0000
3100
0010
0001
0100
,
0010
0000
1000
0000
0100
0010
0100
0000
,
1001
0000
0001
0100
0020
0000
1030
0001
,
0010
0000
0010
0001
0200
0000
0310
0000
,
MMMM
1001
2000
3002
,
0103
0010
1000
0001
0010
0000
0110
0000
,
1001
0000
0001
0100
1000
0000
1000
0100
,
0001
0000
0010
0001
0100
0010
1000
0001
,
0010
0000
1001
0000
0001
0100
0010
0000
,
0100
0010
1000
0100
0010
0100
1000
0000
,
0001
0100
0010
0000
0100
0010
1000
0000
,
0010
1000
0001
0010
0100
1000
0001
0000
,
1000
0001
0010
0000
0100
0010
0001
0000
,
1000
0010
0100
0001
0010
0100
1000
0000
,
0001
0100
0010
0000
1000
0100
0010
0001
,
0000
0000
0011
0000
0000
1001
0000
0000
1010
0000
0000
0000
1001
0000
0000
0000
,
0001
0010
0100
0000
1000
0010
0100
0000
,
0001
0100
0010
1000
0100
0010
0001
0000
,
1000
0100
0010
0000
0001
0100
0010
0000
,
1000
0001
0010
0100
1000
0000
1001
0000
,
0001
0100
0010
1000
,
0001
0000
0010
0000
0100
0000
1000
0000
0010
0000
0100
0000
,
0001
0000
0001
0000
1000
0001
1000
0000
0001
0000
1000
0000
,
1001
0001
0100
0001
0100
0010
1000
0001
,
0000
1000
0100
1000
0100
0010
0001
1000
,
0000
0001
1000
0000
0010
0000
0100
0000
0001
0000
0010
0000
0001
0000
0100
0000
,
0010
1000
0100
0001
0100
1000
0010
0001
,
0010
1000
0000
1000
0000
0010
0000
0010
,
0000
0100
0000
0100
0000
0001
0000
0001
,
0000
1000
0000
0100
0000
0010
0000
0001
,
0000
0100
0010
0100
0010
1000
0100
0010
,
0001
0000
0101
0000
1010
0000
0010
1000
,
0100
0000
1100
0000
0011
0000
0010
0001
,
0100
0000
0110
0000
1001
0000
1000
0100
,
0010
0001
1000
0000
0001
0100
0010
1000
,
0001
0000
0110
0000
1001
0000
1000
0001
,
0010
0000
0110
0000
1001
0000
0001
1000
,
0010
0000
1010
0000
0101
0000
0001
0100
,
0010
0000
0000
0000
1001
0000
0000
1100
0000
0000
1000
0000
0001
0000
0000
0101
,
0000
0001
1000
0000
0100
0000
0010
0001
,
0100
0010
1000
0000
0001
0000
0010
0001
,
0100
0010
1000
0000
0010
1000
0001
0010
,
0100
1000
0001
0100
1000
0100
0001
0010
,
0100
2002
0000
3003
,
1001
0220
0000
0330
,
0110
2001
3200
0320
,
0032
0000
0003
0000
0000
0000
2002
0000
0000
0000
0000
0000
,
0000
0000
0000
0000
,
0000
0000
3003
0000
;

//---------------dance-single - ----------------
#NOTES:
     dance-single:
     :
     Hard:
     14:
     0.744302,1.092202,0.213529,0.085412,0.482576,610.000000,585.000000,25.000000,10.000000,4.000000,0.000000,0.744302,1.092202,0.213529,0.085412,0.482576,610.000000,585.000000,25.000000,10.000000,4.000000,0.000000:
0000
0000
0000
0000
,
0000
0000
0000
0000
,
0000
0000
0000
0000
,
0000
0000
0000
0000
,
0000
0000
0000
0000
,
0001
0100
1000
0100
0001
0010
0100
1000
,
0010
0001
0010
1000
0100
0010
0100
1000
,
0001
0100
0010
1000
0100
0001
0100
1000
,
0010
0100
0001
0010
1000
0010
0001
0100
,
0010
1000
0100
1000
0010
0001
0010
1000
,
0001
0010
0100
0010
0001
0100
1000
0100
,
0001
0010
0100
1000
0001
0100
0010
1000
,
2002
0000
0000
0000
3003
0000
0000
0000
4000
0004
0000
0000
0000
0000
3000
0003
,
1000
0100
0010
0100
1000
0010
0100
0010
,
1000
0001
0010
0001
0100
0010
0100
0001
,
0010
1000
0010
0001
0100
1000
0100
0001
,
1000
0000
0100
0000
0010
0000
0001
0000
0100
0000
0010
0100
0010
0000
1000
0000
,
0001
0010
0100
0010
0001
0100
0010
0100
,
0001
1000
0100
1000
0010
1000
0100
0010
,
0001
0100
1000
0100
0001
0010
1000
0010
,
0001
0000
0100
0000
0010
0000
1000
0000
1010
0000
0000
0110
0000
0000
0101
0000
,
0001
0100
0010
1000
0100
0001
0100
1000
,
0010
0100
0001
0010
1000
0010
0001
0100
,
0010
1000
0010
0100
0001
0100
1000
0100
,
0001
0000
0010
0000
0100
0000
1000
0000
0010
0000
0100
0010
0100
0000
0001
0000
,
1000
0100
1000
0100
0010
0001
0010
0001
,
1000
0010
1000
0010
0100
0001
0100
0001
,
1000
0100
0001
0100
1000
0100
0001
0100
,
1000
1000
0001
0001
0100
0010
1000
0001
,
2001
0000
0000
0000
3100
0010
0001
0100
,
0010
0000
0000
0000
1000
0000
0000
0000
0010
0000
0000
0000
1000
0000
0000
0000
0000
0000
0000
0000
1000
0000
0000
0000
0100
0000
0000
0000
0000
0000
0000
0000
0000
0010
0000
0000
0100
0000
0000
0010
0000
0000
0100
0000
0000
0000
0000
0000
,
0010
0000
0000
0001
0000
0000
0100
0000
0000
0010
0000
0000
1000
0000
0010
0000
0100
0000
0001
0000
0000
0010
0000
0000
,
1000
0000
0010
0000
0001
1000
0001
1000
0002
0000
0000
0000
0103
0000
0100
0000
,
MMMM
0000
0000
1001
0000
0000
0001
0010
0001
1000
0010
1000
,
0001
0000
0100
0000
1000
0000
0100
0000
0001
0000
0000
0001
1000
0001
1000
0000
,
0100
0000
0100
0000
0010
0001
0000
0000
0011
0000
0000
1001
0000
0001
0100
0001
,
0100
0000
0010
0000
1000
0000
0001
0000
0010
0100
0010
0100
0010
0100
0010
0100
,
0010
0000
0001
1000
0001
0100
0010
0100
,
1000
0100
0010
0100
0001
0010
0100
1000
,
0001
1000
0010
1000
0100
0001
0100
1000
,
0010
0100
0001
1000
0010
0001
1000
0100
,
0001
0010
0100
0001
0100
0010
0001
0100
,
0010
0000
1000
0000
0001
0000
0000
1000
0100
0000
0010
0000
0001
1000
0001
0000
,
0100
1000
0100
0001
0010
1000
0010
0001
,
0000
0000
1001
0000
0000
0110
0000
0000
1001
0000
1000
0000
1001
0000
0000
0001
,
1000
0010
0100
0001
1000
0100
0001
0100
,
0010
0001
0100
0010
1000
0001
0010
0100
,
1000
0001
0100
1000
0100
0010
1000
0100
,
0001
0000
0100
0000
0010
0000
0001
0000
0100
0000
0000
0000
0001
0100
0001
0100
,
0010
0000
1000
0000
0100
0000
0001
0000
0100
0000
1000
0000
,
0001
0100
0001
0100
0010
0100
0010
1000
0001
1000
0000
0000
,
1100
0000
1100
0000
0001
0010
0001
0000
1001
0000
0101
0000
,
0110
0000
0001
0100
0001
0100
0010
1000
0010
1000
0001
0000
0100
0000
0010
0000
,
0000
0000
1000
0100
1000
0100
0010
0001
0010
0001
1000
0000
0100
0000
0010
0000
,
0000
0000
0001
0010
0001
0000
1000
0000
0001
0000
1000
0000
0010
0000
1000
0000
0010
0000
1000
0000
0001
0000
1000
0000
0001
0000
1000
0000
0100
0000
1000
0000
,
0100
0000
1000
0000
0001
0000
0100
0000
0001
0000
0100
0000
0010
0000
1000
0000
0010
0000
1000
0000
0001
0000
0000
0001
0010
0000
0100
0000
1000
0000
0000
0001
,
0000
0100
0010
0000
0000
1000
0000
0000
0010
0000
0000
1000
0000
0000
0100
0000
,
0010
0000
0001
0000
0000
0100
0000
0000
0010
0000
0000
1000
0000
0000
0001
0000
,
0010
0000
1000
0000
0000
0010
0000
0000
0001
0000
0000
0100
0000
0000
1000
0000
,
0100
0000
0001
0000
0010
0000
1000
0000
0010
0000
0001
0000
0100
0010
0100
0010
,
0100
0010
0000
0000
1000
0000
0010
0000
0100
0000
0001
0000
0010
0000
0100
1000
,
0000
0100
1000
0000
0001
0000
0100
0000
0010
0000
1000
0000
0001
0000
0010
0100
,
0000
0010
0100
0000
1000
0000
0010
0000
0001
0000
0010
0000
1000
0000
0100
0010
,
0000
0001
1000
0000
0010
0000
0100
0000
0001
0000
1000
0000
0100
0000
0010
0001
,
0000
0010
0001
0000
1000
0000
0001
0000
0100
0000
0010
0000
1000
0000
0001
0100
,
0000
0001
0100
0000
0010
0000
1000
0000
0100
0000
0010
0000
0001
0000
1000
0100
,
0000
1000
0100
0000
1000
0000
0001
0000
0100
0000
0010
0000
1000
0000
0001
1000
,
0000
0001
1000
0000
1100
0000
0000
1001
0000
0000
0101
0000
0101
0000
0000
0100
,
0000
0001
1000
0100
0010
0100
0001
0100
,
0010
0001
0100
1000
0100
0010
1000
0001
,
0010
0100
1000
0010
0001
0010
1000
0100
,
0010
0000
0001
0000
0100
0000
0010
1000
0010
0000
1000
0001
1000
0001
1000
0001
,
1000
0001
1000
0002
2000
0000
0000
0000
0000
0000
0000
0000
3003
0000
0000
0000
,
0110
2002
0000
3003
,
1001
0000
0000
1000
0100
1000
0100
0010
0100
0010
0001
0010
,
0001
1000
0001
0000
0000
0000
2002
0000
0000
0000
0000
0000
,
0000
0000
0000
0000
,
0000
0000
3003
0000
;

//---------------dance-single - New Expert----------------
#NOTES:
     dance-single:
     :
     Challenge:
     17:
     0.950510,1.092202,0.495388,0.085412,1.016399,779.000000,721.000000,58.000000,10.000000,4.000000,0.000000,0.950510,1.092202,0.495388,0.085412,1.016399,779.000000,721.000000,58.000000,10.000000,4.000000,0.000000:
// measure 0
0000
0000
0000
0000
,  // measure 1
0000
0000
0000
0000
,  // measure 2
0000
0000
0000
0000
,  // measure 3
0000
0000
0000
0000
,  // measure 4
0000
0000
0000
0000
0000
0000
0000
0000
0000
0000
0000
0000
0000
0000
0001
1000
,  // measure 5
0001
0100
0010
0100
1000
0100
0010
0100
,  // measure 6
0001
0000
0010
0000
0100
0000
0010
0000
1000
0000
0010
0000
0100
0000
0010
0001
,  // measure 7
1000
0010
0100
0010
0001
0010
0100
0010
,  // measure 8
1000
0100
0001
0100
1000
0001
1001
1000
,  // measure 9
1100
0100
0010
0100
0001
0100
0010
0100
,  // measure 10
1000
0000
0010
0000
0100
0000
0010
0000
0001
0000
0010
0000
0100
0000
0010
1000
,  // measure 11
0001
0010
0100
0010
1000
0010
0001
0100
,  // measure 12
2002
0000
0000
0000
3003
0000
0000
0000
1000
0010
1000
0010
0100
0001
1000
0000
,  // measure 13
1001
0001
0010
0001
1001
1000
0010
1000
,  // measure 14
1100
0000
0100
0000
0010
0000
0001
0000
0101
0000
0100
0000
0010
0000
1000
0001
,  // measure 15
1000
0001
0010
0001
0101
0100
0010
1000
,  // measure 16
1001
0000
0000
0001
0000
0000
1000
0000
0000
0100
0000
0000
1100
0000
0000
1000
0001
1000
0001
0000
0000
0100
0000
0000
,  // measure 17
0101
0001
1000
0100
0110
0010
0001
0100
,  // measure 18
0110
0000
0010
0000
1000
0000
0100
0000
1100
0000
1000
0000
0001
0000
0100
0010
,  // measure 19
0100
0001
0010
0100
1100
1000
0010
0100
,  // measure 20
0101
0000
0100
0000
0001
0000
1000
0000
1001
0000
0000
1100
0000
0000
0011
0000
,  // measure 21
1001
1000
0010
1000
1100
0100
0010
0001
,  // measure 22
0101
0000
0100
0000
0001
0000
0010
0000
0110
0000
0100
0000
1000
0000
0001
0100
,  // measure 23
0010
1000
0001
0010
0011
0001
1000
0010
,  // measure 24
1010
0000
0000
0000
0000
0000
1000
0000
0000
0000
0000
0000
0001
0000
0000
0000
0000
0000
0100
0000
0000
0000
0000
0000
0101
0000
0000
0000
0000
0000
0001
0000
1000
0000
0001
0000
1000
0000
0000
0000
0000
0000
0100
0000
0000
0010
0000
0000
,  // measure 25
0001
0100
1000
0100
0001
0010
1000
0010
,  // measure 26
0001
0100
1000
0100
0001
0010
1000
0010
,  // measure 27
0001
0100
0001
0100
0001
0100
0001
0100
0010
1000
0010
1000
0010
1000
0010
1000
,  // measure 28
0001
0000
0010
0000
1000
0000
0010
0000
0001
0100
0010
1000
0001
0000
1000
0000
,  // measure 29
2001
0000
0000
0000
0000
0000
3100
0000
0010
0001
0010
0001
1000
0010
0100
0010
,  // measure 30
1000
0000
0000
0000
0100
0000
0000
0000
0001
0000
0000
0000
0100
0000
0000
0000
1000
0000
0000
0000
0001
0000
0000
0000
0101
0000
0000
0000
0000
0000
0000
0000
0000
0010
0000
0000
1000
0000
0000
0010
0000
0000
1000
0000
0000
0000
0000
0000
,  // measure 31
0100
0000
0000
0001
0000
0000
0100
0000
0000
1000
0000
0000
0010
0000
0001
0000
1000
0000
0100
0000
0000
0001
0000
0000
,  // measure 32
0010
0000
0100
1000
0010
0100
0010
0100
0002
0000
0000
1003
0100
0000
0010
0000
,  // measure 33
MMMM
0000
0000
1001
0000
0000
0001
0010
0001
0100
1000
0100
,  // measure 34
0001
0010
0001
0100
0010
0000
1000
0000
1001
0000
0000
0001
0100
0001
0100
0000
,  // measure 35
0010
0000
1000
0000
0100
0010
0000
0000
0011
0000
0000
1001
0000
1000
0010
0100
,  // measure 36
0001
0000
0011
0000
1000
0000
0010
0000
0100
0001
0100
0001
1000
0100
1000
0100
,  // measure 37
0010
0000
0000
0000
0001
0100
0001
0100
0001
0100
0010
0100
0010
1000
0010
1000
,  // measure 38
0001
1000
0001
1000
0100
1000
0100
1000
0100
0010
0100
0010
0001
1000
0010
1000
,  // measure 39
0001
0010
0001
0010
0100
0010
0100
0010
0100
1000
0100
1000
0001
1000
0001
1000
,  // measure 40
0001
0100
0001
0100
0010
1000
0010
1000
0001
0100
0010
1000
0100
0000
0010
0000
,  // measure 41
0001
0010
0001
1000
0010
1000
0001
0010
0001
1000
0100
1000
0001
0100
0010
1000
,  // measure 42
0001
0000
0000
0100
0000
0000
0000
0000
0000
0100
0000
0000
0001
0000
0000
0000
0000
0000
1000
0000
0100
0000
1000
0000
0100
0000
0000
0000
0000
0000
0010
0000
0000
0000
0000
0000
0001
0000
0000
0010
0000
0000
0100
0000
0000
1000
0000
0000
,  // measure 43
0001
1000
0001
1000
0010
0100
0010
0100
0001
1000
0100
0010
0001
0000
0010
0001
,  // measure 44
0000
0000
0011
0000
0000
1100
0000
0000
1010
0000
1001
0000
1000
0100
0010
0001
,  // measure 45
1000
0000
0010
0000
1000
0010
0100
0001
1000
0001
1000
0001
0010
0001
0010
0001
,  // measure 46
1000
0100
0010
0001
1000
0010
0100
0001
0100
0010
1000
0000
0001
0100
0010
1000
,  // measure 47
0001
0010
0001
0010
0100
0010
0100
0010
0100
1000
0100
1000
0001
0010
0100
1000
,  // measure 48
0001
0100
0001
0100
0010
1000
0100
0010
0001
0000
0000
0000
0001
0100
0010
1000
,  // measure 49
0001
0000
1001
0000
1010
0000
1001
0000
1100
0000
1000
0100
,  // measure 50
0010
0001
0100
0010
1000
0001
0010
0100
1000
0010
1000
0001
,  // measure 51
1001
0000
1001
0000
0001
0010
0011
0000
1001
0000
0101
0000
,  // measure 52
0110
0000
1000
0010
1000
0000
0100
0000
0001
0000
0100
0000
1000
0000
0100
0000
0001
0000
0100
0000
1000
0000
0000
0000
0100
0000
0000
0000
0110
0000
0000
0000
,  // measure 53
0000
0000
0001
0100
1000
0100
0001
0100
1000
0100
0001
0000
0100
0000
0110
0000
,  // measure 54
0000
0000
0001
1000
0001
0000
0000
0100
0000
0000
0010
0000
0000
1000
0000
0000
0001
0000
0010
0000
1000
0000
0000
0010
0000
0000
0001
0000
0000
0100
0000
0000
,  // measure 55
1000
0000
0100
0000
0001
0000
0000
1000
0000
0000
0100
0000
0000
0010
0000
0000
0001
0000
0100
0000
1000
0000
0000
0001
0000
0000
0010
0000
1000
0000
0000
0100
,  // measure 56
0000
0010
0001
0000
1000
0010
1000
0000
0001
0000
1000
0100
1000
0000
0010
0000
,  // measure 57
0100
0000
0001
0000
0010
0100
0010
0000
0001
0000
0100
0010
0100
0000
0001
0000
,  // measure 58
0010
0000
1000
0000
0010
0100
0010
0000
0001
0000
1000
0010
1000
0000
0001
0000
,  // measure 59
0100
0000
0001
1000
0001
1000
0100
0010
0100
0010
0001
0000
1000
0010
0100
0001
,  // measure 60
0010
0100
0000
0000
1000
0000
0010
0000
0001
0000
0010
0000
1000
0000
0100
0010
,  // measure 61
0000
0010
0001
0000
0100
0000
1000
0000
0100
0000
0001
0000
0010
0000
0100
1000
,  // measure 62
0000
1000
0001
0000
1000
0000
0010
0000
0100
0000
0001
0000
1000
0000
0001
0100
,  // measure 63
0000
0000
0000
0100
0000
0000
1000
0000
0000
0000
0000
0000
0001
0000
0000
0000
0000
0000
0010
0000
1000
0000
0010
0000
1000
0000
0000
0000
0000
0000
0100
0000
0000
0000
0000
0000
0001
0000
0000
0000
0000
0000
1000
0000
0000
0010
0000
0000
,  // measure 64
0000
0010
0001
0000
0100
0000
0010
0000
1000
0000
0100
0000
0001
0000
0100
0010
,  // measure 65
0000
0000
0000
0010
0000
0000
0001
0000
0000
0000
0000
0000
0100
0000
0000
0000
0000
0000
0001
0000
1000
0000
0001
0000
1000
0000
0000
0000
0000
0000
0100
0000
0000
0000
0000
0000
0010
0000
0000
0000
0000
0000
0001
0000
0000
0100
0000
0000
,  // measure 66
0000
0100
0010
0000
1000
0000
0100
0000
0001
0000
0100
0000
0010
0000
0001
0100
,  // measure 67
0000
0100
0010
0000
1010
0000
0000
1100
0000
0000
1001
0000
0011
0000
0000
1001
,  // measure 68
0000
0000
0000
1000
0001
1000
0001
0000
0000
0010
0000
0000
0100
0000
0000
1000
0000
0000
0010
0000
0000
0100
0000
0000
,  // measure 69
0001
0000
0000
0010
0100
0010
0100
0000
0000
1000
0000
0000
0010
0000
0000
0100
0000
0000
0001
0000
0000
0010
0000
0000
,  // measure 70
0100
0000
0000
1000
0001
1000
0001
0000
0000
0100
0000
0000
1000
0000
0000
0100
0000
0000
0001
0000
0000
0010
0000
0000
,  // measure 71
1000
0000
0000
0000
0000
0000
0010
0000
0001
0000
0010
0000
0001
0000
0000
0000
0000
0000
1000
0000
0000
0010
0000
0000
1000
0000
0000
0001
0000
0000
0100
0000
0000
0010
0000
0000
1000
0000
0000
0100
0000
0000
0010
0000
0000
0001
0000
0000
,  // measure 72
0100
0010
1000
0002
2000
0000
0000
0000
0000
0000
0000
0000
3003
0000
0000
0000
,  // measure 73
0110
2002
0000
3003
,  // measure 74
0110
0000
0000
0001
0010
1000
0010
0001
0100
1000
0100
0010
,  // measure 75
1000
0100
0001
0000
0000
0000
0022
0000
0000
0000
0000
0000
,  // measure 76
0000
0000
0000
0000
,  // measure 77
0000
0000
0033
0000
;
