#TITLE:Sonic3 & Knuckles Credits;
#ARTIST:Dancing Monkeys Project;
#GAP:778.480726;
#BPM:141.361257;
#FILE:G:\StepMania\Songs\B.M. Hedgehog\Sonic3 & Knuckles Credits\Sonic3 & Knuckles Credits.mp3;
#FREEZE:460=1698; // --- Arrows ---
#SINGLE:BASIC:3:
00004060400000000000406000006040000060400000404000004060000060400000604000006040000040600000406000006040000000600000406040200080006080006000600060006000004080800000404000400060006000404000000060200000000000406000000040000000000000004080000040802080400020404020804000400080600080204000804040600080004000804060000060206020608060406040802060806040402020804040002040802060404000204030408000006020000040804000002040202080400080406020208060206060004080804040600040002040608020806080200040202080604020400040408060802080408020004!4000004060006000004000600000406000408080600060000040008!80000000000080004000408040004040200040804000402060604080206040802040002040608020806040008060600020604000806060800060600020400020404020208060400060402000806080002060200080408000204020008040200080408000200060402040200080004000600060004000000060000000400000408060608000604000804080200000004060000060400000604000402060006020806000408000602080006020806000408040006020004080806000802060004080400060804000204060006000600040804000602040002040404060000000406000002!200000002020400020400040808000408080004020200040202000408080606080006080604040000000;
#SINGLE:ANOTHER:6:
00608060400800000060806000408040004080406004202000608060006020600040804000402040004020400060806000408040040802000060806040806020408020006400400064004000608020246004202000604080004060804008000060800006000006406200000440020000040002006420002060802048480046206080604800468060600046406820802040200084004680606620000000602628406484624680246440648462406066824048402460B06046404840244070600200006862060020604000082240606682682080206048802440648082608020246062804040204062464064806860800240606682608246260420282846284240406480006!6000006464004000006040800060806060802024640040000060408!80000000200080006404406806064662800440680606802420646840806468408040204062464064804064006868800028406400686064802068800028402040624060668248280040408060206020408040206080402060806080402040806020608040206820806040806020006040800040608004080200040208000600206060648020608060204064800000608060004020400040204006802420406020604000282040602060604080404000282040002820608020246400662040002820600082804020406264004000400028206000282040204062606280400060806060044!402000804028402040626080202460802024602080844020808640208086606480204064846260000000;
#SINGLE:MANIAC:9:
60608860600266026060886040402240606022606604822060608860606088606060226040408840404088404040884040402240068604846060886042484082664240066402262264088688424842246604822000626866006862666002660244820662600402806240420640840044062826004624022842882462480282606640286206464846408028264626282646288424064648464482000846828248686820B040906860686820B0402444844228048240A02428422804826030640804282426686824204042042240244484462628266004482800102668424842246068246264646082628826466860420440244484428246460480846262646420686264084!4000804464022622006268666060886042484224640226220062682!20404080804!4020804406628402624228280662840262426282428280626828204864646082628826464626086442282468462608644884602642282468646460824024448446486624424840826862602868626028626860824842402848424028484240286866482642484082006268660048424406860484068604846868242048846026426242426862640860608860404022404040884062426282428686444840828242868644428686444840828248408282424842244840884048408282484082826464608264022622484082824240282864646082606824626060886066046!60204020346864646082424842244248422468626886484248844842488448846026686820B060000000;
