#TITLE:Filmation's Ghostbusters;
#SUBTITLE:Instrumental Version;
#ARTIST:Brian Banks;
#TITLETRANSLIT:;
#SUBTITLETRANSLIT:;
#ARTISTTRANSLIT:;
#CREDIT:Gorilla v1.1.4 (Dancing Monkeys v1.06);
#BANNER:fgbinstrumental.PNG;
#BACKGROUND:fgbinstrumental-bg.png;
#LYRICSPATH:;
#CDTITLE:;
#MUSIC:fgbinstrumental.mp3;
#OFFSET:-0.426;
#SAMPLESTART:34.090;
#SAMPLELENGTH:12.000;
#SELECTABLE:YES;
#BPMS:0.000=178.230;
#STOPS:;
#BGCHANGES:;

//---------------dance-single - Basic----------------
#NOTES:
     dance-single:
     Basic:
     Easy:
     3:
     0.242,0.325,0.097,0.055,0.000:
0000
0000
0000
1000
,
0000
0000
0000
1000
,
0000
0000
0000
1000
,
0000
0000
0000
0001
,
0000
0000
0000
0001
,
0000
0000
0000
1000
,
0000
0000
0000
0001
,
0000
0000
0000
0001
,
0001
1000
0000
0000
,
1000
0000
0000
0010
,
0001
1000
0000
0000
,
1000
0001
0000
0000
,
1000
0001
0000
0000
,
0001
1010
1000
0000
,
0001
1000
0000
0000
,
1000
0001
0000
0000
,
0001
1000
0110
0001
,
1000
0010
0000
0001
,
1000
0001
0000
0000
,
1000
0001
0000
0000
,
1000
0001
0000
0000
,
0001
1000
0000
0000
,
1000
0001
0000
0000
,
1000
0000
0000
0010
,
1000
0100
0010
0000
,
1000
0001
0000
0000
,
1000
0001
0000
0000
,
1000
0000
0000
0010
,
1000
0100
0010
0000
,
0001
1000
0000
0000
,
1000
0000
0000
0100
,
1000
0000
0000
0010
,
1000
0010
0000
0001
,
0001
0010
0000
0000
,
0000
0001
0100
0001
,
1000
0010
0000
0001
,
1000
0001
0000
0000
,
1000
0000
0000
0100
,
1000
0100
0010
0000
,
0001
0010
0000
0100
,
1000
0001
0000
0000
,
0001
1000
0000
0000
,
1000
0000
0000
0100
,
0001
1010
1000
0000
,
0001
1000
0000
0000
,
1000
0010
0000
0001
,
0001
0000
1000
0011
,
0000
1100
0000
0010
,
0100
1000
0001
0000
,
1001
0000
0110
0000
,
2000
0000
3200
0000
,
0320
0000
0032
0000
,
0003
0000
0000
0000
;

//---------------dance-single - Standard----------------
#NOTES:
     dance-single:
     Standard:
     Medium:
     5:
     0.363,0.469,0.111,0.028,0.000:
0000
0000
0000
0001
,
0000
0000
0000
0001
,
0000
0000
0000
1000
,
0000
0000
0000
1000
,
0000
0000
0000
0001
,
0000
0000
0000
0001
,
0000
0000
0000
1000
,
0000
0000
0000
1000
,
1000
0100
0010
0100
,
0001
1000
0010
0100
,
1000
0100
0010
0100
,
1000
0010
0000
0100
,
0001
0100
0000
0010
,
0001
0011
1000
0001
,
1000
0100
0010
0100
,
0001
0010
0000
0100
,
0001
0100
0010
0000
0110
0000
0010
0100
,
0001
0100
0010
0000
0010
0000
1000
0000
,
0001
0010
0000
0100
,
0001
0010
0000
0100
,
1000
0100
0000
0010
,
1000
0100
0010
0100
,
1000
0010
0000
0100
,
0001
1000
0010
0100
,
0001
0100
0001
0000
0010
0000
0001
0000
,
0001
0100
0010
1000
,
0001
0010
0000
0100
,
0001
1000
0010
0100
,
0001
0100
0001
0000
0010
0000
0001
0000
,
1000
0100
0010
0100
,
0001
0000
0100
0010
,
0001
1000
0010
0100
,
0001
0100
0010
0000
0010
0000
1000
0000
,
1000
0001
0000
0000
,
0001
0000
0100
0000
0001
0010
0100
0000
,
0001
0100
0010
0000
0010
0000
1000
0000
,
0001
0010
0000
0100
,
0001
0000
0100
0010
,
0001
0100
0001
0000
0010
0000
0001
0000
,
0101
0010
1000
0001
,
0001
0010
0000
0100
,
0001
0100
0000
0010
,
0001
0000
0100
0010
,
0001
0011
1000
0001
,
1000
0100
0010
0100
,
0001
0100
0010
0000
0010
0000
1000
0000
,
0001
0001
1000
1001
,
0000
0000
0010
0100
0010
0000
0000
0000
,
1000
0001
1000
0000
0000
0000
1000
0000
,
1000
0001
0001
0100
,
0100
0000
0110
0000
,
1001
0000
0220
0000
,
0330
0000
0000
0000
;

//---------------dance-single - Heavy----------------
#NOTES:
     dance-single:
     Heavy:
     Hard:
     8:
     0.525,0.572,0.139,0.028,0.000:
0000
0001
0000
1000
,
0000
0001
0000
1000
,
0000
1000
0000
0001
,
0000
1000
0000
0001
,
0000
0001
0000
1000
,
0000
0001
0000
1000
,
0000
0001
0000
1000
,
0000
1000
0000
0001
,
1000
0100
1000
0010
0100
0000
0010
0000
,
0001
0100
0010
0000
0100
0010
0100
0010
,
1000
0100
1000
0010
0100
0000
0010
0000
,
1000
0100
1000
0100
,
1000
0100
1000
0100
,
1000
0000
0011
0000
1000
0001
0100
0001
,
1000
0100
1000
0010
0100
0000
0010
0000
,
1000
0010
1000
0010
,
1000
0010
1000
0000
0011
0000
0100
0010
,
0001
0010
0100
1000
1000
0100
1000
0100
,
1000
0010
1000
0010
,
1000
0100
1000
0100
,
0001
0100
0001
0100
,
1000
0100
1000
0010
0100
0000
0010
0000
,
1000
0010
1000
0010
,
0001
0100
0010
0000
0100
0010
0100
0010
,
1000
0100
0010
0100
1000
0010
0100
0010
,
1000
0001
1000
0100
1000
1000
0000
0000
,
1000
0010
1000
0010
,
0001
0100
0010
0000
0100
0010
0100
0010
,
1000
0100
0010
0100
1000
0010
0100
0010
,
1000
0100
1000
0010
0100
0000
0010
0000
,
1000
0100
1000
0000
0100
0000
0010
0000
,
0001
0100
0010
0000
0100
0010
0100
0010
,
0001
0010
0100
1000
1000
0100
1000
0100
,
1000
0100
0000
0010
,
0001
0100
0010
0000
0110
0000
0100
0001
,
0001
0010
0100
1000
1000
0100
1000
0100
,
1000
0010
1000
0010
,
1000
0100
1000
0000
0100
0000
0010
0000
,
1000
0100
0010
0100
1000
0010
0100
0000
,
1010
0000
0001
0100
0010
0100
0010
1000
,
1000
0010
1000
0010
,
0001
0010
0001
0010
,
1000
0100
1000
0000
0100
0000
0010
0000
,
1000
0000
0011
0000
1000
0001
0100
0001
,
1000
0100
1000
0010
0100
0000
0010
0000
,
0001
0010
0100
1000
1000
0100
1000
0000
,
1100
0000
0001
1000
0010
0000
0110
0000
,
0000
1010
0000
0101
,
0000
0000
1001
0000
0000
0000
1000
0100
,
1000
0000
0001
0010
0001
0000
0000
0000
,
1000
0100
0010
0001
,
0200
0320
0030
0000
;
