#TITLE:Filmation's Ghostbusters;
#ARTIST:Brian Banks;
#FILE:fgbinstrumental.mp3;
#BPM:178.230;
#GAP:426;
#SAMPLESTART:34.090;
#SAMPLELENGTH:12.000;
#SINGLE:BASIC:3:
00000040
00000040
00000040
00000060
00000060
00000040
00000060
00000060
60400000
40000080
60400000
40600000
40600000
60704000
60400000
40600000
6040A060
40800060
40600000
40600000
40600000
60400000
40600000
40000080
40208000
40600000
40600000
40000080
40208000
60400000
40000020
40000080
40800060
60800000
00602060
40800060
40600000
40000020
40208000
60800020
40600000
60400000
40000020
60704000
60400000
40800060
60004090
00100080
20406000
B000A000
4!40001!2000
A!80009!6000
60000000
;
#SINGLE:ANOTHER:5:
00000060
00000060
00000040
00000040
00000060
00000060
00000040
00000040
40208020
60408020
40208020
40800020
60200080
60904060
40208020
60800020
6280A082
62808040
60800020
60800020
40200080
40208020
40800020
60408020
62608060
60208040
60800020
60408020
62608060
40208020
60002080
60408020
62808040
40600000
60206820
62808040
60800020
60002080
62608060
30804060
60800020
60200080
60002080
60904060
40208020
62808040
606040B0
00828000
46400040
40606020
2000A000
B000A!A000
A0000000
;
#SINGLE:MANIAC:8:
00600040
00600040
00400060
00400060
00600040
00600040
00600040
00400060
42482080
62802828
42482080
40204020
40204020
40904626
42482080
40804080
48409028
68244242
40804080
40204020
60206020
42482080
40804080
62802828
42824828
46424400
40804080
62802828
42824828
42482080
42402080
62802828
68244242
40200080
6280A026
68244242
40804080
42402080
42824820
70628284
40804080
60806080
42402080
40904626
42482080
68244240
106480A0
00700030
00B00042
40686000
40208060
2!20A!808000
;
