#TITLE:Stitches;
#SUBTITLE:;
#ARTIST:Shawn Mendes;
#TITLETRANSLIT:;
#SUBTITLETRANSLIT:;
#ARTISTTRANSLIT:;
#GENRE:;
#CREDIT:;
#BANNER:Stitches-banner.png;
#BACKGROUND:Stitches-bg.png;
#LYRICSPATH:;
#CDTITLE:;
#MUSIC:Stitches.mp3;
#OFFSET:-0.003000;
#SAMPLESTART:37.189;
#SAMPLELENGTH:14.000000;
#SELECTABLE:YES;
#BPMS:0.000000=150.000000
;
#STOPS:
;
#BGCHANGES:0.700=Stitches.avi=1.000=1=1=1=StretchRewind==CrossFade==,
99999=-nosongbg-=1.000=0=0=0 // don't automatically add -songbackground-
;
#KEYSOUNDS:;
#ATTACKS:;

//---------------dance-single - ----------------
#NOTES:
     dance-single:
     :
     Hard:
     7:
     0.535666,0.527250,0.238074,0.000000,0.000000,504.000000,472.000000,32.000000,0.000000,0.000000,0.000000,0.535666,0.527250,0.238074,0.000000,0.000000,504.000000,472.000000,32.000000,0.000000,0.000000,0.000000:
0000
0000
0000
0000
,
0000
0000
0000
0000
,
1000
0000
0001
0100
0000
0000
1010
0000
,
0010
0000
1000
0001
0000
0000
0110
0000
,
1000
0000
0010
0100
0000
0000
1001
0000
,
0100
0000
0001
0010
0000
0000
1100
0000
,
0010
0000
0001
0100
0001
0100
0001
0000
,
0010
0000
0001
1000
0010
0100
0010
0000
,
1000
0000
0010
0100
0001
0000
1000
0000
,
0001
0010
0001
0000
0100
0000
0010
0000
,
1000
0010
0100
0001
0100
0000
1010
0000
,
0001
0100
0010
1000
0001
0000
0110
0000
,
1000
0000
0100
1000
0001
0100
0010
0000
,
1010
0000
0100
0001
0010
0100
0010
0000
,
1000
0000
0001
0100
0010
0000
0101
0000
,
0001
1000
0010
0100
1000
0001
0010
0000
,
1010
0000
0100
0010
0100
0001
1000
0010
,
1000
0101
0110
0101
,
1001
0000
0100
0010
0100
0000
0001
0010
,
0001
0100
1000
0100
0001
0010
0100
0000
,
1001
0000
0100
0010
0100
0001
0100
0010
,
1000
1100
0101
1010
,
0000
0010
0100
0010
0000
1000
0100
0000
,
0001
1001
0110
0101
,
0001
0100
0001
0010
0001
0000
1000
0000
,
0010
0100
0010
0000
1000
0001
0100
0000
,
0001
0010
0100
1000
0001
0000
0010
0000
,
0001
0100
0001
0000
1000
0001
0010
0000
,
0001
0100
0000
0001
0000
1000
0000
0001
,
0010
0001
0100
0001
1000
0010
0100
0000
,
0001
0010
0000
1000
0000
0010
0000
0001
,
0100
0010
0100
0001
0010
0001
0100
0000
,
0001
0010
0001
1000
0001
0000
0100
0000
,
0010
0100
0010
0000
1000
0010
1000
0000
,
0001
0100
0001
0010
1000
0000
0010
0000
,
0001
0100
0010
0000
1000
0000
0001
0000
,
0010
0001
0000
0001
0000
0100
0000
0010
,
1000
0010
0100
0001
0010
0001
0100
0000
,
0001
0010
0000
0001
0000
1000
0000
0010
,
0100
0001
1000
0010
0001
0010
1000
0000
,
0010
0010
0100
0001
1000
0000
0010
0010
,
0100
0001
1000
0100
1000
0000
0010
0010
,
0100
0001
0100
0001
0010
0000
0001
0001
,
1000
0001
0010
0100
0010
0000
0000
0000
,
0001
0100
0001
1000
0100
0000
1000
0001
,
1000
0001
0010
0100
0001
0000
1000
0000
,
0001
0100
0001
0100
1000
0000
0001
0001
,
0101
1001
1010
0000
,
0100
0010
1000
0001
0010
0000
0001
0010
,
0001
1000
0001
0010
0100
0000
0001
0000
,
1000
0010
0100
1000
0010
0000
0100
0100
,
1001
1010
0110
0000
,
0010
1000
0100
0010
0001
0000
0100
0010
,
1000
0001
1000
0001
0100
0000
0010
0000
,
0100
0010
1000
0001
1000
0000
0010
0100
,
1001
1010
0101
0000
,
0010
0100
0001
1000
0001
0000
0010
0100
,
1000
0001
1000
0010
0100
0000
0001
0000
,
1000
1000
1000
1000
1000
0000
0001
0000
,
0000
1001
0101
1001
,
0010
0100
0010
1000
0001
0000
0100
0000
,
0010
1000
0100
0010
0001
1000
0001
0000
,
1000
0001
0010
0100
0001
0000
0100
0000
,
0001
1000
0000
1000
0000
1000
0000
1000
,
0010
0100
0001
1000
0010
0100
0001
1000
,
0001
0001
1000
1000
0010
0100
0001
0000
,
0001
1000
0000
0001
0000
0100
0000
0100
,
1000
1000
0001
0001
0100
0001
0100
0000
,
0001
0010
0100
1000
0001
0000
0100
0000
,
0010
0100
0010
0010
1000
0100
1000
0000
,
0010
0100
0001
1000
0001
0100
0010
0000
,
1000
1000
0001
0100
0010
0010
1000
0000
,
0010
0100
0000
0001
0000
0010
0000
0100
,
1000
0100
1000
0100
0010
0001
0001
0000
,
0001
0010
0000
0001
0000
0100
0000
0001
,
0010
0010
0001
0100
0001
1000
1000
0000
,
0001
0001
0100
0010
,
1000
0100
1000
1000
0010
0100
0001
0000
,
1000
0010
0100
0001
,
0001
0010
0001
0100
0001
1000
0001
0000
,
0010
0100
0000
1000
0000
0001
0000
0100
,
0010
1000
0010
0100
0001
0100
0001
0000
,
1000
0100
0000
1000
0000
0001
0000
0100
,
0000
0000
0000
0010
0000
0000
0000
0000
;

//---------------dance-single - ----------------
#NOTES:
     dance-single:
     :
     Medium:
     5:
     0.278462,0.372177,0.230634,0.119037,0.000000,262.000000,231.000000,31.000000,16.000000,0.000000,0.000000,0.278462,0.372177,0.230634,0.119037,0.000000,262.000000,231.000000,31.000000,16.000000,0.000000,0.000000:
// measure 0
0000
0000
0000
0000
,  // measure 1
0000
0000
0000
0000
,  // measure 2
0001
0000
0000
0001
0000
0000
0000
0000
,  // measure 3
1000
0000
0000
1000
0000
0000
0000
0000
,  // measure 4
0010
0000
0000
0010
0000
0000
0000
0000
,  // measure 5
1000
0000
0000
1000
0000
0000
0000
0000
,  // measure 6
0001
0000
0000
0010
0000
0000
0010
0000
,  // measure 7
0100
0000
0000
1000
0000
0000
1000
0000
,  // measure 8
0001
0000
0000
0100
0000
0000
0010
0000
,  // measure 9
0100
0000
0000
0010
0000
0000
1000
0000
,  // measure 10
1000
0000
0000
0100
0000
0000
0010
0000
,  // measure 11
0010
0000
0000
0001
0000
0000
0010
0000
,  // measure 12
0001
0000
0000
1000
0000
0000
0100
0000
,  // measure 13
1000
0000
0000
0010
0000
0000
0100
0000
,  // measure 14
0001
0000
0000
0100
0000
0000
0010
0000
,  // measure 15
1000
0000
0000
0100
0000
0000
1000
0000
,  // measure 16
0001
0001
0001
0000
,  // measure 17
1000
1000
1000
0000
,  // measure 18
0100
0100
0100
0000
,  // measure 19
1000
1000
1000
0100
,  // measure 20
0010
0010
0010
0000
,  // measure 21
0100
0100
0100
0000
,  // measure 22
2000
0000
0000
0002
0000
0000
0000
0000
,  // measure 23
0000
3000
0100
0000
0100
0000
0103
0000
,  // measure 24
1010
0000
0000
1000
0000
0000
0010
0000
,  // measure 25
0101
0000
0000
0001
0000
0000
0100
0000
,  // measure 26
0011
0000
0000
0001
0000
0000
0010
0000
,  // measure 27
1100
0000
0000
0100
0000
0000
1000
0000
,  // measure 28
0010
0010
0010
0000
,  // measure 29
1000
1000
1000
0000
,  // measure 30
0100
0000
0000
1000
0000
0000
0001
0000
,  // measure 31
1000
0000
0000
0010
0000
0000
0100
0000
,  // measure 32
0010
0010
0010
0000
,  // measure 33
1000
1000
1000
0000
,  // measure 34
0100
0010
0001
1000
,  // measure 35
0100
0000
0000
0100
0000
0000
1000
0000
,  // measure 36
0001
0000
0000
0001
0000
0000
0100
0000
,  // measure 37
0001
1000
0010
0000
,  // measure 38
1000
0001
0100
0010
,  // measure 39
0100
0100
0100
0000
,  // measure 40
2000
0000
0000
0000
0002
0000
0000
3000
,  // measure 41
0020
0000
0000
0003
0200
0000
0000
0030
,  // measure 42
2000
0000
0000
0300
0002
0000
0000
3000
,  // measure 43
0200
0000
0000
0003
0020
0000
0000
0330
,  // measure 44
0010
0010
1000
0000
,  // measure 45
1000
1000
0100
0000
,  // measure 46
0010
0010
0100
1000
,  // measure 47
0001
1000
0001
0000
,  // measure 48
1000
1000
1000
0000
,  // measure 49
0001
0001
0001
1000
,  // measure 50
0010
0100
0001
0000
,  // measure 51
0010
0010
0010
0000
,  // measure 52
0100
0100
0100
0000
,  // measure 53
1000
1000
0100
0000
,  // measure 54
0010
0001
0010
0100
,  // measure 55
1000
0001
0001
0000
,  // measure 56
1000
1000
1000
0000
,  // measure 57
0101
0000
0000
1010
0000
0000
0000
0000
,  // measure 58
1100
0000
0000
0011
0000
0000
0000
0000
,  // measure 59
0000
1001
1001
1001
,  // measure 60
1010
0000
0000
1100
0000
0000
0000
0000
,  // measure 61
0011
0000
0000
1100
0000
0000
0000
0000
,  // measure 62
0110
0000
0000
1001
0000
0000
0000
0000
,  // measure 63
1001
0000
0000
1100
0000
0000
0000
0000
,  // measure 64
0001
0001
1000
1000
,  // measure 65
0101
0000
0000
1010
0000
0000
0000
0000
,  // measure 66
1000
0010
0100
0010
,  // measure 67
0101
0000
0000
1010
0000
0000
0000
0000
,  // measure 68
1000
1000
0001
1000
,  // measure 69
1001
0000
0000
1010
0000
0000
0000
0000
,  // measure 70
1000
1000
0010
0100
,  // measure 71
0110
0000
0000
0101
0000
0000
0000
0000
,  // measure 72
0001
0010
0100
1000
,  // measure 73
1001
0000
0000
1001
0000
0000
0000
0000
,  // measure 74
1000
0001
1000
0010
,  // measure 75
0110
0000
0000
0110
0000
0000
0000
0000
,  // measure 76
1000
1000
1000
0000
,  // measure 77
0001
0000
0000
0001
0000
0000
0000
0000
,  // measure 78
0010
0100
0010
0000
,  // measure 79
0100
0000
0000
1000
0000
0000
0000
0000
,  // measure 80
2000
0000
0000
0020
0000
0000
0000
3030
,  // measure 81
0002
0000
0000
2000
0000
0000
0000
3003
,  // measure 82
2000
0000
0000
0020
0000
0000
3030
0100
,  // measure 83
0000
0000
0000
0001
0000
0000
0000
0000
;

//---------------dance-single - ----------------
#NOTES:
     dance-single:
     :
     Easy:
     3:
     0.196624,0.341162,0.052079,0.066958,0.000000,185.000000,178.000000,7.000000,9.000000,0.000000,0.000000,0.196624,0.341162,0.052079,0.066958,0.000000,185.000000,178.000000,7.000000,9.000000,0.000000,0.000000:
// measure 0
0000
0000
0000
0000
,  // measure 1
0000
0000
0000
0000
,  // measure 2
1000
0000
0000
1000
0000
0000
0000
0000
,  // measure 3
0010
0000
0000
0010
0000
0000
0000
0000
,  // measure 4
0100
0000
0000
0100
0000
0000
0000
0000
,  // measure 5
0001
0000
0000
0001
0000
0000
0000
0000
,  // measure 6
1000
0000
0000
1000
0000
0000
0000
0000
,  // measure 7
0010
0000
0000
0010
0000
0000
0000
0000
,  // measure 8
0100
0000
0000
0100
0000
0000
0000
0000
,  // measure 9
0010
0000
0000
0010
0000
0000
0000
0000
,  // measure 10
1000
0000
0000
1000
0000
0000
0000
0000
,  // measure 11
0001
0000
0000
0001
0000
0000
0000
0000
,  // measure 12
0100
0000
0000
0100
0000
0000
0000
0000
,  // measure 13
0001
0000
0000
0001
0000
0000
0000
0000
,  // measure 14
1000
0000
0000
1000
0000
0000
0000
0000
,  // measure 15
0010
0000
0000
0010
0000
0000
0000
0000
,  // measure 16
1000
1000
1000
0000
,  // measure 17
0001
0001
0001
0000
,  // measure 18
1000
1000
1000
0000
,  // measure 19
0010
0010
0010
0000
,  // measure 20
0100
0100
0100
0000
,  // measure 21
0001
0001
0001
0000
,  // measure 22
1000
1000
1000
0000
,  // measure 23
0002
0000
0000
0000
0000
0000
0000
0003
,  // measure 24
1000
0000
0000
0001
0000
0000
0000
0000
,  // measure 25
0100
0000
0000
0010
0000
0000
0000
0000
,  // measure 26
0010
0000
0000
0100
0000
0000
0000
0000
,  // measure 27
0001
0000
0000
0100
0000
0000
0000
0000
,  // measure 28
0001
0000
0000
1000
0000
0000
0000
0000
,  // measure 29
1000
0000
0000
0100
0000
0000
0000
0000
,  // measure 30
1000
0000
0000
0001
0000
0000
0000
0000
,  // measure 31
0001
0000
0000
0100
0000
0000
0000
0000
,  // measure 32
0010
0000
0000
1000
0000
0000
0000
0000
,  // measure 33
0010
0000
0000
0100
0000
0000
0000
0000
,  // measure 34
0001
0000
0000
0100
0000
0000
0000
0000
,  // measure 35
0100
0000
0000
0010
0000
0000
0000
0000
,  // measure 36
0010
0010
0010
0000
,  // measure 37
0100
0100
0100
0000
,  // measure 38
0001
0000
0000
1000
0000
0000
0000
0000
,  // measure 39
1000
1000
1000
0000
,  // measure 40
0020
0000
0000
0000
,  // measure 41
2030
0000
0000
0000
,  // measure 42
3002
0000
0000
0000
,  // measure 43
0203
0000
0000
0000
,  // measure 44
0310
0010
0010
0000
,  // measure 45
1000
1000
1000
0000
,  // measure 46
0200
0000
0302
0000
,  // measure 47
0203
0000
0302
0000
,  // measure 48
1003
0000
0000
0100
0000
0000
0000
0000
,  // measure 49
1000
0000
0000
0010
0000
0000
0000
0000
,  // measure 50
1000
0000
0000
0001
0000
0000
0000
0000
,  // measure 51
0001
0001
0001
0000
,  // measure 52
0100
0000
0000
0010
0000
0000
0000
0000
,  // measure 53
0100
0000
0000
0001
0000
0000
0000
0000
,  // measure 54
0100
0000
0000
0010
0000
0000
0000
0000
,  // measure 55
1000
1000
1000
0000
,  // measure 56
0001
0000
0000
1000
0000
0000
0000
0000
,  // measure 57
0101
0000
0000
0101
0000
0000
0000
0000
,  // measure 58
0101
0000
0000
0101
0000
0000
0000
0000
,  // measure 59
0000
1001
1001
1001
,  // measure 60
1000
0000
0000
0001
0000
0000
0000
0000
,  // measure 61
1000
0000
0000
0001
0000
0000
0000
0000
,  // measure 62
1000
0000
0000
0001
0000
0000
0000
0000
,  // measure 63
0100
0100
0100
0000
,  // measure 64
0001
0000
0000
0001
0000
0000
0000
0000
,  // measure 65
0010
0000
0000
0010
0000
0000
0000
0000
,  // measure 66
0100
0000
0000
0100
0000
0000
0000
0000
,  // measure 67
1000
1000
1000
0000
,  // measure 68
0001
0000
0000
0100
0000
0000
0000
0000
,  // measure 69
0001
0000
0000
0100
0000
0000
0000
0000
,  // measure 70
0001
0000
0000
0100
0000
0000
0000
0000
,  // measure 71
0100
0100
0100
0000
,  // measure 72
0001
0000
0000
1000
0000
0000
0000
0000
,  // measure 73
0001
0000
0000
1000
0000
0000
0000
0000
,  // measure 74
0001
0000
0000
1000
0000
0000
0000
0000
,  // measure 75
0100
0100
0100
0000
,  // measure 76
0001
0000
0000
0100
0000
0000
0000
0000
,  // measure 77
0001
0000
0000
0100
0000
0000
0000
0000
,  // measure 78
0001
0000
0000
0100
0000
0000
0000
0000
,  // measure 79
1000
0000
0000
1000
0000
0000
0000
0000
,  // measure 80
0010
0000
0000
0100
0000
0000
0000
0000
,  // measure 81
0010
0000
0000
0100
0000
0000
0000
0000
,  // measure 82
0010
0000
0000
0100
0000
0000
0000
0100
,  // measure 83
0000
0000
0000
0100
0000
0000
0000
0000
;
