#TITLE:video out d;
#SUBTITLE:;
#ARTIST:Vospi;
#TITLETRANSLIT:;
#SUBTITLETRANSLIT:;
#ARTISTTRANSLIT:;
#GENRE:Drum 'n Bass;
#CREDIT:C. Grab;
#BANNER:vidd bn.png;
#BACKGROUND:vidd bg.png;
#LYRICSPATH:;
#CDTITLE:../maxxcd.png;
#MUSIC:Vospi - video out d.ogg;
#OFFSET:-0.067;
#SAMPLESTART:122.375;
#SAMPLELENGTH:27.692;
#SELECTABLE:YES;
#DISPLAYBPM:208.000;
#BPMS:0.000=208.000,117.000=312.000,118.000=208.000,119.000=308.000,120.000=208.000,272.000=312.000,272.375=104.000,272.500=208.000,273.000=312.000,273.375=104.000,273.500=208.000,274.000=312.000,274.375=104.000,274.500=208.000,275.000=312.000,275.375=104.000,275.500=208.000,310.000=312.000,311.000=208.000,316.000=312.000,317.000=208.000,612.000=312.000,612.500=208.000,615.000=312.000,616.000=208.000,628.000=312.000,628.375=104.000,628.500=208.000,630.000=312.000,630.375=104.000,630.500=208.000,631.000=312.000,631.250=156.000,631.500=312.000,631.750=156.000,632.000=208.000,640.000=312.000,642.000=208.000;
#STOPS:117.000=0.024
,117.250=0.024
,117.500=0.024
,117.750=0.024
,119.000=0.048
,119.500=0.048
,310.000=0.024
,310.250=0.024
,310.500=0.024
,310.750=0.024
,316.000=0.048
,316.500=0.048
,612.000=0.048
,615.000=0.048
,615.500=0.048
,640.000=0.048
,640.500=0.049
,641.000=0.024
,641.250=0.024
,641.500=0.024
,641.750=0.024
;
#BGCHANGES:;
#KEYSOUNDS:;

//---------------dance-single - C. Grab----------------
#NOTES:
     dance-single:
     C. Grab:
     Challenge:
     11:
     1.000,1.000,0.669,0.659,0.238:
0000
0000
0000
0000
0000
0000
0000
0000
0000
0000
0000
M000
0000
0M00
0000
00M0
,
0000
000M
0000
0000
0000
0000
0000
0000
MMMM
0000
0000
0000
0000
0000
0000
0000
,
0001
0000
1010
0000
0010
1000
0001
1000
,
1100
0000
0100
0000
0010
0001
1000
0000
0000
0000
0001
0000
0010
0000
0010
0000
,
0100
0000
1100
0000
0000
0100
0010
0001
,
1001
0000
1000
0000
0001
0100
0010
0000
0000
0000
0100
0000
0010
0000
0010
0000
,
1000
0000
0011
0000
0010
0001
1001
0001
,
1010
0000
1000
0000
0010
0000
0110
0000
0000
0000
0100
0001
1000
0000
1000
0000
,
0100
0000
0110
0000
0010
0001
0010
0100
,
1000
0010
0100
0001
2000
0000
0000
0000
3001
0000
0010
0000
0100
0000
0100
0000
,
0010
0000
0101
0000
0000
0100
0010
0100
,
0101
0000
0001
0000
1000
0100
0010
0000
0100
0000
1000
0000
0001
0000
0001
0000
,
0100
0000
1010
0000
1000
0010
0110
0100
,
0101
0000
0001
0000
1000
0000
1100
0000
0000
0000
0100
1000
0010
0000
0010
0000
,
0100
0100
0001
0000
1100
1000
0001
0010
,
0100
1000
1040
0030
0100
0010
1000
1000
,
0001
0010
0100
0000
0011
0010
0001
1000
,
0001
0100
0010
1000
0002
0000
0000
0000
1003
0000
0000
0000
0001
0000
0000
0010
,
0100
0000
1001
0000
0000
0001
0100
0100
,
1000
0100
0001
1001
1000
0100
0010
0010
,
0100
0000
0000
1001
0001
1000
0100
0100
,
0110
0000
0010
0000
0001
1000
0010
0000
0000
0000
0100
0000
0001
0000
0001
0000
,
1000
0000
0000
0000
0011
0000
0000
0000
0010
0000
0001
0000
0100
0010
0000
0000
,
0110
0000
0010
0000
1000
0000
1100
0000
0000
0000
0100
1000
0001
0000
0001
0000
,
0100
0000
1010
0000
0010
0100
0001
1000
,
0100
0010
0001
1000
0200
0000
0000
0000
0310
0000
0001
0000
0100
0000
0100
0000
,
0010
0000
1100
0000
0100
0010
0100
0100
,
1100
0000
1000
0000
0001
0100
0010
0000
0100
0000
0100
0000
0001
0000
0001
0000
,
0010
0000
0110
0000
0000
0010
0001
0001
,
0100
0001
0010
0000
0004
0000
0000
0000
1003
0000
0000
0000
0M20
0030
0M20
0030
,
0100
0001
1000
0000
0011
0001
1000
0010
,
0200
0000
0000
0300
0110
0000
0000
0000
0010
0000
1000
0000
0001
0000
0001
0000
,
0010
0100
1000
0000
0101
0100
0010
0100
,
0001
0010
0100
1000
0002
0000
0000
0000
1003
0000
0000
0000
0010
0000
0000
0000
,
0200
0302
2003
3200
0000
0300
0010
0002
,
0000
0000
0000
0000
,
2003
0000
0000
3020
0000
0230
0000
0302
,
0000
0000
0000
0000
,
1003
0000
0100
0000
1000
0000
0100
0000
1000
0000
0100
0000
1000
0000
0001
0100
,
0010
0000
1000
0000
0010
0000
1000
0000
0010
0000
1000
0000
0010
0000
0100
0001
,
1000
0000
0001
0000
1000
0000
0001
0000
1000
0000
0001
0000
1000
0000
0100
0010
,
0001
0000
0010
0000
0001
0000
0010
0000
0001
0000
0010
0000
0001
0000
1000
0010
,
0100
0000
0001
0000
0100
0000
0001
0000
0100
0000
0001
0000
0100
0000
0010
1000
,
0100
0000
1000
0000
0100
0000
1000
0000
0100
0000
1000
0000
0100
0000
0010
0001
,
1000
0000
0010
0000
1000
0000
0010
0000
1000
0000
0010
0000
1000
0000
0100
0010
,
0001
0000
0100
0000
0001
0000
0100
0000
0001
0000
0100
0000
0001
0000
0010
0100
,
1000
0000
0001
0000
1000
0000
0001
0000
1000
0000
0001
0000
1000
0000
0100
0010
,
0001
0000
0000
0000
,
2000
0000
0000
0000
0000
0000
3020
0000
0000
0000
0230
0000
0000
0000
0302
0003
,
1001
1000
0001
0100
0010
0200
0000
0000
,
0301
0000
1001
0000
0000
1000
0010
0010
,
0001
0010
1000
1001
0001
0010
0100
0100
,
0010
0000
0000
1001
1000
0001
0010
0010
,
0110
0000
0100
0000
1000
0001
0100
0000
0000
0000
0010
0000
1000
0000
1000
0000
,
0001
0000
0000
0000
1100
0000
0000
0000
0100
0000
1000
0000
0001
0100
0000
0000
,
0101
0000
0100
0000
0001
0000
0011
0000
0000
0000
0010
0100
1000
0000
1000
0000
,
0001
0000
1010
0000
0010
0100
0001
1000
,
0100
0010
0001
1000
0100
0000
0000
0000
0100
0000
1000
0000
0010
0000
0010
0000
,
0100
0000
1001
0000
1000
0100
0010
0010
,
0110
0000
0100
0000
1000
0010
0100
0000
0010
0000
0010
0000
1000
0000
1000
0000
,
0001
0000
1100
0000
0100
0010
0001
0001
,
2000
0000
0010
0000
0100
0000
3002
0000
0010
0000
1003
0010
0100
0000
0010
0000
,
1000
1000
0100
0000
0011
0010
0001
1000
,
0001
0100
1040
0000
0130
0000
0001
0001
,
1000
1000
0100
0000
1001
1000
0010
0100
,
0001
1000
0100
0010
0002
0000
0000
0000
1003
0000
0000
0000
0010
0000
0000
0000
,
0100
0000
0110
0000
0000
0100
0001
0001
,
0010
0000
0000
0011
0001
0100
0010
0100
,
0002
0000
1003
0000
0002
0000
1003
0000
0002
0000
1003
0001
2000
0000
3001
0000
,
1001
0000
1000
0000
0010
0000
0110
0000
0100
0000
0001
0010
0100
0000
0100
0000
,
1100
0000
1000
0000
0001
0000
0000
0000
0100
0000
0100
0000
0010
1000
0000
0000
,
1010
0000
1000
0000
0001
0000
0011
0000
0000
0000
0010
0001
1000
0000
1000
0000
,
0110
0000
1001
1100
0000
0100
1000
0001
,
0100
0010
1000
0001
0200
0000
0000
0000
0310
0000
1000
0000
0001
0000
0001
0000
,
1001
0000
1000
0100
1000
0000
0001
0100
0001
0000
1000
0100
1000
0000
0001
0000
,
0101
0000
0100
0000
0010
0100
0001
0000
0010
0000
0001
0000
1000
0000
0010
0000
,
0110
0000
0100
0000
1001
0000
1000
0100
1000
0100
1000
0001
0010
0000
0100
1000
,
0001
0100
0001
0010
0100
0000
1000
0000
0040
0000
0000
0000
0130
0001
0100
0000
,
0101
0001
1000
0000
0011
0010
0100
0010
,
M002
0003
M002
0003
0101
0000
0000
0000
0100
0000
0001
0000
1000
0000
1000
0000
,
0100
0010
0001
0000
1010
1000
0001
0010
,
0001
1000
0010
0100
0002
0000
0000
0000
1003
0000
0000
0000
0100
0000
0000
0000
,
0110
0010
0001
0000
0000
1000
0001
0000
,
0100
0000
1010
1000
0001
0100
1010
1000
,
0001
0000
0011
0001
1000
0100
0011
0001
,
0100
0000
0101
0001
1000
0010
0101
0001
,
0010
0000
0110
0100
1000
0001
0110
0000
,
1000
0000
0101
0100
0010
1000
0101
0100
,
0001
1000
0100
0000
0000
0010
0100
0000
,
1000
0010
0100
0001
1000
0000
0000
0000
0000
0000
0100
0000
0010
0000
0010
0000
,
0110
0100
1000
0000
0000
0001
1000
0000
,
0010
0000
0101
0001
1000
0010
0101
0001
,
1000
0000
1100
1000
0001
0010
1100
1000
,
0010
0000
1010
1000
0001
0100
1010
1000
,
0100
0000
0110
0010
0001
1000
0110
0010
,
0001
0000
1010
0010
0100
0001
1010
0010
,
0100
0001
1000
0001
0001
0010
0100
2000
,
0000
3002
0000
0203
0000
0300
0010
0000
,
2000
3002
0023
0230
0300
0000
0200
0320
,
0032
0203
0320
2030
3000
0000
0200
0320
,
0032
0000
0000
2003
0000
3020
0000
0230
,
0320
0000
0000
2030
0000
3002
0000
0023
,
0230
2300
3002
0203
0300
0000
0000
0000
,
0020
0230
0302
2003
3000
0000
0200
0000
,
0320
0032
0203
0320
0030
0020
0030
2000
,
3200
2300
3000
0020
0030
0000
0200
0320
,
2030
3200
0320
0032
0000
0203
0320
0230
,
0302
2003
3200
0320
0000
0000
0230
0300
,
2000
3002
0203
0302
0000
0203
0000
0320
,
0000
0030
0200
0300
0000
0000
0002
0003
,
2000
3200
0320
0032
0003
0200
0300
0020
,
0230
0320
2030
3002
0003
0000
2000
0000
,
3200
0320
0230
2300
0000
3002
0000
0203
,
0000
0000
0300
0000
,
0010
0000
0101
0000
1000
0100
0010
0010
,
0001
0100
0001
1001
1000
0100
0010
0100
,
1000
0000
0101
0000
0100
0010
1000
1000
,
0100
1000
0010
0110
0100
0001
1000
0100
,
1000
0000
0011
0000
0010
0001
1000
1000
,
0010
1000
0100
0110
0010
0001
1000
0001
,
0100
0000
1010
0000
0010
1000
0010
0100
,
0001
0010
0100
1000
0001
0000
0000
0000
0001
0000
0100
0000
0001
0000
0001
0000
,
0010
0000
1001
0000
1000
0010
0100
0100
,
0001
0010
0001
1001
1000
0010
0100
0010
,
1000
0000
0011
0000
0010
0100
1000
1000
,
0010
1000
0100
0110
0010
0001
1000
0010
,
1000
0000
0101
0000
0100
0001
1000
1000
,
0100
1000
0010
0110
0100
0001
1000
0001
,
0010
0000
1100
0000
0100
1000
0100
0010
,
0001
0100
0010
1000
0002
0000
0000
0000
1003
0000
0000
0000
0010
0000
0000
0000
,
0100
0000
1001
0000
1000
0100
1000
0100
,
0010
0010
0001
1001
1000
0010
0100
0001
,
1000
0000
0011
0000
0010
0100
0010
0100
,
1000
1000
0010
0110
0100
0001
1000
0100
,
1000
0000
0101
0000
0100
0001
0100
0001
,
0010
0010
0001
0101
0100
0010
1000
0001
,
0010
0000
1100
0000
0100
0010
0100
0010
,
0001
1000
0010
0100
0001
0000
0000
0000
0001
0000
0100
0000
0010
0000
0010
0000
,
0100
0000
1001
0000
1000
0100
1000
0100
,
0010
0010
0001
1001
1000
0010
0100
0001
,
1000
0000
0011
0000
0010
0100
0010
0100
,
1000
1000
0010
0110
0100
0001
1000
0100
,
1000
1000
0001
0000
0100
0001
0100
0001
,
0010
0010
0001
0101
0100
0010
1000
0001
,
0010
0010
0100
0000
1010
1000
0100
1000
,
0001
0100
0010
1000
0002
0000
0000
0000
1003
0000
0000
0000
0100
0000
0000
0000
,
00M0
0000
000M
M000
0000
00M0
0M00
000M
,
1001
0000
1000
0000
0010
0100
0001
0000
0000
0000
1000
0000
0100
0000
0100
0000
,
00M0
000M
00M0
0M00
M000
0M00
00M0
000M
M000
00M0
0M00
000M
0M00
00M0
M000
000M
,
1000
0000
0010
0000
0100
0001
0100
0001
0010
0000
0000
0000
0100
0000
0100
0000
,
1000
0000
0101
0000
0100
0010
0100
0001
,
1001
0000
1000
0000
0100
0010
0001
0000
0000
0000
0100
0000
0001
0000
0001
0000
,
1000
0000
0011
0000
0010
0001
0100
0001
,
20M0
3000
0100
0000
0010
0001
1000
0010
1000
0001
0010
0100
M020
0030
M002
0003
,
1000
0000
0101
0000
0100
0001
1000
0100
,
0110
0000
0010
0000
0001
1000
0010
0000
0001
0000
0010
0000
1000
0000
0001
0000
,
0010
0000
1100
0000
1000
0001
0010
0001
,
2000
0000
3001
0000
0100
0010
1000
0001
0020
0000
0030
0000
0002
0003
0002
0003
,
1000
0000
1001
0000
0000
0001
M11M
1000
,
1100
0100
0010
0011
0000
0001
0100
0001
,
20M0
3000
20M0
3000
0400
0000
0000
0000
0310
0000
0001
0000
0100
0000
0010
0000
,
0000
0000
M000
000M
;

//---------------dance-single - C. Grab----------------
#NOTES:
     dance-single:
     C. Grab:
     Beginner:
     2:
     0.120,0.217,0.011,0.000,0.000:
0000
0000
0000
0000
,
0000
0000
0000
0000
,
1000
0000
0000
0000
,
0001
0000
0000
0000
,
0100
0000
0000
0000
,
0001
0000
0000
0000
,
1000
0000
0000
0000
,
0001
0000
0000
0000
,
0010
0000
0000
0000
,
0100
0000
0000
0000
,
0010
0000
0000
0000
,
0001
0000
0000
0000
,
1000
0000
0000
0000
,
0010
0000
0000
0000
,
0100
0000
0000
0000
,
0010
0000
0000
0000
,
1000
0000
0000
0000
,
0010
0000
0000
0000
,
0100
0000
0000
0000
,
0001
0000
0000
0000
,
1000
0000
0000
0000
,
0100
0000
0000
0000
,
0010
0000
0000
0000
,
0100
0000
0000
0000
,
0010
0000
0000
0000
,
0001
0000
0000
0000
,
1000
0000
0000
0000
,
0010
0000
0000
0000
,
0100
0000
0000
0000
,
0010
0000
0000
0000
,
1000
0000
0000
0000
,
0001
0000
0000
0000
,
1000
0000
0000
0000
,
0100
0000
0000
0000
,
0010
0000
0000
0000
,
0000
0000
0000
0000
,
0001
0000
0000
0000
,
0000
0000
0000
0000
,
1000
0000
0000
0000
,
0010
0000
0000
0000
,
1000
0000
0000
0000
,
0001
0000
0000
0000
,
1000
0000
0000
0000
,
0100
0000
0000
0000
,
1000
0000
0000
0000
,
0100
0000
0000
0000
,
0010
0000
0000
0000
,
0000
0000
0000
0000
,
1000
0000
0000
0000
,
0001
0000
0000
0000
,
1000
0000
0000
0000
,
0100
0000
0000
0000
,
0010
0000
0000
0000
,
0100
0000
0000
0000
,
1000
0000
0000
0000
,
0010
0000
0000
0000
,
0100
0000
0000
0000
,
0010
0000
0000
0000
,
0100
0000
0000
0000
,
0001
0000
0000
0000
,
1000
0000
0000
0000
,
0001
0000
0000
0000
,
0010
0000
0000
0000
,
0001
0000
0000
0000
,
1000
0000
0000
0000
,
0010
0000
0000
0000
,
0100
0000
0000
0000
,
0010
0000
0000
0000
,
1000
1000
1000
1000
,
1000
0000
0000
0000
,
0001
0000
0000
0000
,
0010
0000
0000
0000
,
0001
0000
0000
0000
,
0100
0000
0000
0000
,
0010
0010
0010
0010
,
0010
0000
0000
0000
,
1000
0000
1000
0000
,
0001
0000
0001
0000
,
0001
0000
0000
0000
,
1000
0000
0000
0000
,
0010
0000
0000
0000
,
0100
0000
0000
0000
,
0010
0000
0000
0000
,
0100
0000
0000
0000
,
0010
0000
0000
0000
,
1000
0000
0000
0000
,
0001
0000
0000
0000
,
0010
0000
0000
0000
,
0100
0000
0000
0000
,
0010
0000
0000
0000
,
0001
0000
0000
0000
,
1000
0000
0000
0000
,
0010
0000
0000
0000
,
0100
0000
0000
0000
,
0010
0000
0000
0000
,
1000
0000
0000
0000
,
0001
0000
0000
0000
,
0000
0000
0000
0000
,
1000
0000
0000
0000
,
0000
0000
0000
0000
,
0001
0000
0000
0000
,
0000
0000
0000
0000
,
0010
0000
0000
0000
,
0000
0000
0000
0000
,
0100
0000
0000
0000
,
0000
0000
0000
0000
,
0010
0000
0000
0000
,
0000
0000
0000
0000
,
0001
0000
0000
0000
,
0000
0000
0000
0000
,
1000
0000
0000
0000
,
0000
0000
0000
0000
,
0001
0000
0000
0000
,
0000
0000
0000
0000
,
1001
0000
0000
0000
,
1000
0000
0000
0000
,
0010
0000
0000
0000
,
0100
0000
0000
0000
,
0010
0000
0000
0000
,
1000
0000
0000
0000
,
0001
0000
0000
0000
,
0010
0000
0000
0000
,
0100
0000
0000
0000
,
0010
0000
0000
0000
,
0001
0000
0000
0000
,
1000
0000
0000
0000
,
0010
0000
0000
0000
,
0100
0000
0000
0000
,
0001
0000
0000
0000
,
1000
0000
0000
0000
,
0001
0000
0000
0000
,
0010
0000
0000
0000
,
0100
0000
0000
0000
,
0010
0000
0000
0000
,
0001
0000
0000
0000
,
1000
0000
0000
0000
,
0001
0000
0000
0000
,
0100
0000
0000
0000
,
0001
0000
0000
0000
,
1000
0000
0000
0000
,
0010
0000
0000
0000
,
0100
0000
0000
0000
,
0010
0000
0000
0000
,
1000
0000
0000
0000
,
0001
0000
0000
0000
,
0010
0000
0000
0000
,
0000
0000
0000
0000
,
1001
0000
0000
0000
,
0000
0000
0000
0000
,
1000
0000
0000
0000
,
0001
0000
0000
0000
,
0100
0000
0000
0000
,
0010
0000
0000
0000
,
0100
0000
0000
0000
,
0010
0000
0000
0000
,
1000
0000
0000
0000
,
0001
0000
0000
0000
,
0010
0000
0100
0100
,
0100
0000
0000
0000
,
1000
0000
0000
0000
,
0010
0000
0000
0000
,
0000
0000
M000
000M
;
