#TITLE:Random Dungeon Theme 2;
#SUBTITLE:;
#ARTIST:飯吉新;
#TITLETRANSLIT:;
#SUBTITLETRANSLIT:;
#ARTISTTRANSLIT:Arata Iiyoshi;
#CREDIT:;
#BANNER:Random Dungeon Theme 2.png;
#BACKGROUND:Random Dungeon Theme 2-bg.png;
#LYRICSPATH:;
#CDTITLE:;
#MUSIC:Random Dungeon Theme 2.mp3;
#OFFSET:1.232;
#SAMPLESTART:0.460;
#SAMPLELENGTH:12.000;
#SELECTABLE:YES;
#BPMS:0.000=140.000;
#STOPS:201.000=0.857
;
#BGCHANGES:;

//---------------dance-single - ----------------
#NOTES:
     dance-single:
     :
     Challenge:
     16:
     0.976,0.928,0.536,0.928,0.686: // measure 1
0000
0000
0000
0000
,  // measure 2
1000
0100
1000
0100
0010
0001
0010
0001
1000
0100
0010
0001
1000
0000
0100
0000
,  // measure 3
1000
0100
1000
0010
1000
0010
0100
0001
,  // measure 4
0100
0000
0000
0010
0000
0000
1000
0000
0000
0010
0000
0000
0100
0000
0000
0001
0000
0000
0010
0000
0000
0001
0100
0010
,  // measure 5
1000
0011
0000
0010
1000
0100
0000
1000
,  // measure 6
0001
0000
0100
0000
0020
0000
0001
0000
0000
0000
1030
0000
0100
0001
0100
1000
,  // measure 7
0100
0000
0000
1000
0000
0000
0001
0000
0000
0100
0000
0000
0010
1000
0010
1000
0100
0001
0200
0000
0000
1300
0000
0000
,  // measure 8
0020
0000
0031
0000
2000
0000
3100
0000
0020
0000
1030
0000
0100
0010
0001
0010
,  // measure 9
1000
0000
0000
0010
0000
0000
0100
0000
0000
1000
0000
0000
0001
0100
0010
1000
0001
0010
0100
0000
0000
1000
0000
0000
,  // measure 10
0100
0000
0010
0000
0001
0000
0011
0000
0000
0000
1100
0000
0100
1000
0010
0001
,  // measure 11
0010
0000
0000
0100
0000
0000
1000
0000
0000
0100
0000
0000
0001
0010
0100
0001
0100
0010
0002
0000
0000
1003
0000
0000
,  // measure 12
0200
0000
0310
0000
0200
0000
1300
0000
0020
0000
0130
0000
0001
0010
0001
1000
,  // measure 13
0100
0000
0000
0000
0000
0000
1000
0000
0000
0000
0000
0000
0100
0000
0000
0000
0000
0000
0001
0000
0000
0000
0000
0000
1000
0000
0010
0000
0001
0000
0010
0000
1000
0000
0010
0000
0100
0000
0000
0000
0000
0000
1000
0000
0000
0010
0000
0000
,  // measure 14
0100
0001
1000
0100
0010
0001
0010
0100
1000
0010
1000
0100
0010
0100
0001
1000
,  // measure 15
0010
0000
0000
0001
0000
0000
1000
0000
0000
0010
0000
0000
0001
0010
0001
0010
1000
0010
2000
0000
3000
1000
0000
0000
,  // measure 16
0020
0000
0000
0000
0030
0000
0010
0000
0000
0000
0000
0000
0200
0000
0000
0000
0300
0000
0100
0000
0000
0000
0000
0000
0002
0000
0000
0000
0003
0000
0001
0000
0000
0000
0000
0000
0100
0000
0000
0010
0000
0000
0001
0000
0000
0010
0000
0000
,  // measure 17
0100
0000
0000
1000
0000
0000
0100
0000
0000
0001
0000
0000
0010
0001
0100
0010
1000
0100
0010
0000
0000
1000
0000
0000
,  // measure 18
0010
0000
0100
0000
0001
0000
1010
0000
0000
0000
0101
0000
0010
0100
0001
0100
,  // measure 19
0010
0000
0000
0100
0000
0000
1000
0000
0000
0100
0000
0000
0001
0010
0100
1000
0010
0100
0001
0000
0000
0100
0000
0000
,  // measure 20
0202
0000
0000
0303
0010
0000
0100
0000
0220
0000
0000
0330
0010
1000
0100
0001
,  // measure 21
0100
0000
0000
0010
0000
0000
0001
0000
0000
0100
0000
0000
0010
1000
0010
1000
0100
0001
0100
0000
0000
1000
0000
0000
,  // measure 22
2200
0000
0000
3300
0001
0000
0100
0000
0202
0000
0000
0303
0010
0100
0010
0100
,  // measure 23
0001
0000
0000
0010
0000
0000
0010
0100
1000
0010
0000
0000
0010
0100
0001
0010
0000
0000
1000
0000
0000
2002
0000
0000
,  // measure 24
0000
3003
1001
0000
0100
0000
2020
0000
0000
3030
1010
0000
0001
0000
0220
0000
,  // measure 25
0300
0030
0011
0000
0100
0000
1000
0000
0200
0000
0000
0300
0220
0000
0030
0300
,  // measure 26
0100
1000
0100
0001
0010
1000
0001
0100
1000
0001
0100
1000
0001
0000
0010
0000
,  // measure 27
1000
0000
0000
0100
0000
0000
0001
0000
0000
0100
0000
0000
0010
0000
0000
1000
0000
0000
0010
0000
0000
0001
0100
0010
,  // measure 28
1000
2020
3030
0100
0001
0202
0303
0010
,  // measure 29
1000
0000
0100
0000
0001
0000
0200
0000
0000
0000
1000
0000
0310
0001
0100
1000
,  // measure 30
0100
0000
0000
0000
0000
0000
0010
0000
0000
0000
0000
0000
0010
0000
0100
0000
0010
0000
0100
0000
0010
0000
0100
0000
0010
0000
0000
0000
0000
0000
0010
0000
0000
1000
0000
0000
0100
0000
0000
0000
0000
0000
0100
0000
0000
0020
0000
0000
,  // measure 31
0000
0000
0031
0010
0100
0000
0100
2000
0000
0000
3100
1000
0200
0000
0310
0000
,  // measure 32
0002
0103
0020
1030
0200
1300
0020
0130
,  // measure 33
0001
0000
1000
0000
0001
0000
0220
0000
0330
0000
0110
0000
0100
0010
1000
0100
,  // measure 34
0010
0000
0000
0000
0000
0000
0001
0000
0000
0000
0000
0000
0010
0000
0100
0000
1000
0000
0010
0000
1000
0000
0100
0000
0010
0000
0000
0000
0000
0000
0001
0000
0000
0010
0000
0000
0100
0000
0000
0000
0000
0000
0100
0000
0000
0020
0000
0000
,  // measure 35
0000
0000
0031
0100
1000
0000
1000
0200
0000
0000
0310
1000
0200
0000
0310
0000
,  // measure 36
0002
1003
0020
1030
0200
1300
0020
0130
,  // measure 37
0001
0000
0010
0000
0100
0000
2020
0000
3030
0000
1010
0000
0101
0000
0001
0100
,  // measure 38
1000
0000
0100
0010
1000
0000
0100
0001
0200
0000
0000
0300
0010
0000
1000
0010
,  // measure 39
0100
0000
0001
0010
0100
0000
1000
0001
0200
0000
0000
0300
0011
0000
0101
0000
,  // measure 40
1001
0011
1100
1001
1010
1100
1010
0011
,  // measure 41
0110
1010
0101
0110
1100
0101
2002
3003
,  // measure 42
0220
0000
0330
0202
0303
1010
2200
3300
,  // measure 43
0022
0000
0000
0000
0033
0000
0202
0000
0303
0000
0010
0000
1000
0000
1000
0100
,  // measure 44
0001
0000
0000
0000
0000
0000
0001
0000
0000
0000
0000
0000
0001
0000
0000
0000
0000
0000
0001
0000
0000
0000
0000
0000
0001
0000
0100
0000
1000
0000
0002
0000
0000
0000
0000
0000
0003
0000
0000
0000
0000
0000
0100
0000
0000
0010
0000
0000
,  // measure 45
1000
0000
0001
0000
0100
0000
0100
0000
0010
0010
0100
0100
0002
0000
0000
0000
,  // measure 46
1003
0000
0000
0000
0000
0000
1000
0000
0001
0000
1000
0000
0001
0000
0000
0000
0000
0000
0100
0000
0000
0000
0000
0000
0100
0000
0000
0000
0000
0000
0010
0000
0000
1000
0000
0000
0200
0000
0000
0000
0000
0000
0000
0000
0000
0000
0000
0000
,  // measure 47
0310
0000
0000
0000
0000
0000
0001
0000
1000
0000
0001
0000
1000
0000
0000
0000
0000
0000
0010
0000
0000
0000
0000
0000
0010
0000
0000
0000
0000
0000
1000
0000
0000
0100
0000
0000
2000
0000
0000
0000
0000
0000
3000
0000
0000
0000
0000
0000
,  // measure 48
0020
2030
3200
0302
,  // measure 49
0023
0000
0000
0000
2030
0000
0000
0000
3200
0000
0000
0300
0220
0000
0000
0000
,  // measure 50
0330
0020
0000
0000
0032
2000
0000
3003
,  // measure 51
0010
0000
0000
0000
0100
0000
0000
0000
0001
0000
0000
0000
2000
0000
0000
3000
0000
0000
0000
0000
0000
0000
0000
0000
1000
0000
0000
0010
0000
0000
0100
0000
0000
0001
0000
0000
0100
0000
0000
0001
0000
0000
0010
0000
0000
0100
0000
0000
,  // measure 52
1000
0010
0100
1000
0100
0000
0001
0000
0010
0000
0100
0000
1000
0000
0001
0000
,  // measure 53
1000
0010
0100
0001
0010
0100
0010
1000
,  // measure 54
0010
0000
0000
0001
0000
0000
0100
0000
0000
0010
1000
0001
0100
0000
0000
0220
0000
0000
0330
0000
0000
0100
0000
0000
,  // measure 55
0010
0220
0330
0011
1000
0100
0010
0022
,  // measure 56
0033
0000
1100
0000
0010
0100
0001
0010
0100
0000
1000
0000
0100
0000
0010
0000
,  // measure 57
0100
1000
0100
1000
0001
0010
0001
0000
0000
0000
0000
0000
0000
0000
0000
0000
0000
0000
0000
0000
0000
0000
0000
0000
;
