#TITLE:Electric Forest;
#SUBTITLE:;
#ARTIST:AS-13;
#TITLETRANSLIT:;
#SUBTITLETRANSLIT:;
#ARTISTTRANSLIT:;
#GENRE:;
#CREDIT:;
#BANNER:electricforest-bn.png;
#BACKGROUND:electricforest-bg.png;
#LYRICSPATH:;
#CDTITLE:;
#MUSIC:Electric Forest.mp3;
#OFFSET:-0.080000;
#SAMPLESTART:44.305550;
#SAMPLELENGTH:12.000000;
#SELECTABLE:YES;
#BPMS:0.000000=130.000000
;
#STOPS:
;
#BGCHANGES:;
#KEYSOUNDS:;
#ATTACKS:;

//---------------dance-single - ----------------
#NOTES:
     dance-single:
     :
     Hard:
     8:
     0.471794,0.478322,0.149046,0.078446,0.706010,392.000000,19.000000,10.000000,0.000000,0.000000,0.000000,0.471794,0.478322,0.149046,0.078446,0.706010,392.000000,19.000000,10.000000,0.000000,0.000000,0.000000:
0000
0000
0000
0000
,
0000
0000
0000
0000
,
0000
0000
0000
0000
,
0000
0000
0000
0000
,
0000
0000
0000
0000
,
0000
0000
0000
0000
,
0000
0000
0000
0000
,
0000
0000
0000
0000
,
0100
0000
0100
0010
0000
1001
0000
0000
0010
0100
0000
0000
,
0010
0000
0010
0100
0000
1001
0000
0000
0100
0010
0000
0000
,
1000
0000
1000
0100
0000
0011
0000
0000
0100
1000
0000
0000
,
0100
0000
0100
1000
0000
0011
0000
0000
1000
0100
0000
0000
,
0010
0000
0010
0100
0000
0100
0010
0000
0010
0100
0000
0100
,
1000
0000
1000
0100
0000
0100
1000
0000
1000
0100
0000
0100
,
0010
0000
0010
0001
0000
0001
0100
0000
0100
0001
0000
0001
,
1000
0000
1000
0010
0000
0010
0100
0001
0100
0010
0000
0000
,
0101
0000
0000
1000
0000
1000
0010
0000
1000
0100
0000
0000
,
0010
0001
1000
0001
0000
0001
0100
0000
0100
0010
0000
0000
,
0100
0001
1000
0001
0000
0001
0010
0000
0010
0100
0000
0000
,
1000
0100
0010
0001
0000
0010
0100
0000
0000
1001
0000
0000
,
1000
0000
0000
0010
0000
1000
0001
0000
0001
0100
0000
0000
,
0001
0100
0001
1000
0000
1000
0010
0000
0010
0100
0000
0000
,
0010
1000
0010
0100
0000
0100
0001
0000
0001
0100
0000
0010
,
1000
0000
0000
0001
0000
1000
1100
0000
0010
0011
0000
0100
,
1100
0000
0000
0010
0000
0000
0001
0000
1000
0100
0000
0000
,
1000
0010
1000
0100
0000
0100
1000
0000
1000
0010
0000
0000
,
0100
0001
0010
0001
0000
0001
0100
0000
0100
0010
0000
0000
,
1000
0100
0010
0001
0000
1000
0100
0000
0000
1001
0000
0100
,
0001
0000
0000
1000
0000
0010
1000
0000
1000
0100
0000
0000
,
0010
0001
0100
0001
0000
0001
0010
0000
0010
0100
0000
0000
,
1000
0100
1000
0010
0000
0010
1000
0000
1000
0100
0000
0010
,
0001
0000
0000
1000
0000
1000
0100
1000
0100
1000
0000
0000
,
0010
0000
0000
0100
0000
0001
1000
0000
0000
0110
0000
0000
,
0001
0000
0100
0010
0000
0010
0100
0000
0100
0000
0000
0001
,
0100
0000
0000
0010
0000
1000
0001
0000
0001
0000
0010
0000
,
1000
0000
1000
0000
0010
0000
0001
0000
0000
0100
0000
0100
,
0001
0000
0000
0010
0000
0100
0010
0000
0010
0000
0000
0001
,
0010
0000
0010
0100
0000
0100
1000
0000
1001
0000
0000
0001
,
0100
0000
0000
0010
0000
0010
0100
0000
0100
0000
0001
0000
,
0010
0000
0010
0000
0001
0000
0101
0000
0000
1001
0000
0000
,
0020
0000
0000
0030
0000
0010
0200
0000
0000
0300
0000
0100
,
0001
0000
0010
0000
0000
0010
0200
0000
0000
0300
0000
1000
,
0100
0000
0010
0000
0000
0010
0002
0000
0000
0003
0000
0001
,
0010
0000
0100
0000
0000
0100
1000
0000
0000
0010
0000
1000
,
0200
0000
0000
0300
0000
0100
0020
0000
0000
0030
0000
0000
,
0001
0000
0010
0000
0000
0001
0200
0000
0000
0300
0000
0000
,
1000
0000
0010
0000
0000
1000
0100
0000
0000
0001
0000
0000
,
0100
0000
0000
0010
0000
1000
0001
1000
0001
1000
0000
0000
,
0011
0000
0000
0100
0000
0000
1000
0000
0100
0010
0000
0000
,
0001
0010
0100
0010
0000
0010
0001
0000
0001
0100
0000
0000
,
0010
1000
0010
0100
0000
0100
0001
0000
0001
1000
0000
0000
,
0001
0100
0001
0010
0000
0000
0100
0000
0000
1001
0000
0000
,
1000
0000
0000
0010
0000
1000
0001
0000
0001
0100
0000
0000
,
0001
0100
0001
1000
0000
1000
0100
0000
0100
0010
0000
0000
,
0100
1000
0100
0010
0000
0010
0001
0000
0001
0100
0000
0001
,
1000
0000
1000
0100
0000
1000
0010
0000
0000
0100
0000
0000
,
1001
0000
0000
0001
0000
0010
0100
0000
0100
1000
0000
0000
,
0010
1000
0001
1000
0000
1000
0100
0000
0100
0010
0000
0000
,
0100
1000
0001
1000
0000
1000
0010
0000
0010
0100
0000
0000
,
0001
0100
0001
0100
0000
0000
0010
1000
0010
1000
0000
0000
,
1100
0000
0000
0001
0000
0001
0100
0000
0000
1001
0000
0000
,
0010
0001
1000
0100
0000
0100
1000
0000
1000
0001
0000
0000
,
0100
0001
1000
0010
0000
0010
1000
0000
1000
0001
0000
0100
,
0001
0000
0000
0020
0000
0000
0130
0000
0100
0010
0000
0010
,
0001
0000
0100
0000
,
0010
0000
0010
0000
1000
0000
0200
0000
0000
0300
0000
0000
,
0010
0000
0010
0000
0001
0000
0200
0000
0000
0310
0000
0000
,
0010
0000
0000
1000
0000
0000
0100
1000
0001
0010
0000
0000
;

//---------------dance-single - ----------------
#NOTES:
     dance-single:
     :
     Medium:
     5:
     0.276801,0.292308,0.094135,0.023534,0.223570,232.000000,12.000000,3.000000,0.000000,0.000000,0.000000,0.276801,0.292308,0.094135,0.023534,0.223570,232.000000,12.000000,3.000000,0.000000,0.000000,0.000000:
0000
0000
0000
0000
,
0000
0000
0000
0000
,
0000
0000
0000
0000
,
0000
0000
0000
0000
,
0000
0000
0000
0000
,
0000
0000
0000
0000
,
0000
0000
0000
0000
,
0000
0000
0000
0000
,
0001
0100
0001
0100
,
0010
1000
0001
0100
,
1000
0100
1000
0100
,
0010
0001
1000
0100
,
0001
0010
0001
0010
,
0100
1000
0001
0010
,
1000
0010
1000
0010
,
0001
0101
1000
1100
,
0001
0000
0100
0000
,
1000
0000
1000
0000
1000
0000
0100
0000
0000
0000
0000
0000
,
0001
0000
0001
0000
0001
0000
0100
0000
0000
0000
0000
0000
,
1000
0000
1000
0000
1000
0000
0100
0000
0000
0100
0000
0000
,
0010
0000
0100
0000
,
1000
0000
1000
0000
1000
0000
0010
0000
0000
0000
0000
0000
,
0001
0000
0001
0000
0001
0000
0010
0000
0000
1000
0000
0000
,
0010
0100
0110
1001
,
0001
1000
0100
0000
,
1000
0000
0100
0000
1000
0000
0100
0000
0000
0000
0000
0000
,
0001
0000
0100
0000
0001
0000
0100
0000
0000
0000
0000
0000
,
1000
0000
0100
0000
1000
0000
0100
0000
0000
0100
0000
0000
,
0010
0001
0200
0300
,
0010
0000
1000
0000
0010
0000
1000
0000
0000
0000
0000
0000
,
0010
0000
0001
0000
0010
0000
0001
0000
0000
0001
0000
0000
,
1000
0100
0001
1001
,
1000
0100
0010
0100
,
1000
0000
0000
0010
0000
0000
0100
0000
0100
0000
0000
0000
,
0001
0000
0000
0100
0000
0000
0010
0000
0010
0000
0000
0000
,
1000
0000
1000
0000
0000
0000
0001
0000
0000
0100
0000
0000
,
0010
0000
0000
0100
0000
0000
0001
0000
0001
0000
0000
0000
,
0010
0000
0000
0100
0000
0000
1000
0000
1000
0000
0000
0000
,
0010
1000
0001
0100
,
0001
0010
1100
0011
,
0100
0000
1000
0000
,
0010
0000
0010
0000
1000
0000
0100
0000
0000
0000
0000
0000
,
0010
0000
0010
0000
0001
0000
0100
0000
0000
0000
0000
0000
,
0010
0000
0010
0000
1000
0000
0100
0000
0000
0010
0000
0000
,
0001
0000
0100
0000
,
0010
0000
0010
0000
0100
0000
0001
0000
0000
0000
0000
0000
,
0010
0000
0010
0000
0100
0000
1000
0000
0000
0010
0000
0000
,
0100
0000
0000
0001
0000
0000
0010
0000
0100
0000
1000
0000
,
0010
1000
0100
0000
,
0010
0000
0001
0000
0010
0000
0100
0000
0000
0000
0000
0000
,
0010
0000
1000
0000
0010
0000
0100
0000
0000
0000
0000
0000
,
0010
0000
0001
0000
0010
0000
0100
0000
0000
1000
0000
0000
,
0010
0100
0001
0000
,
0100
0000
1000
0000
0100
0000
0010
0000
0000
0000
0000
0000
,
0100
0000
0001
0000
0100
0000
0010
0000
0000
1000
0000
0000
,
0100
0010
1001
0101
,
1000
0010
0100
0000
,
0010
0000
1000
0000
0100
0000
1000
0000
0000
0000
0000
0000
,
0010
0000
0001
0000
0100
0000
0001
0000
0000
0000
0000
0000
,
0010
0000
1000
0000
0100
0000
1000
0000
0000
0001
0000
0000
,
0100
0010
0100
0001
,
0010
0000
0100
0000
1000
0000
0001
0000
0000
0000
0000
0000
,
0010
0000
0100
0000
1000
0000
0001
0000
0000
0100
0000
0000
,
0001
1000
1010
0101
,
1000
0000
0100
0000
,
0020
0000
0130
0000
,
2000
0000
3010
0000
,
0010
1000
0100
1001
;

//---------------dance-single - ----------------
#NOTES:
     dance-single:
     :
     Easy:
     3:
     0.178183,0.186014,0.062756,0.007845,0.000000,150.000000,8.000000,1.000000,0.000000,0.000000,0.000000,0.178183,0.186014,0.062756,0.007845,0.000000,150.000000,8.000000,1.000000,0.000000,0.000000,0.000000:
// measure 0
0000
0000
0000
0000
,  // measure 1
0000
0000
0000
0000
,  // measure 2
0000
0000
0000
0000
,  // measure 3
0000
0000
0000
0000
,  // measure 4
0000
0000
0000
0000
,  // measure 5
0000
0000
0000
0000
,  // measure 6
0000
0000
0000
0000
,  // measure 7
0000
0000
0000
0000
,  // measure 8
0001
0000
0100
0000
,  // measure 9
0010
0000
0100
0000
,  // measure 10
1000
0000
0100
0000
,  // measure 11
0010
0000
0100
0000
,  // measure 12
0001
0000
0010
0000
,  // measure 13
0100
0000
0010
0000
,  // measure 14
1000
0000
0010
0000
,  // measure 15
0100
0000
0010
0110
,  // measure 16
0010
0000
0001
0000
,  // measure 17
1000
1000
0100
0000
,  // measure 18
0001
0001
0100
0000
,  // measure 19
1000
1000
0100
0000
,  // measure 20
0010
0000
0100
0000
,  // measure 21
0001
0001
0010
0000
,  // measure 22
1000
1000
0010
0000
,  // measure 23
0001
0000
1000
0000
,  // measure 24
1001
0000
0010
0000
,  // measure 25
0100
0001
0100
0000
,  // measure 26
0010
1000
0010
0000
,  // measure 27
0100
0001
0100
0000
,  // measure 28
0010
0000
1000
0000
,  // measure 29
0100
1000
0100
0000
,  // measure 30
0010
0001
0010
0000
,  // measure 31
0100
0100
0200
0300
,  // measure 32
1000
0000
0010
0000
,  // measure 33
1000
0000
0100
0000
,  // measure 34
0010
0000
0001
0000
,  // measure 35
0010
0100
0010
0000
,  // measure 36
0001
0000
0100
0000
,  // measure 37
0001
0001
0001
0000
,  // measure 38
0010
0010
0010
0000
,  // measure 39
0001
0010
0001
0001
,  // measure 40
1001
0000
0100
0000
,  // measure 41
0010
0000
0100
0000
,  // measure 42
0001
0000
0100
0000
,  // measure 43
0010
0000
1000
0000
,  // measure 44
0100
0000
0001
0000
,  // measure 45
0100
0000
0010
0000
,  // measure 46
0100
0000
1000
0000
,  // measure 47
0010
0000
0100
0010
,  // measure 48
1001
0000
0100
0000
,  // measure 49
0010
1000
0010
0000
,  // measure 50
0100
0001
0100
0000
,  // measure 51
0010
1000
0010
0000
,  // measure 52
1000
0000
0100
0000
,  // measure 53
0010
0001
0010
0000
,  // measure 54
0100
1000
0100
0000
,  // measure 55
0010
0000
1001
0000
,  // measure 56
0110
0000
0100
0000
,  // measure 57
0001
0010
0001
0000
,  // measure 58
1000
0010
1000
0000
,  // measure 59
0001
0010
0001
0000
,  // measure 60
1000
0000
0010
0000
,  // measure 61
1000
0100
1000
0000
,  // measure 62
0001
0100
0001
0000
,  // measure 63
1000
0000
0001
0001
,  // measure 64
1001
0000
0100
0000
,  // measure 65
0010
0000
0100
0000
,  // measure 66
0001
0000
0100
0000
,  // measure 67
0010
0000
1000
1001
;
