#TITLE:the raising fighting spirit;
#SUBTITLE:;
#ARTIST:Naruto Soundtrack;
#TITLETRANSLIT:;
#SUBTITLETRANSLIT:;
#ARTISTTRANSLIT:;
#CREDIT:;
#BANNER:;
#BACKGROUND:;
#LYRICSPATH:;
#CDTITLE:;
#MUSIC:the raising fighting spirit.mp3;
#OFFSET:0.000;
#SAMPLESTART:62.390;
#SAMPLELENGTH:12.000;
#SELECTABLE:YES;
#BPMS:0.000=139.920;
#STOPS:;
#BGCHANGES:;

//---------------dance-single - ----------------
#NOTES:
     dance-single:
     :
     Challenge:
     10:
     0.705,0.667,0.321,0.476,1.000: // measure 1
0000
0000
0000
0000
,  // measure 2
0000
0000
0000
0000
,  // measure 3
0100
1100
0100
0101
,  // measure 4
0100
0000
0000
0100
1000
0010
0001
0100
0000
0110
0000
0000
,  // measure 5
0002
0000
0000
1003
0010
0001
0100
0010
1000
0100
1000
0010
,  // measure 6
0001
0100
1000
0100
0010
0001
0100
0010
1000
2000
0000
0000
,  // measure 7
3002
0000
0000
0103
1000
0010
0100
0001
0010
0100
1000
0100
,  // measure 8
1000
0010
0001
0100
0000
0100
2002
0000
3003
0000
0100
2002
,  // measure 9
0000
3003
0000
0100
0010
1000
0001
0100
0010
0100
1000
0100
,  // measure 10
0010
0001
0100
1000
0010
0001
0100
1000
0010
2000
0000
0000
,  // measure 11
3002
0000
0000
0103
1000
0001
0010
0100
0010
0001
0100
1000
,  // measure 12
0100
0010
1000
0010
0001
0100
2200
0000
3300
0000
0010
0000
,  // measure 13
0202
0000
0303
0020
0000
0000
0000
0000
0000
2030
0000
0000
,  // measure 14
3100
0000
0001
0020
0000
0000
0000
0000
0000
0230
0000
0000
,  // measure 15
0000
0300
0002
0000
0000
0000
2003
0000
,  // measure 16
3100
0000
0001
0020
0000
0000
0100
0000
0000
0130
0000
0000
,  // measure 17
1001
0000
0100
0002
0000
0000
0000
0000
0000
0103
0000
1000
,  // measure 18
0000
0010
0000
0002
0000
0000
0003
0100
0000
1000
0000
0100
,  // measure 19
0000
0010
0000
0100
1000
0001
0100
0010
1000
0100
0100
1000
,  // measure 20
0001
0010
0100
0100
0000
2002
0000
3003
0000
0000
2002
0000
,  // measure 21
3003
0000
0000
0100
0000
1000
0100
0000
0001
0010
0000
0010
,  // measure 22
0100
0000
1000
0100
0000
0010
1000
0000
0100
0001
0000
0010
,  // measure 23
0100
0000
0010
1000
0000
0010
0001
0000
0100
1000
0000
0100
,  // measure 24
0001
0000
0010
0100
0000
1000
0010
0000
0100
0001
0000
0010
,  // measure 25
1000
0000
1000
0100
0000
1000
0010
0000
1000
0001
0000
1000
,  // measure 26
0100
0000
0001
0010
0000
0001
0100
0000
0001
1000
0000
0001
,  // measure 27
0010
0000
0000
1000
0010
0001
0100
0010
1000
0100
1000
0001
,  // measure 28
0010
0100
1000
0001
0000
0220
0000
0330
0000
0000
2002
0000
,  // measure 29
3003
0000
0000
0100
1000
0100
1000
0100
1000
0100
0001
0100
,  // measure 30
0001
0100
0001
0100
0010
0001
0010
0001
0010
0001
1000
0000
,  // measure 31
0010
1000
0000
0100
0001
0000
0100
1000
0000
0010
1000
0000
,  // measure 32
0010
0001
0000
0100
1000
0000
1000
0010
0000
0010
0001
0000
,  // measure 33
0001
0100
0000
0100
0001
0000
0001
0010
0000
0010
1000
0000
,  // measure 34
1000
0100
0000
0100
0010
0000
0100
0010
0000
0100
0010
0000
,  // measure 35
0100
0010
0000
1000
0001
0010
0100
0001
0010
1000
0100
0010
,  // measure 36
1000
0100
0001
0110
0000
1100
0000
0011
0000
0220
0000
0330
,  // measure 37
0000
0000
0000
1000
0001
0100
1000
0000
0100
0010
0001
0100
,  // measure 38
0010
0000
0001
1000
0010
0100
0001
0000
0010
1000
0010
0100
,  // measure 39
0001
0000
0000
0010
0100
1000
0001
0000
0100
1000
0010
0100
,  // measure 40
0001
0000
0010
1000
0100
0010
0001
0000
0010
1000
0100
0001
,  // measure 41
0010
0000
1000
0100
0000
1000
0010
0000
1000
0001
0000
1000
,  // measure 42
0100
0000
0001
0010
0000
0001
0100
0000
0001
1000
0000
0001
,  // measure 43
0010
0000
0100
1000
0000
0010
0000
0100
0000
0001
0000
0010
,  // measure 44
0000
1000
0000
0110
0000
1100
0000
0101
0000
1001
0000
0000
,  // measure 45
0000
0000
0000
0100
1000
0001
0100
0010
1000
0100
0010
0001
,  // measure 46
0010
0100
1000
0100
0010
1000
0100
0001
0010
2000
0000
0000
,  // measure 47
3200
0000
0000
0310
0001
0100
1000
0010
0100
1000
0001
0010
,  // measure 48
0100
0010
0001
0100
0000
2200
0000
3300
0000
0000
0202
0000
,  // measure 49
0303
0000
0000
1000
0010
0100
0001
0010
0100
1000
0100
1000
,  // measure 50
0100
1000
0010
0001
0100
0010
0100
0001
1000
0020
0000
0000
,  // measure 51
0032
0000
0000
0103
1000
0010
0100
0001
0010
1000
0100
0001
,  // measure 52
0010
1000
0100
0001
0000
2200
0000
3300
0000
0000
0202
0000
,  // measure 53
0303
0000
0000
1100
0000
1010
0000
0011
0000
0101
0000
1100
,  // measure 54
0000
0101
0000
2002
0000
0000
0000
0000
0000
3003
0000
0000
;
