#TITLE:Russian Roulette;
#SUBTITLE:;
#ARTIST:R->eCycle;
#TITLETRANSLIT:;
#SUBTITLETRANSLIT:;
#ARTISTTRANSLIT:;
#GENRE:;
#CREDIT:;
#BANNER:Russian Roulette.png;
#BACKGROUND:Russian Roulette-BG.png;
#LYRICSPATH:;
#CDTITLE:;
#MUSIC:Russian Roulette.ogg;
#OFFSET:-0.555000;
#SAMPLESTART:20.806002;
#SAMPLELENGTH:24.000000;
#SELECTABLE:YES;
#BPMS:0.000000=190.000000
;
#STOPS:
;
#BGCHANGES:;
#KEYSOUNDS:;
#ATTACKS:;

//---------------dance-single - ----------------
#NOTES:
     dance-single:
     :
     Hard:
     11:
     0.769253,0.838480,0.290010,0.634886,0.180276,687.000000,650.000000,37.000000,81.000000,0.000000,0.000000,0.769253,0.838480,0.290010,0.634886,0.180276,687.000000,650.000000,37.000000,81.000000,0.000000,0.000000:
// measure 0
1000
0010
0100
0001
0000
1000
0100
1000
,  // measure 1
0001
0010
0001
1000
0000
0001
0010
0100
,  // measure 2
0010
0001
1000
0100
0000
0100
1000
0010
,  // measure 3
0100
0001
0010
0001
0000
1000
0010
1000
,  // measure 4
0001
0100
0001
0010
0000
0100
0010
1000
,  // measure 5
0001
1000
0100
1000
0000
0010
0100
0001
,  // measure 6
0010
0001
1000
0100
0000
0001
0100
0010
,  // measure 7
1000
0000
0100
0000
0010
0000
0001
0000
0010
0001
0010
0000
0100
0000
1000
0100
,  // measure 8
1000
0001
0001
0010
0001
0001
0001
0000
,  // measure 9
0010
0010
0000
0010
0000
0010
0100
0010
,  // measure 10
0010
0010
0100
0010
0010
0000
0100
0100
,  // measure 11
0100
0000
0000
0000
0100
0000
0100
0000
0100
0000
0100
0000
0100
1000
0100
0000
,  // measure 12
1000
1000
1000
0001
1000
0000
1000
0000
,  // measure 13
1000
0001
0000
0001
0000
0001
0000
0001
,  // measure 14
1000
0100
0010
0001
0010
0100
1000
0000
,  // measure 15
1000
0100
1000
0000
0001
0010
0001
0000
0001
0000
0100
0010
0100
0000
0010
0000
,  // measure 16
1002
0000
0000
0000
1003
0000
0100
0000
0020
0000
0000
0030
0100
0000
0010
0000
,  // measure 17
0200
0000
0000
0300
0010
0000
0001
0000
2000
0000
0000
0000
3001
0000
0010
0000
,  // measure 18
0200
0000
1300
0001
0020
0000
1030
0100
,  // measure 19
2000
0000
0000
3000
0020
0000
0000
0030
0200
0000
0000
0000
0300
0000
0000
0000
,  // measure 20
0001
2000
0000
3001
0020
0000
0130
1000
,  // measure 21
0200
0000
0301
0010
0002
0000
0013
0100
,  // measure 22
2000
0000
3001
0010
0200
0000
1300
0100
,  // measure 23
1002
0000
0000
0000
0023
0000
0000
0030
1002
0000
1000
0000
1003
0000
0000
0000
,  // measure 24
1000
0000
0000
0000
1000
0000
0001
0000
1000
0000
0010
0100
0010
0000
0100
0000
,  // measure 25
0001
0010
0001
0000
1000
0000
0100
0000
0010
0000
0001
0000
0010
0000
0100
0000
,  // measure 26
1000
0000
0000
0000
1000
0000
0100
0000
0010
0000
0001
0010
0001
0000
0100
0000
,  // measure 27
1000
0100
1000
0000
0001
0000
0010
0000
0001
0000
1000
0000
0100
0000
1000
0000
,  // measure 28
0010
0000
0100
0010
0100
0000
0001
0000
1000
0000
0010
0000
0100
0000
0010
0000
,  // measure 29
1000
0000
0001
1000
0001
0000
0100
0000
0010
0100
0010
0000
1000
0000
0100
0000
,  // measure 30
0010
0000
1000
0010
1000
0000
0100
0000
0001
0100
0001
0000
0010
0000
0100
0000
,  // measure 31
0010
0100
0010
0000
1000
0000
0001
0000
1000
0001
1000
0000
0001
0000
0000
0000
,  // measure 32
1002
0000
0103
0010
1002
0000
0013
0100
,  // measure 33
1002
0000
1003
0100
0010
0000
1000
0001
,  // measure 34
0120
0000
0130
1000
0120
0000
1030
0001
,  // measure 35
0120
0000
0031
1000
0100
0000
1000
0001
,  // measure 36
0210
0000
0310
0001
0210
0000
0301
1000
,  // measure 37
0210
0000
1300
0001
0010
0000
0001
0010
,  // measure 38
2001
0000
3001
0010
2001
0000
3010
0100
,  // measure 39
2001
0000
3100
0010
0001
0000
2000
0000
,  // measure 40
3002
0000
0000
0000
0000
1000
1000
0000
,  // measure 41
1003
0000
0100
0000
1000
0000
0001
0010
0100
0000
0000
0000
0001
0000
0000
0000
,  // measure 42
1000
0001
0100
0010
0100
0000
1000
0000
,  // measure 43
0001
0000
1000
0100
0010
0001
0010
0100
,  // measure 44
2001
0000
0000
3000
2010
0000
0000
3000
2100
0000
0000
3000
2001
0000
0000
0000
,  // measure 45
3100
0000
0010
0000
1000
0000
0001
0100
0001
0000
0000
0000
1000
0000
0000
0000
,  // measure 46
0010
0100
0001
1000
0010
0000
0100
0000
,  // measure 47
0001
0000
0100
0010
0001
0010
0100
0010
,  // measure 48
1002
2003
3002
0100
,  // measure 49
0010
0000
0100
0000
2003
0000
3010
0100
,  // measure 50
0210
0000
0301
0010
0120
0000
1030
0100
,  // measure 51
0010
0000
0100
0010
1002
0000
0103
0010
,  // measure 52
0120
0000
1030
0100
1200
0000
0301
0010
,  // measure 53
0100
0000
1000
0100
1000
0000
0001
0010
,  // measure 54
0001
0000
0100
0010
0100
0000
1000
0001
,  // measure 55
1000
0000
0000
0000
0010
0000
0100
0000
0010
0000
0000
1000
0001
0000
0100
0000
,  // measure 56
0010
0000
1000
0010
0100
0000
0001
0100
,  // measure 57
0010
0000
1000
0100
1000
0000
0010
0000
0002
0000
0000
0000
0000
0003
0001
0000
,  // measure 58
0100
0010
1000
0100
0020
0000
0000
1030
,  // measure 59
0002
0000
0000
0103
2000
0000
3020
0000
,  // measure 60
0230
0302
2003
0000
,  // measure 61
0000
0000
3000
0010
0200
0000
0000
0301
,  // measure 62
0010
0100
1000
0100
0020
0000
0000
1030
,  // measure 63
0200
0000
0301
1000
0002
0000
0000
0103
,  // measure 64
0010
0100
1000
0100
1002
0000
1000
0000
,  // measure 65
1000
1000
1003
0010
0100
0000
0000
1000
,  // measure 66
0001
0000
1000
0100
0010
0000
0100
0000
0001
0000
0000
0000
0000
0000
0010
0000
,  // measure 67
0100
0000
0001
0000
1000
0000
0100
0000
0010
0000
0001
0010
0001
0000
0100
0000
,  // measure 68
1000
0000
0000
0100
0000
0000
1000
0000
0000
0000
0000
0000
0001
0000
0010
0000
0100
0000
1000
0000
0100
0000
0010
0000
0001
0000
0000
0000
0000
0000
0000
0000
0000
0000
0000
0000
0000
0000
0000
0000
0000
0000
0010
0000
0000
0000
0000
0000
,  // measure 69
0000
0000
0010
0000
0100
0000
0010
0000
0001
0000
1000
0100
1000
0000
0010
0000
,  // measure 70
0001
0010
0001
0000
0100
0000
0010
0000
0100
0010
0100
0000
0001
0000
0100
0000
,  // measure 71
0010
1000
0100
1000
0001
0010
0100
0010
,  // measure 72
0001
1000
0001
0000
0100
0000
0010
0000
1000
0000
0100
0000
1000
0000
0000
0000
,  // measure 73
0001
0000
0010
0000
1002
0000
0000
0103
,  // measure 74
0020
0000
0000
1030
0001
0010
0100
1000
,  // measure 75
0002
0000
0203
0000
0320
0000
0000
0130
,  // measure 76
2000
0000
0000
3001
0100
0010
0100
0001
,  // measure 77
0020
0030
1000
0001
,  // measure 78
0100
0000
0001
0010
0001
1000
0100
1000
,  // measure 79
0010
0000
0100
0000
0000
0001
0000
1000
,  // measure 80
0001
0000
0000
0100
0010
1000
0001
0100
,  // measure 81
0010
0000
0000
0000
0000
0000
0000
0000
2020
0000
0000
3030
0202
0000
0000
0303
,  // measure 82
2020
0000
0000
3030
0100
0000
0001
0000
1000
0000
0010
0000
0100
0000
0010
0000
,  // measure 83
0220
0000
0000
0330
2002
0000
0000
0000
3003
0000
2200
0000
0000
3300
0100
0000
,  // measure 84
0202
0000
0000
0000
0000
0303
0001
0000
0010
0000
0100
0000
0010
0000
0001
0000
,  // measure 85
2002
0000
0000
0000
3003
0000
0000
0000
1001
0000
1000
0100
1000
0000
0010
0000
,  // measure 86
0100
0000
0001
0010
0001
0000
1000
0000
0010
0100
0010
0000
1000
0000
0001
0000
,  // measure 87
0100
0000
0010
0000
1000
0000
0000
0000
0001
0000
1000
0001
1000
0000
0010
0000
,  // measure 88
0100
0000
0010
1000
0010
0000
0001
0000
0100
0001
0100
0000
0010
0000
1000
0000
,  // measure 89
0001
0000
0100
0000
0010
0000
0000
0000
1000
0000
0001
0010
0001
0000
0100
0000
,  // measure 90
0010
0000
1000
0000
0100
0000
0001
0000
1000
0010
1000
0000
0001
0000
0100
0000
,  // measure 91
0010
0000
1000
0000
0001
0000
0100
0000
0000
0000
0010
0100
0010
0000
1000
0000
,  // measure 92
0001
0000
0100
0000
0010
0000
1000
0000
0001
0000
1000
0010
1000
0000
0001
0000
,  // measure 93
0010
0000
0100
0000
1000
0000
0000
0000
0001
0000
0010
0001
0010
0000
0100
0000
,  // measure 94
1000
0000
0100
0000
0010
0000
0001
0000
0100
0010
0100
0000
0001
0000
0100
0000
,  // measure 95
0010
0000
1000
0000
0001
0000
1000
0000
0000
0000
0010
0100
0010
0000
0001
0000
,  // measure 96
1000
0000
0010
0000
0100
0000
0001
0000
1000
0001
1000
0000
1000
0000
0100
0000
,  // measure 97
0010
0001
1001
0000
0000
0000
0000
0000
;

//---------------dance-single - ----------------
#NOTES:
     dance-single:
     :
     Medium:
     8:
     0.597935,0.647917,0.015676,0.572181,0.000000,534.000000,532.000000,2.000000,73.000000,0.000000,0.000000,0.597935,0.647917,0.015676,0.572181,0.000000,534.000000,532.000000,2.000000,73.000000,0.000000,0.000000:
1000
0001
0010
0001
,
0100
0100
1000
0010
,
0010
1000
0100
1000
,
0001
0010
1000
0010
,
0100
0100
0001
0010
,
0100
0001
0010
0001
,
0010
1000
0100
0001
,
1000
0000
0010
0000
0010
0010
0001
1000
,
1000
0100
0100
0010
0100
0100
0100
0000
,
0010
0010
0000
0010
0000
0010
0001
0010
,
0010
0010
0001
0010
0010
0000
0001
0001
,
0001
0000
0001
0001
0001
0001
0001
0001
,
1000
1000
1000
0100
1000
0000
1000
0000
,
1000
0100
0000
0100
0000
0100
0000
0100
,
1000
0001
0010
0100
0010
0001
1000
0000
,
1000
1000
0100
0100
0100
0001
0001
0010
,
0200
0000
0000
0000
0300
0000
0001
0000
0020
0000
0000
0030
0000
0000
0010
0000
,
0002
0000
0000
0003
0000
0000
0100
0000
2000
0000
0000
0000
3000
0000
0010
0000
,
0002
0000
0003
0100
0020
0000
0030
0001
,
2000
0000
0000
3000
0020
0000
0000
0030
0002
0000
0000
0000
0003
0000
0000
0000
,
0100
2000
0000
3000
0020
0000
0030
1000
,
0002
0000
0003
0010
0200
0000
0300
0001
,
2000
0000
3000
0010
0002
0000
0003
0001
,
0200
0000
0000
0000
0320
0000
0000
0030
0200
0000
0000
0000
0300
0000
0000
0000
,
1000
0000
1000
0100
1000
0010
0010
0001
,
0100
0100
1000
0001
0010
0100
0010
0001
,
1000
0000
1000
0001
0010
0100
0100
0001
,
1000
1000
0100
0010
0100
1000
0001
1000
,
0010
0001
0001
0100
1000
0010
0001
0010
,
1000
0100
0100
0001
0010
0010
1000
0001
,
0010
1000
1000
0001
0100
0100
0010
0001
,
0010
0010
1000
0100
1000
1000
0100
0000
,
0200
0000
0300
0010
0200
0000
0300
0001
,
0200
0000
0300
0001
0010
0000
1000
0100
,
0020
0000
0030
1000
0020
0000
0030
0100
,
0020
0000
0030
1000
0001
0000
1000
0100
,
0002
0000
0003
0100
0002
0000
0003
1000
,
0002
0000
0003
0100
0010
0000
0100
0010
,
2000
0000
3000
0010
2000
0000
3000
0001
,
2000
0000
3000
0010
0100
0000
2000
0000
,
3200
0000
0000
0000
,
0300
0001
1000
0100
0001
0000
0100
0000
,
1000
0100
0001
0010
0001
0000
1000
0000
,
0100
0000
1000
0001
0010
0100
0010
0001
,
2000
0000
0000
3000
2000
0000
0000
3000
2000
0000
0000
3000
2000
0000
0000
0000
,
3000
0010
1000
0100
0100
0000
1000
0000
,
0010
0001
0100
1000
0010
0000
0001
0000
,
0100
0000
0001
0010
0100
0010
0001
0010
,
0200
2300
3200
0000
,
0000
0000
0000
0000
2300
0000
3000
0001
,
0002
0000
0003
0010
0020
0000
0030
0001
,
0010
0000
0001
0010
0200
0000
0301
0010
,
0020
0000
0030
0001
0002
0000
0003
0010
,
0001
0000
1000
0001
1000
0000
0100
0010
,
0100
0000
0001
0010
0001
0000
1000
0100
,
1000
0000
0010
0001
0010
0000
0100
0001
,
0010
0000
1000
0010
0001
0000
0100
0001
,
0010
0000
1000
0000
1000
0000
0010
0000
0200
0000
0000
0000
0000
0300
0100
0000
,
0001
0010
1000
0001
0020
0000
0000
0030
,
0200
0000
0000
0300
2000
0000
3020
0000
,
0032
0203
2300
0000
,
0000
0000
3000
0010
0002
0000
0000
0103
,
0010
0001
1000
0001
0020
0000
0000
0030
,
0002
0000
0003
1000
0200
0000
0000
0301
,
0010
0001
1000
0001
1200
0000
0000
0000
,
0000
0000
0300
0010
0001
0000
0000
1000
,
0100
1000
0010
0001
0100
0000
0000
0010
,
0001
0100
1000
0001
0010
0100
0100
0001
,
1000
1000
0100
1000
0100
0000
0000
0010
,
0000
0010
0001
0010
0100
1000
1000
0010
,
0100
0100
0001
0010
0001
0001
0100
0001
,
0010
1000
0001
1000
0100
0010
0001
0010
,
0100
0100
0001
0010
1000
0001
1000
0000
,
0100
0000
0010
0000
0200
0000
0000
0300
,
0020
0000
0000
0030
0100
0010
0001
1000
,
0200
0000
0302
0000
0023
0000
0000
0030
,
2000
0000
0000
3100
0001
0010
0001
0100
,
0020
0030
1000
0100
,
0001
0000
0100
0010
0100
1000
0001
1000
,
0010
0000
0001
0000
0000
0100
0000
1000
,
0100
0000
0000
0001
0010
1000
0100
0001
,
0010
0000
0000
0000
0000
0000
0000
0000
2000
0000
0000
3000
0200
0000
0000
0300
,
0020
0000
0000
0030
0001
0000
0100
0000
1000
0000
0010
0000
0001
0000
0010
0000
,
0002
0000
0000
0003
2000
0000
0000
0000
3000
0000
2000
0000
0000
3000
0001
0000
,
0200
0000
0000
0000
0000
0300
1000
0000
0010
0000
0001
0000
0010
0000
0100
0000
,
2000
0000
3000
0000
1100
1000
1000
0010
,
0001
0100
0100
1000
0010
0010
1000
0100
,
0001
0010
1000
0000
0100
1000
1000
0010
,
0001
0010
0010
0100
0001
0001
0010
1000
,
0100
0001
0010
0000
1000
0100
0100
0001
,
0010
1000
0001
0100
1000
1000
0100
0001
,
0010
1000
0100
0001
0000
0010
0010
1000
,
0100
0001
0010
1000
0100
1000
1000
0100
,
0010
0001
1000
0000
0100
0010
0010
0001
,
1000
0001
0010
0100
0001
0001
0100
0001
,
0010
1000
0100
1000
0000
0010
0010
0100
,
1000
0010
0001
0100
1000
1000
1000
0001
,
0010
0100
1000
0000
0000
0000
0000
0000
;

//---------------dance-single - ----------------
#NOTES:
     dance-single:
     :
     Easy:
     5:
     0.343756,0.343015,0.000000,0.368391,0.000000,307.000000,307.000000,0.000000,47.000000,0.000000,0.000000,0.343756,0.343015,0.000000,0.368391,0.000000,307.000000,307.000000,0.000000,47.000000,0.000000,0.000000:
0001
1000
0100
1000
,
0010
0010
0001
0100
,
0100
0001
0010
0001
,
1000
0100
0001
0100
,
0010
0010
1000
0100
,
0010
1000
0100
1000
,
0100
0001
0010
1000
,
0001
0100
0100
1000
,
0001
0010
0010
0010
,
0100
0000
0000
1000
,
0100
1000
0100
1000
,
1000
1000
1000
1000
,
0001
0001
0001
0001
,
0001
0000
0000
0000
,
0001
0100
0100
0001
,
0001
0010
0010
1000
,
0020
0000
0000
0000
0030
0000
0000
0000
0200
0000
0000
0300
0000
0000
0000
0000
,
2000
0000
0000
3000
0000
0000
0000
0000
0002
0000
0000
0000
0003
0000
0000
0000
,
2000
3000
0200
0300
,
2000
0000
0000
3000
,
0010
0000
0200
0300
,
2000
3000
0020
0030
,
0002
0003
2000
3000
,
0020
0000
0000
0030
,
0001
0001
0001
0100
,
0010
0001
0100
0100
,
0001
0001
0100
0010
,
0001
0010
0010
1000
,
0100
1000
0001
1000
,
0001
0010
0100
0001
,
0100
0001
0010
0100
,
0100
0001
0001
0010
,
0020
0030
0100
0000
,
0020
0030
0100
0001
,
0200
0300
0010
0000
,
0200
0300
1000
0001
,
2000
3000
0001
0000
,
2000
3000
0100
0010
,
0002
0003
1000
0000
,
0002
0003
0010
0020
,
0000
0000
0000
0000
,
0030
0001
1000
0010
,
0001
1000
1000
0001
,
0010
0001
0100
0100
,
0002
0000
0000
0000
0000
0000
0000
0000
0000
0000
0000
0000
0000
0000
0000
0003
,
0000
0001
0010
0001
,
0100
0010
0100
1000
,
0010
1000
0010
1000
,
0002
0000
0023
0000
,
0000
0000
0032
0003
,
1000
0000
0200
0300
,
0100
1000
0020
0030
,
0001
0000
2000
3000
,
1000
0001
0001
0010
,
0010
1000
1000
0001
,
0001
0100
0100
0010
,
0100
0001
1000
0010
,
0100
0000
0000
0000
0001
0000
0000
0000
0020
0000
0000
0000
0000
0030
0000
0000
,
1000
0000
0001
0000
0200
0000
0000
0300
,
0010
0000
0002
0103
,
2000
3010
0002
0000
,
0000
0000
0003
0000
2000
0000
0000
3000
,
0100
0000
0001
0000
0200
0000
0000
0300
,
0001
0000
0000
0000
0020
0000
0000
0030
,
0100
0001
0020
0000
,
0000
0030
1000
0000
,
0010
0100
0010
0000
,
1000
0001
0100
0010
,
0001
0010
0010
0000
,
0000
1000
0010
0001
,
0010
1000
1000
0010
,
0100
1000
0010
1000
,
0010
1000
0001
0001
,
0010
0000
0100
0000
0020
0000
0000
0030
,
0100
0000
0010
1000
,
0020
0000
1030
0000
0200
0000
0000
0300
,
0001
0000
1000
1000
,
0200
0300
0001
0010
,
1000
0010
0010
1000
,
0100
1000
0000
0010
,
0010
1000
0100
0010
,
0100
0000
0000
0000
0000
0000
0000
0000
0002
0000
0000
0003
0100
0000
0000
0000
,
0200
0000
0000
0300
1000
0000
0000
0000
0001
0000
0000
0000
1000
0000
0000
0000
,
2000
0000
0000
3000
0010
0000
0000
0000
0000
0000
0002
0000
0000
0003
0000
0000
,
0010
0000
0100
0100
,
0002
0003
0010
0001
,
1000
0010
0100
0001
,
1000
0001
0010
0001
,
1000
0100
1000
0100
,
0010
0100
0001
0010
,
0100
1000
0001
0010
,
0100
0010
0000
0100
,
0010
0100
0010
0001
,
0100
0001
0010
0100
,
0001
0100
1000
0010
,
0100
0010
0000
0100
,
0001
1000
0001
0001
,
0100
0001
0000
0000
;
