#TITLE:Chronostasis;
#SUBTITLE:;
#ARTIST:LeaF;
#TITLETRANSLIT:;
#SUBTITLETRANSLIT:;
#ARTISTTRANSLIT:;
#GENRE:;
#CREDIT:;
#BANNER:Chronostasis.png;
#BACKGROUND:Chronostasis-BG.png;
#LYRICSPATH:;
#CDTITLE:;
#MUSIC:Chronostasis.ogg;
#OFFSET:-2.554999;
#SAMPLESTART:26.555000;
#SAMPLELENGTH:24.000000;
#SELECTABLE:YES;
#BPMS:0.000000=190.000000
,64.000000=95.000000
,64.500000=190.000000
,66.500000=95.000000
,67.000000=190.000000
,71.000000=95.000000
,71.500000=190.000000
,73.500000=95.000000
,74.000000=190.000000
,237.000000=95.000000
,237.500000=190.000000
,240.000000=95.000000
,240.750000=190.000000
,243.500000=95.000000
,244.000000=190.000000
,400.000000=380.000000
,407.000000=190.000000
;
#STOPS:400.000000=0.316000
;
#BGCHANGES:;
#KEYSOUNDS:;
#ATTACKS:;

//---------------dance-single - ----------------
#NOTES:
     dance-single:
     :
     Hard:
     11:
     0.700772,0.882154,0.197854,0.136451,0.235378,719.000000,690.000000,29.000000,20.000000,0.000000,0.000000,0.700772,0.882154,0.197854,0.136451,0.235378,719.000000,690.000000,29.000000,20.000000,0.000000,0.000000:
1001
0000
0000
0000
0000
0000
0000
0000
0000
0000
0000
0000
0000
1000
0100
0010
,
0001
0000
0000
1000
,
0100
0000
0000
0000
,
1010
0000
0000
0000
,
0101
0000
0000
0000
,
0010
0000
0000
0000
,
0000
0000
0000
0000
,
0001
0010
0001
1000
0100
1000
0010
0100
,
0010
1000
0001
1000
1001
0000
1001
0000
,
0010
0100
1000
0100
0010
0100
0010
0001
,
1000
0010
0100
0001
0110
0000
0110
0000
,
1000
0000
0001
0100
0001
0000
0000
0000
0010
0000
1000
0100
1000
0000
0000
0000
,
0001
0000
0100
0010
0100
0000
0000
0000
1010
0000
0000
0000
1010
0000
0000
0000
,
0100
0000
0010
0001
0010
0001
0010
0000
0100
0000
1000
0010
1000
0010
1000
0000
,
0001
0000
0100
0010
0100
0010
0100
0000
0101
0000
0000
0000
0101
0000
0000
0000
,
1000
0100
1000
0010
0100
0001
0010
0001
,
0200
0310
1000
0001
0100
0020
1030
0100
,
1000
0001
0010
0001
1000
0010
0200
0310
,
0001
1000
0100
0020
0031
1000
0100
1000
,
0001
0000
0010
0100
1000
0000
0010
0000
0100
0000
0001
0000
0010
0000
0001
0000
,
1000
0000
0010
0001
0200
0000
0000
0000
0310
0000
1000
0000
0100
0000
0010
0000
,
0001
0000
1000
0010
0100
0000
0001
0000
0100
0000
0010
0000
0100
0000
1000
0000
,
0001
0000
0010
1000
0200
0000
0000
0000
0301
0000
0010
0000
0001
0000
1000
0000
,
0010
0000
0100
0010
0001
0000
1000
0000
0010
0000
0100
0000
1000
0000
0001
0000
,
0010
0000
0100
0010
2000
0000
0000
0000
3010
0000
0100
0000
0010
0000
0001
0000
,
1000
0000
0010
0001
0100
0000
0010
0000
1000
0000
0100
0000
1000
0000
0001
0000
,
0010
0000
0100
0010
2000
0000
0000
0000
3001
0000
0010
0000
0100
0000
0010
0000
,
0001
1000
0100
0010
0100
1000
0010
0100
,
0001
0000
1000
0100
0010
0000
0110
0000
0101
0000
0001
0000
0100
0000
0010
0000
,
1000
0001
0100
1000
0001
0010
0100
0010
,
1010
0000
0000
0000
1000
0001
1000
0001
1000
0000
0100
0000
0010
0000
0100
0000
,
0010
0001
1000
0100
1000
0001
0010
0001
,
0100
0000
0010
0100
1000
0000
1010
0000
0110
0000
0100
0000
0001
0000
0010
0000
,
0100
0010
0100
1000
1001
0000
0101
0000
,
0110
0000
1000
0001
2000
0000
0000
0000
3001
0000
0000
0000
0000
0000
0010
0000
,
0000
0000
0100
0010
0100
0000
0001
0000
1000
0000
0000
0000
0010
0000
0100
0000
,
1000
0000
0000
0000
0001
0000
0000
0000
0010
0000
0000
0000
0000
1000
0100
0010
,
0001
1000
0000
0010
0100
0001
0000
0010
,
1000
0000
0000
0000
0000
0000
1000
0100
1000
0000
0000
0000
0000
0000
0100
0000
,
0010
0000
0000
0000
0000
0000
0001
0010
0001
0000
1000
0000
0010
0000
0000
0000
,
0100
0000
0010
0000
0001
0000
0000
1000
,
0001
0000
0000
0000
1000
0000
0010
0000
0100
0000
0000
0000
0000
0000
0100
1000
,
0100
0000
0010
0100
1000
0001
0100
0010
,
1000
0100
1000
0001
0010
0001
0100
0010
,
1000
0100
1000
0001
0010
0001
0100
0010
,
0100
1000
0001
0010
0100
0010
1000
0100
,
1000
0001
0100
0010
0100
1000
0001
0010
,
0001
1000
0010
0100
0001
1000
0100
0010
,
0001
1000
0010
0100
0001
0010
0100
0010
,
1000
0100
1000
0010
0100
0001
0010
0001
,
1000
0000
0100
0000
0001
0000
0010
0000
1000
0000
0100
0000
0000
0100
0000
0000
,
0010
0000
0001
0000
0000
0000
1000
0000
0010
0000
0100
0000
0000
0001
0000
0000
,
1000
0000
0010
0000
0000
0000
0010
0000
0100
0000
1000
0000
0000
0001
0000
0000
,
0010
0000
0100
0000
0000
0010
0000
0000
1000
0000
0001
0000
0100
0000
0010
0000
,
1000
0000
0000
0000
1000
0000
0000
0000
0001
0000
0010
0000
0000
0100
0000
0000
,
0010
0000
1000
0000
0000
0000
0100
0000
0010
0000
0001
0000
0000
1000
0000
0000
,
0010
0100
0010
0000
0101
0000
1010
0000
,
0110
0000
1000
0001
1001
0000
0110
0000
,
1100
0000
0011
0000
1000
0100
0010
0001
,
1000
0100
2000
3001
0010
0100
0010
0001
,
0020
0000
0030
0010
0100
0010
0001
2000
,
3100
1000
0010
0001
0010
0100
1000
0001
,
0100
0010
1000
0010
0100
0001
0010
0001
,
1000
0010
0100
0001
0010
0100
0001
0010
,
1000
0100
1000
0010
0100
0001
0010
0001
,
1000
0000
0100
0000
0001
0000
0010
0000
0202
0000
0303
0000
2020
0000
3030
1000
,
0100
0010
0001
0000
1000
0000
0000
0000
0000
0000
0000
0000
0000
0000
0000
0000
,
0000
0000
0000
0000
,
2002
0000
0000
0000
,
0000
0000
0000
0000
,
0000
0000
0000
0000
,
3003
0010
1000
0100
0010
0100
0001
0010
,
0100
0010
0001
1000
0010
0100
0001
0010
,
0100
1000
0100
1000
0001
0010
0001
0010
,
0100
0000
0010
0000
1000
0000
0001
0000
0100
0000
1000
0000
0001
0010
0100
1000
,
0001
0100
0010
0100
0001
0010
0100
0010
,
0100
0001
0010
0001
1000
0010
0100
0010
,
1000
0100
0001
0010
0100
1000
0100
1000
,
0010
0000
0100
0000
0001
0000
0010
0000
0100
0000
0001
0000
0010
1000
0010
1000
,
0010
0100
0001
1000
0010
0100
1000
0001
,
0010
0001
0100
0010
0001
1000
0010
0100
,
0001
0010
1000
0100
1000
0010
0100
0001
,
0010
0100
0001
1000
0100
0001
0010
0100
,
1000
0000
0000
0001
0000
0000
0100
0000
0000
0000
0000
0000
0010
0000
0000
1000
0000
0000
0001
0000
1000
0000
0001
0000
,
1000
0010
0100
0000
0010
0100
0020
0000
,
1030
0100
0010
0100
0010
0001
1000
0010
,
0100
0001
1000
0100
1000
0001
0010
0001
,
0100
0000
0100
0010
0100
0000
0001
0000
,
0001
0000
0100
1000
0010
0000
1000
0000
,
0010
0100
0001
1000
,
0100
0000
1000
0001
0010
0100
0010
1000
,
0001
0100
1000
0100
0001
0010
0001
0100
,
0010
0100
1000
0010
0100
0010
0100
0001
,
0010
0001
1000
0010
0100
0001
0010
1000
,
0001
0010
0100
1000
0001
0100
0010
1000
0100
0010
0001
0000
,
1000
0100
0010
0001
1000
0010
0100
0001
0010
0100
1000
0001
,
1000
0001
0100
0010
0100
0010
0100
0000
0000
1000
0000
0000
,
0001
0000
0000
0010
0000
0000
0100
0000
0010
0000
0000
1000
0000
0000
0001
0000
,
0100
0000
0000
0010
0000
0000
1000
0000
0100
0000
0000
0001
0000
0000
0010
0000
,
1000
0000
0000
0001
0000
0000
0100
0000
0010
0000
0000
1000
0000
0000
0001
0000
,
0200
0000
0000
0000
,
0000
0000
0000
0300
,
0000
0000
0000
0000
,
0000
0000
0000
1000
,
0010
0100
0001
1000
,
0100
1000
0001
0010
,
0001
0100
0010
1000
,
0001
1000
0001
1000
;

//---------------dance-single - ----------------
#NOTES:
     dance-single:
     :
     Medium:
     7:
     0.402530,0.588103,0.081870,0.122806,0.000000,413.000000,401.000000,12.000000,18.000000,0.000000,0.000000,0.402530,0.588103,0.081870,0.122806,0.000000,413.000000,401.000000,12.000000,18.000000,0.000000,0.000000:
0110
0000
0000
0000
0000
0000
0000
1000
,
0010
0000
0000
0100
,
1000
0000
0000
0000
,
0101
0000
0000
0000
,
1010
0000
0000
0000
,
0001
0000
0000
0000
,
0000
0000
0000
0000
,
0010
0010
1000
0001
,
0001
0010
0110
0110
,
0001
0100
0001
0001
,
0100
1000
1001
1001
,
0100
0010
0001
0100
,
0010
1000
0101
0101
,
1000
0001
1000
0100
,
0010
1000
1010
1010
,
0100
0100
1000
0001
,
2000
3000
0100
0000
1000
0002
0003
0000
,
0100
0000
0001
0000
0100
0000
2000
3000
,
0010
0000
1000
0002
0013
0000
1000
0000
,
0010
0100
1000
0001
,
0100
2000
3001
1000
,
0010
1000
1000
1000
,
0010
2000
3010
0010
,
0001
0010
0001
0100
,
0001
0200
0301
0001
,
0100
1000
0100
0100
,
0001
0200
0310
1000
,
0010
1000
1000
0001
,
0010
0000
0001
1000
0010
0001
1000
0000
,
0100
1000
0010
1000
,
0100
0100
0100
0001
,
0001
0100
0100
0001
,
1000
0000
0100
0001
1000
0010
0100
0000
,
1000
1000
0010
1000
,
0001
0000
0200
0000
0310
0000
0000
0001
,
0000
0001
1000
0010
0100
0000
0001
1000
,
0100
0000
0010
0000
0001
0000
0000
1000
,
0010
0100
0000
0001
1000
0010
0000
0001
,
0100
0000
0000
0100
0100
0000
0000
1000
,
0001
0000
0000
0010
0010
0100
0001
0000
,
1000
0000
0001
0000
0010
0000
0000
0100
,
0010
0000
0100
0001
1000
0000
0000
1000
,
1000
0001
0100
1000
,
0100
0100
0001
1000
,
0100
0100
0001
1000
,
1000
0010
1000
0100
,
0100
1000
1000
0010
,
0010
0001
0010
1000
,
0010
0001
0010
1000
,
0100
0100
1000
0001
,
0100
0010
0100
1000
,
0001
0010
0001
1000
,
0100
0010
1000
0010
,
0001
1000
0100
1000
,
0100
0100
0010
1000
,
0001
0100
0001
1000
,
0001
0001
0010
0100
,
0001
0100
0100
0001
,
0100
0010
0100
0001
,
0100
0000
0200
0300
0001
0000
0001
0000
,
0002
0000
0003
0000
1000
0000
0010
0200
,
1300
0001
0001
0100
,
1000
0100
1000
0001
,
0100
1000
0001
0010
,
0100
0100
1000
0001
,
0100
0000
0010
0000
0020
0030
0200
0300
,
1000
0010
0100
0000
0000
0000
0000
0000
,
0000
0000
0000
0000
,
0220
0000
0000
0000
,
0000
0000
0000
0000
,
0000
0000
0000
0000
,
0330
0100
0001
0010
,
1000
0010
0001
0010
,
1000
1000
0010
0010
,
1000
0100
1000
0010
,
0010
0001
0010
1000
,
1000
0001
0100
1000
,
0100
0010
1000
1000
,
0001
0010
1000
0001
,
0001
0010
0001
0100
,
0001
1000
0010
0001
,
0010
0100
0100
1000
,
0001
0010
1000
0001
,
0100
1000
0001
0010
,
0100
1000
0001
0002
,
0103
0001
0001
0100
,
1000
0100
0100
0001
,
1000
1000
1000
0010
,
0010
1000
0001
0100
,
0001
1000
0010
0100
,
1000
0100
0001
0001
,
0010
0100
0010
0010
,
0001
0100
1000
1000
,
0001
0100
1000
0001
,
0010
1000
0100
0010
0001
1000
0001
0000
,
0100
1000
0010
0001
1000
0100
1000
0010
,
0100
1000
0001
0010
1000
0000
0100
0000
,
0010
0001
0001
0100
,
1000
0010
1000
0001
,
0100
0010
0001
0100
,
2000
0000
0000
0000
,
0000
0000
0000
3000
,
0000
0000
0000
0000
,
0000
0000
0000
0100
,
0001
1000
0010
0100
,
1000
0100
0010
0001
,
0010
1000
0001
0100
,
0010
0100
0010
0100
;

//---------------dance-single - ----------------
#NOTES:
     dance-single:
     :
     Easy:
     4:
     0.196879,0.330808,0.000000,0.115983,0.000000,202.000000,202.000000,0.000000,17.000000,0.000000,0.000000,0.196879,0.330808,0.000000,0.115983,0.000000,202.000000,202.000000,0.000000,17.000000,0.000000,0.000000:
// measure 0
1000
0000
0000
0000
,  // measure 1
0001
0000
0000
0000
,  // measure 2
0100
0000
0000
0000
,  // measure 3
0010
0000
0000
0000
,  // measure 4
0100
0000
0000
0000
,  // measure 5
0010
0000
0000
0000
,  // measure 6
0000
0000
0000
0000
,  // measure 7
0001
0000
0100
0000
,  // measure 8
0010
0000
1000
0000
,  // measure 9
0010
0000
0010
0000
,  // measure 10
1000
0000
0100
0000
,  // measure 11
1000
0000
0010
0000
,  // measure 12
0001
0000
1000
0000
,  // measure 13
0100
0000
0100
0000
,  // measure 14
0001
0000
0100
0000
,  // measure 15
1000
0000
0100
0000
,  // measure 16
0200
0300
0000
0000
0000
0020
0030
0000
,  // measure 17
0000
0000
1000
0000
0000
0000
0200
0300
,  // measure 18
0000
0000
0000
0020
0030
0000
0100
0000
,  // measure 19
0000
1000
0000
0010
,  // measure 20
0000
0200
0300
0100
,  // measure 21
0000
1000
0000
0100
,  // measure 22
0000
0200
0300
0001
,  // measure 23
0000
0001
0000
1000
,  // measure 24
0000
2000
3000
0010
,  // measure 25
0000
0100
0000
1000
,  // measure 26
0000
2000
3000
0100
,  // measure 27
0000
0100
0000
0010
,  // measure 28
0000
0010
0001
0100
,  // measure 29
0000
0100
0000
0100
,  // measure 30
0000
1000
0000
0010
,  // measure 31
0000
1000
0000
0010
,  // measure 32
0000
1000
0100
1000
,  // measure 33
0000
0100
0000
0100
,  // measure 34
0000
2000
3000
0001
,  // measure 35
0000
0100
0000
0010
,  // measure 36
0000
0001
0000
0100
,  // measure 37
0000
0000
0100
0000
,  // measure 38
1000
0000
1000
0000
,  // measure 39
0010
0000
0001
0000
,  // measure 40
0100
0000
0001
0000
,  // measure 41
0001
0000
0100
0000
,  // measure 42
0100
0000
1000
0000
,  // measure 43
1000
0000
0010
0000
,  // measure 44
1000
0000
0010
0000
,  // measure 45
0100
0000
0100
0000
,  // measure 46
1000
0000
0100
0000
,  // measure 47
0001
0000
0001
0000
,  // measure 48
0001
0000
0001
0000
,  // measure 49
1000
0000
0100
0000
,  // measure 50
1000
0000
1000
0000
,  // measure 51
0010
0000
0010
0000
,  // measure 52
1000
0000
0100
0000
,  // measure 53
0010
0000
1000
0000
,  // measure 54
1000
0000
0001
0000
,  // measure 55
0010
0000
0010
0000
,  // measure 56
0010
0000
0001
0000
,  // measure 57
0010
0000
1000
0000
,  // measure 58
1000
0000
1000
0000
,  // measure 59
1000
0000
2000
3000
0010
0000
0000
0000
,  // measure 60
0020
0000
0030
0000
0100
0000
0000
2000
,  // measure 61
3000
0010
0000
1000
,  // measure 62
0000
1000
0000
0010
,  // measure 63
0000
0100
0000
0001
,  // measure 64
0000
1000
0000
0010
,  // measure 65
0000
0000
1000
0000
0002
0003
2000
3000
,  // measure 66
0000
1000
0000
0000
,  // measure 67
0000
0000
0000
0000
,  // measure 68
2000
0000
0000
0000
,  // measure 69
0000
0000
0000
0000
,  // measure 70
0000
0000
0000
0000
,  // measure 71
3000
0000
0010
0000
,  // measure 72
0100
0000
0010
0000
,  // measure 73
0100
0000
0001
0000
,  // measure 74
0100
0000
0100
0000
,  // measure 75
0001
0000
0001
0000
,  // measure 76
0100
0000
1000
0000
,  // measure 77
1000
0000
0100
0000
,  // measure 78
0010
0000
0100
0000
,  // measure 79
0010
0000
0010
0000
,  // measure 80
0010
0000
0001
0000
,  // measure 81
0001
0000
1000
0000
,  // measure 82
0010
0000
0100
0000
,  // measure 83
1000
0000
0010
0000
,  // measure 84
1000
0000
0010
0020
,  // measure 85
0030
0000
0010
0000
,  // measure 86
0001
0000
1000
0000
,  // measure 87
0100
0000
0100
0000
,  // measure 88
0001
0000
0010
0000
,  // measure 89
0010
0000
0001
0000
,  // measure 90
0100
0000
0010
0000
,  // measure 91
0001
0000
0001
0000
,  // measure 92
0010
0000
0100
0000
,  // measure 93
0010
0000
0100
0000
,  // measure 94
0001
1000
0010
0010
,  // measure 95
1000
0001
0100
0100
,  // measure 96
1000
0010
0100
0000
,  // measure 97
0001
0000
0010
0000
,  // measure 98
0100
0000
0100
0000
,  // measure 99
1000
0000
0010
0000
,  // measure 100
0200
0000
0000
0000
,  // measure 101
0000
0000
0000
0300
,  // measure 102
0000
0000
0000
0000
,  // measure 103
0000
0000
0000
1000
,  // measure 104
0000
0100
0000
0001
,  // measure 105
0000
1000
0000
0010
,  // measure 106
0000
0100
0000
0001
,  // measure 107
0000
1000
0000
0001
;
