#TITLE:Extravaganza;
#SUBTITLE:;
#ARTIST:BanYa;
#TITLETRANSLIT:;
#SUBTITLETRANSLIT:;
#ARTISTTRANSLIT:;
#CREDIT:;
#BANNER:Extravaganza-banner.png;
#BACKGROUND:Extravaganza-bg.png;
#LYRICSPATH:;
#CDTITLE:;
#MUSIC:Extravaganza.ogg;
#OFFSET:-0.068;
#SAMPLESTART:25.911;
#SAMPLELENGTH:18.000;
#SELECTABLE:YES;
#BPMS:0.000=195.000;
#STOPS:;
#BGCHANGES:-10000.000=songbackground=1.000=0=0=1,
-0.068=Extravaganza.avi=1.000=1=0=1,
311.000=black=1.000=1=0=1,
99999=-nosongbg-=1.000=0=0=0 // don't automatically add -songbackground-
;

//---------------dance-single - ----------------
#NOTES:
     dance-single:
     :
     Hard:
     10:
     0.825,0.944,0.406,0.081,0.518: // measure 1
0000
0000
0000
0000
,  // measure 2
0000
0000
0000
0000
,  // measure 3
0000
0000
0000
0000
,  // measure 4
0000
0000
0000
0000
,  // measure 5
1000
0010
0100
0010
1000
0001
0100
0010
,  // measure 6
1000
0100
1000
0001
0010
0001
0100
0010
,  // measure 7
0100
1000
0001
0010
0001
0100
1000
0010
,  // measure 8
1000
0100
0010
1000
0001
0100
0010
0000
,  // measure 9
0001
0100
0010
0001
1000
0010
0100
1000
,  // measure 10
0001
0100
0010
0100
1000
0001
0100
0000
,  // measure 11
0010
1000
0010
0100
0001
0010
0001
1000
,  // measure 12
0100
1000
0010
0100
0001
0010
0001
0000
,  // measure 13
1000
0010
0100
0000
0010
1000
0001
0010
,  // measure 14
0100
0001
1000
0010
1000
0001
0100
0010
,  // measure 15
0001
1000
0010
0000
0100
0010
1000
0001
,  // measure 16
0010
0100
0001
0000
0010
0001
0010
0100
,  // measure 17
0001
1000
0100
0000
0010
1000
0001
0100
,  // measure 18
0010
0100
1000
0000
0001
0010
0100
1000
,  // measure 19
0100
0010
0001
0000
1000
0100
0010
0100
,  // measure 20
0001
1000
0010
0000
0100
0010
0100
0001
,  // measure 21
2002
0000
0000
3003
,  // measure 22
0100
0001
0100
1000
0100
0001
0100
1000
,  // measure 23
1100
0101
0011
0101
,  // measure 24
0010
1000
0010
0100
0010
1000
0010
0100
,  // measure 25
0110
0011
1100
1010
,  // measure 26
0100
0001
0100
1000
0100
0001
0100
1000
,  // measure 27
1100
1010
0101
0011
,  // measure 28
0100
0001
0100
1000
0100
0001
0100
1000
,  // measure 29
1100
0110
0011
1001
,  // measure 30
0001
0010
0100
1000
0100
0010
0001
0010
,  // measure 31
0011
1010
1100
0101
,  // measure 32
1000
0100
0010
0001
0010
0100
1000
0100
,  // measure 33
1100
1001
0101
0110
,  // measure 34
0100
0001
0010
0001
1000
0100
1000
0100
,  // measure 35
0110
0101
1010
0110
,  // measure 36
1001
1100
0011
0110
,  // measure 37
1001
0110
1001
0011
,  // measure 38
0001
0000
0000
0001
0000
0000
0001
0000
0000
0000
0001
0000
0000
0000
0001
0000
,  // measure 39
0010
0000
0000
0010
0000
0000
0010
0000
0000
0000
0010
0000
0000
0000
0010
0000
,  // measure 40
0100
0000
0000
0100
0000
0000
0100
0000
0000
0000
0100
0000
0000
0000
0100
0000
,  // measure 41
0100
0000
0000
0100
0000
0000
0100
0000
0000
0000
0100
0000
0000
0000
0100
0000
,  // measure 42
1000
0000
0000
1000
0000
0000
1000
0000
0000
0000
1000
0000
0000
0000
1000
0000
,  // measure 43
0100
0000
0000
0100
0000
0000
0100
0000
0000
0000
0100
0000
0000
0000
0100
0000
,  // measure 44
1000
0000
0000
1000
0000
0000
1000
0000
0000
0000
1000
0000
0000
0000
1000
0000
,  // measure 45
1000
0000
0000
1000
0000
0000
1000
0000
0000
0000
1000
0000
0000
0000
1000
0000
,  // measure 46
0100
0000
0000
0100
0000
0000
0100
0000
0000
0000
0100
0000
0000
0000
0100
0000
,  // measure 47
0010
0000
0000
0010
0000
0000
0010
0000
0000
0000
0010
0000
0000
0000
0010
0000
,  // measure 48
0001
0000
0000
0001
0000
0000
0001
0000
0000
0000
0001
0000
0000
0000
0001
0000
,  // measure 49
0001
0000
0000
0001
0000
0000
0001
0000
0000
0000
0001
0000
0000
0000
0001
0000
,  // measure 50
0100
0000
0000
0000
0010
0000
0000
0000
1000
0000
0000
0000
0001
0000
0000
0000
0100
0000
0000
0000
0010
0000
0000
0000
1000
0000
0000
0000
0001
0000
0000
0010
0000
0000
0000
0000
0001
0000
0000
0000
0000
0000
0000
1000
0000
0000
0000
0010
0000
0000
0000
0000
0000
0100
0000
0000
0000
0000
0000
0010
0000
0000
0000
0000
,  // measure 51
0000
0000
0000
1000
0000
0000
0000
0000
0000
0000
0000
0000
0000
0000
0000
0010
0000
0000
0000
0000
0000
0000
0000
0000
0000
0000
0000
0100
0000
0000
0000
0000
0000
0000
0000
0000
0000
0000
0000
0000
0000
0000
0000
0000
0000
0000
0000
0000
0001
0000
0000
0000
0000
0000
0000
0000
0000
0000
0000
0000
0000
0000
0000
0000
0010
0000
0000
0000
0000
0000
0000
0000
0000
0000
0000
0000
0000
0000
0000
0000
0100
0000
0000
0000
0000
0000
0000
0000
0000
0000
0000
0000
0000
0000
0000
0000
0000
0000
0000
0000
0000
0000
0000
0000
0000
0010
0000
0000
0000
0000
0000
0000
0000
0000
0000
0000
0000
0001
0000
0000
0000
0000
0000
0000
0000
0000
0000
0000
0000
0000
0000
0000
0000
0000
0000
0000
0000
0000
0100
0000
0000
0000
0000
0000
0000
0000
0000
0000
0000
0000
0001
0000
0000
0000
0000
0000
0000
0000
0000
0000
0000
0000
0000
0000
0000
0000
0000
0000
0000
0000
0000
1000
0000
0000
0000
0000
0000
0000
0000
0000
0000
0000
0000
0010
0000
0000
0000
0000
0000
0000
0000
0000
,  // measure 52
0000
0000
0000
0100
0000
0000
0000
0000
0000
0000
0000
0000
0000
0000
0000
0000
0000
0000
0010
0000
0000
0000
0000
0000
0000
0000
0000
0000
0000
0000
0000
0000
0000
0000
0000
0000
0000
0000
0000
1000
0000
0000
0000
0000
0000
0000
0000
0000
0000
0000
0000
0000
0000
0000
0000
0000
0010
0000
0000
0000
0000
0000
0000
0000
0000
0000
0000
0000
0000
0000
0000
0000
0100
0000
0000
0000
0000
0000
0000
0000
0000
0000
0000
0000
0000
0000
0000
0001
0000
0000
0000
0000
0000
0000
0000
0000
0000
0000
0000
0000
0000
0000
1000
0000
0000
0000
0000
0000
0000
0000
0000
0000
0000
0000
0000
0000
0000
0000
0000
0000
0000
0000
0000
0000
0000
0000
0000
0000
0000
0010
0000
0000
0000
0000
0000
0000
0000
0000
0000
0000
1000
0000
0000
0000
0000
0000
0000
0000
0000
0000
0000
0000
0000
0000
0000
0000
0001
0000
0000
0000
0000
0000
0000
0000
0000
0000
0000
0000
0000
0000
0000
0000
0100
0000
0000
0000
0000
0000
0000
0000
0000
0000
0000
0000
0000
0000
0000
0000
0010
0000
0000
0000
,  // measure 53
0000
0000
0000
0000
0000
0000
0000
0000
0000
1000
0000
0000
0000
0000
0000
0000
0000
0000
0000
0000
0000
0000
0000
0000
0000
0000
0000
0000
0000
0000
0000
0000
0000
0000
0000
0000
0000
0000
0000
0000
0000
0000
0100
0000
0000
0000
0000
0000
0000
0000
0000
1000
0000
0000
0000
0000
0000
0000
0000
0000
0000
0000
0000
0000
0010
0000
0000
0000
0000
0000
0000
0000
0000
0000
0000
0000
0000
0000
0000
0000
0100
0000
0000
0000
0000
0000
0000
0000
0000
0000
0000
0000
0000
0000
0000
0000
0001
0000
0000
0000
0000
0000
0000
0000
0000
0000
0000
0000
0000
0000
0000
0000
1000
0000
0000
0000
0000
0000
0000
0000
0000
0000
0000
0000
0000
0000
0000
0000
0000
0000
0000
0000
0000
0000
0000
0010
0000
0000
0000
0000
0000
0000
0000
0000
0000
0000
0000
0000
0000
0000
1000
0000
0000
0000
0000
0000
0000
0000
0000
0000
0000
0000
0000
0000
0000
0010
0000
0000
0000
0000
0000
0000
0000
0000
0000
0000
0000
0000
0000
0000
0100
0000
0000
0000
0000
0000
0000
0000
0000
0000
0000
0000
,  // measure 54
0001
0000
0000
0000
0010
0000
0100
0000
1000
0001
0000
0001
0000
0100
0010
0100
,  // measure 55
0010
0000
0000
0000
1000
0000
0100
0000
0010
0100
0000
0100
0000
0001
1000
0001
,  // measure 56
1000
0000
0000
0000
0010
0000
0100
0000
1000
0001
0000
0001
0000
1000
0010
1000
,  // measure 57
0010
0000
0000
0000
1000
0000
0001
0000
0100
0000
0010
0000
0010
0100
0010
0100
,  // measure 58
0020
0000
0030
0000
0001
0000
0010
0000
1000
0010
0000
0010
0000
1000
0100
1000
,  // measure 59
0200
0000
0300
0000
1000
0000
0001
0000
0010
0001
0000
0001
0000
0010
0100
0010
,  // measure 60
0200
0000
0300
0000
1000
0000
0100
0000
0010
0001
0000
0001
0000
0100
0010
0100
,  // measure 61
0020
0000
0030
0000
1000
0000
0001
0000
0010
0100
0000
0100
0000
0001
0010
0001
,  // measure 62
0010
0000
1000
0000
0100
0000
1000
0000
0010
0100
0000
0100
0010
0000
0001
0010
,  // measure 63
0001
0000
1000
0000
0100
0000
1000
0000
0010
0100
0000
0100
0010
0000
0001
0010
,  // measure 64
0001
0000
1000
0000
0010
0000
0100
0000
0010
1000
0000
1000
0001
0000
0100
0010
,  // measure 65
0100
0000
0001
0000
0010
0000
0001
0000
0010
0100
0000
0100
1000
0000
0010
0100
,  // measure 66
0010
0000
0001
0000
0100
0000
0010
0000
1000
0100
0000
0100
0001
0000
0010
0100
,  // measure 67
0010
0100
0000
0000
0101
0000
0000
0010
1000
0000
0000
0000
0101
0000
0000
0000
,  // measure 68
1000
0000
0000
1000
0000
0000
1000
0000
0000
0000
1000
0000
0000
0000
1000
0000
,  // measure 69
0010
0000
0100
0001
0000
0010
1000
0000
,  // measure 70
0010
1000
0010
0100
0010
0001
0010
0100
,  // measure 71
0010
0001
0010
0100
0010
1000
0010
0100
,  // measure 72
0010
1000
0010
0100
0010
0001
0010
0100
,  // measure 73
0010
1000
0100
0010
0100
0001
0100
0010
,  // measure 74
0100
1000
0010
0100
0010
1000
0010
0001
,  // measure 75
0010
0100
0010
0100
0010
1000
0010
0000
,  // measure 76
1000
0100
1000
0010
1000
0001
1000
0010
,  // measure 77
1000
0100
1000
0010
1000
0001
1000
0000
,  // measure 78
2002
0000
3003
0000
;
