#TITLE:Rebel Outpost (Orchid's Theme);
#SUBTITLE:DvF Edit / Killer Instinct 2013;
#ARTIST:Rare / Double Helix;
#TITLETRANSLIT:;
#SUBTITLETRANSLIT:;
#ARTISTTRANSLIT:;
#GENRE:Techno;
#CREDIT:DvF;
#BANNER:OKI2013 - banner.png;
#BACKGROUND:OKI2013 - BG.png;
#LYRICSPATH:;
#CDTITLE:;
#MUSIC:OKI2013.mp3;
#OFFSET:-0.060000;
#SAMPLESTART:99.985619;
#SAMPLELENGTH:12.000000;
#SELECTABLE:YES;
#BPMS:0.000000=127.989990
;
#STOPS:
;
#BGCHANGES:0.000=OKI2013.avi=1.000=0=0=0=StretchNoLoop====,
99999=-nosongbg-=1.000=0=0=0 // don't automatically add -songbackground-
;
#KEYSOUNDS:;
#ATTACKS:;

//---------------dance-single - ----------------
#NOTES:
     dance-single:
     :
     Beginner:
     4:
     0.321376,0.422533,0.383499,0.215718,0.000000,482.000000,112.000000,63.000000,0.000000,6.000000,0.000000,0.321376,0.422533,0.383499,0.215718,0.000000,482.000000,112.000000,63.000000,0.000000,6.000000,0.000000:
0000
0000
0000
0000
,
2200
0000
0000
0000
,
3320
0000
0000
0000
,
0230
0000
0000
0300
,
0002
0000
0000
0003
,
1001
0000
0010
0000
,
0010
0000
0010
0000
,
0100
0000
0100
0000
,
0100
0000
0100
0000
,
1100
0000
0010
0000
,
0001
0000
0010
0000
,
1000
0000
0100
0000
,
0010
0000
0000
0000
,
0001
1000
0100
0010
,
0001
0000
1000
0000
,
0200
0300
0010
0000
,
0000
0001
0000
0000
,
0110
0001
1000
1000
,
1000
1000
0100
0100
,
0010
0010
0001
0010
,
0110
0001
1000
0100
,
0010
1001
0000
0010
,
0100
0010
0100
0010
,
0002
0000
2003
3000
,
0110
0001
1000
0100
,
0100
0100
0010
0001
,
0100
0010
0001
0010
,
0001
1000
0100
1000
,
0100
1000
0010
0001
,
0010
0001
0010
0110
,
0100
1000
0100
1000
,
0100
1000
0100
0010
,
0001
0001
1000
1100
,
0010
0001
0001
0001
,
0110
0001
0010
0100
,
0010
0100
0010
0011
,
0100
0100
0110
0110
,
0001
1000
0100
0010
,
1000
0100
0010
0001
,
0001
0010
0100
0010
,
0001
0100
0010
0010
,
0002
1000
1000
1000
,
1003
0100
0100
0100
,
0001
0001
0001
0100
,
0110
0100
0100
0100
,
2000
0010
0001
0100
,
0010
0010
0010
3001
,
0101
0010
0010
0100
,
0100
1100
0010
0001
,
0100
0110
0110
0001
,
0001
1000
1000
0110
,
0001
1000
0110
0110
,
0001
0001
1000
1000
,
0100
0000
0010
0000
,
0100
0000
1100
0000
,
0010
0100
0010
0001
,
2000
0000
0000
0000
,
3001
0010
0100
0100
,
0100
0100
0100
0100
,
0010
0001
1000
0000
,
0011
1100
0011
0010
,
0010
0000
0000
0200
,
0300
0010
0001
1000
,
0100
1000
0000
0000
,
0200
0000
0000
0300
,
2002
0000
0000
0000
,
3003
0010
0010
0010
,
0100
0100
0100
2002
,
0000
3003
0020
0000
,
0230
0000
0000
0300
,
1001
0200
0000
0320
,
0000
0230
0000
1301
,
0200
0000
0000
0300
,
0020
0000
0000
1031
,
0200
0000
0300
0020
,
0000
2030
0000
3002
,
0003
1000
0100
0010
,
0001
0001
0010
0100
,
1000
0100
0010
0001
,
0010
0100
1000
0100
,
0010
0001
0010
0100
,
1000
0100
0010
0001
,
0010
0100
1000
0100
,
0010
0000
0000
0000
,
1001
0110
0110
0110
,
0001
1000
0001
1000
,
0001
1000
0001
1000
,
0110
1001
0110
1001
,
0000
0010
0100
0010
,
0100
0010
0100
0010
,
0100
0010
0100
0010
,
2000
0000
0000
0000
,
3011
0000
1100
0000
,
0011
0000
2200
3000
,
0310
0001
1000
0100
,
0220
0330
2000
3000
,
1001
0110
0002
0003
,
2000
3000
0110
0011
,
1100
0020
0000
0230
,
1300
1000
1000
1002
,
0000
1000
1000
1000
,
0103
0010
0100
2000
,
0100
0010
0001
3001
,
0001
0001
1000
1000
,
0110
0001
0001
0001
,
1000
1000
1000
0110
,
1001
0110
1001
0110
,
0110
0002
0000
1000
,
0100
0010
0100
0010
,
1000
1000
2003
0100
,
0010
0001
3011
1100
,
0010
0100
0010
0010
,
0100
0100
0010
0010
,
0100
0100
0001
1000
,
0010
0100
0010
0001
,
1000
0011
0100
0010
,
0100
0010
0001
1000
,
0100
0100
0010
0000
,
0001
1000
0100
0010
,
0020
0000
0030
0001
,
1000
0200
0000
0000
,
0310
0001
1000
0100
,
0010
0110
0000
0100
,
0010
1001
0100
0100
,
0100
0010
0010
0010
,
1001
0110
1001
0110
,
1001
0110
0011
0011
,
0011
1100
1100
1100
,
0011
0011
0011
0110
,
1100
1100
0011
0100
,
0100
0100
0100
0100
,
0011
0011
0011
0011
,
1100
1100
0110
0101
,
0110
0110
0010
0100
,
0100
0100
1010
0101
,
1010
0101
0101
0101
,
0101
1010
1010
1010
,
0101
0010
0100
0010
,
0100
0001
1000
0100
,
0010
0001
1000
0100
,
0010
0001
1000
0100
,
0220
0000
0000
0330
,
1001
0110
1001
0220
,
0000
0000
2330
0000
,
3200
0000
0320
0000
,
0032
0000
2003
3000
,
0011
1100
0011
0110
,
0110
0002
2003
0000
,
3200
0000
0320
0000
,
0032
0000
2003
0000
,
3020
0000
0230
0300
,
2002
0000
0000
0000
,
0000
0000
0000
0000
,
0000
0000
0000
0000
,
0000
3003
0000
0000
;

//---------------dance-single - ----------------
#NOTES:
     dance-single:
     :
     Easy:
     6:
     0.409424,0.422533,0.537583,0.321865,0.000000,586.000000,157.000000,94.000000,0.000000,6.000000,0.000000,0.409424,0.422533,0.537583,0.321865,0.000000,586.000000,157.000000,94.000000,0.000000,6.000000,0.000000:
0000
0000
0000
0000
,
2000
0000
0010
0001
,
0100
0010
0001
0100
,
0010
0001
0000
0000
0100
0010
0000
0000
,
0100
0010
0001
0100
,
3002
0010
0100
0010
,
0100
1000
0100
0010
,
1000
0000
0100
0010
0000
0000
0100
0000
,
1000
0000
0100
0000
0010
0000
0100
0003
,
2002
0000
0000
0000
,
0000
0000
0000
0000
0000
0000
0000
3203
,
0020
0000
0000
0000
,
0000
0000
0000
0000
,
2330
0000
0000
0000
,
3002
0000
0000
0000
0000
0000
0000
0003
,
2002
0000
0000
3003
0220
0000
0330
0000
,
1001
0110
0002
2000
0000
0000
0000
3003
,
0020
0000
0230
0300
1001
0000
0110
0000
,
0001
0001
1000
1000
,
0010
0000
0100
0000
0010
0001
0000
0000
,
0011
0000
1100
0011
0000
0011
0011
0000
,
1100
0010
0001
0100
,
0010
1000
0100
0010
,
0002
0000
0000
2003
0000
0000
3000
0000
,
1001
0010
0100
0010
,
0001
0000
1000
0100
1000
0000
0010
0011
,
0000
0000
0001
0000
0010
0000
0001
0011
,
0000
0000
0100
1000
0100
1000
0000
0000
,
0010
0000
0100
0000
0010
0100
0110
0000
,
0001
0000
1000
0000
0001
1000
1001
0000
,
0010
0000
0100
0000
0010
1000
1010
0000
,
0001
0000
0010
0000
0110
0000
0110
0001
,
0000
0000
1000
0010
0000
0100
0001
0001
,
1000
0100
0100
0010
,
0010
0000
0001
0001
0001
0000
0100
0000
,
0010
0100
0010
0100
,
0010
0000
0100
0010
0000
1000
1000
0000
,
0010
0100
1000
0100
,
1000
0000
0001
0000
0010
0001
0010
0000
,
0001
0010
0001
0000
0010
0001
0010
0000
,
0001
0010
0001
0000
1000
1000
1000
0000
,
0200
0010
0001
0010
,
0001
1000
0302
0010
,
0100
0010
0100
1000
,
0023
0100
1000
0001
,
0230
1000
1000
1000
,
1000
0010
0010
2300
,
0100
0010
0001
0010
,
0100
0000
0100
0000
0001
0010
3000
0000
,
0110
0110
0110
0011
,
0011
1100
1100
0011
,
0100
0100
0110
0110
,
1100
1100
0011
0011
,
0110
1000
0110
0010
,
0001
1000
0010
0100
,
0001
0010
1000
0100
,
0110
0110
0001
2002
,
0000
3113
0001
1000
,
0100
0010
1000
0100
,
0010
0001
0010
0100
,
1100
0000
0011
0000
1100
1100
1100
0000
,
0010
0001
0010
1000
,
0100
0001
0010
1000
,
0100
0000
0010
0000
0000
0001
0000
0000
,
2002
0000
3000
0223
0000
0000
0000
0330
,
2002
0000
0000
0000
,
0000
0000
0000
0003
0010
0000
0100
0000
,
0001
0000
0010
0000
0100
3000
1001
0000
,
0110
1001
0110
1001
,
1001
0110
1001
1001
,
0110
1001
0110
1001
,
1010
1010
1010
1010
,
0101
0101
0101
0101
,
1010
1010
1010
0101
,
1010
0000
0200
0000
0000
0300
0020
0000
,
0032
0000
2003
0000
3200
0020
0300
0000
,
0032
0000
2003
0000
0200
3000
0320
0000
,
0030
0000
0002
0000
0023
0200
0030
0000
,
2300
0000
0200
3000
0000
0000
0000
0300
,
0020
0000
0000
0230
0000
0000
0000
0302
,
0000
0000
2003
0000
3200
0020
0300
0002
,
0030
0000
0203
0000
0000
0320
0000
0000
,
2030
0000
0000
0200
3000
0000
0000
0300
,
0002
0000
0000
0000
2003
0000
0000
3000
,
1001
0010
0010
0010
,
1001
0100
0100
0100
,
1001
0010
0010
0010
,
0110
0000
0001
0000
1000
0000
0110
0001
,
0000
1001
0110
0001
,
1000
0100
0010
0001
,
1001
0010
0100
0010
,
0002
0000
0000
0000
0000
0000
0000
0003
,
1100
0000
0011
0000
0020
0000
0000
0030
,
1001
0000
0110
0000
0200
0000
0000
0300
,
0010
0000
1001
0000
0220
0000
0000
0330
,
1001
0100
0100
0100
,
0020
0000
0000
0030
1001
0000
0110
0000
,
0200
0000
0000
0000
0000
0300
1001
0000
,
0011
0000
0200
0000
0000
0300
1000
0000
,
1100
1100
1100
0000
0010
0010
0010
0000
,
0002
0000
0000
0000
0000
0003
1000
0000
,
0100
0010
0001
0001
,
0010
0100
1000
1000
,
0100
0010
0001
0001
,
0010
1000
0100
0010
,
0001
0010
0100
0010
,
0100
0000
0010
0000
0011
0000
1100
0100
,
0000
0010
0001
0000
0110
0000
0001
0000
,
1000
0001
1000
0010
0100
0000
0010
0000
,
0002
0000
1000
0000
0100
0000
0000
0003
,
1100
0011
0011
0011
,
0011
0000
0110
0000
0001
1000
0001
1000
,
1000
0100
0010
0000
0001
1000
0100
1010
,
0000
0000
0001
1000
0100
0010
0000
0000
,
1000
0100
1000
0010
0001
0000
0100
1000
,
0010
0000
0001
0010
0100
1000
0100
1000
,
0100
0010
0001
1000
0100
0000
0010
0000
,
0110
0001
1000
0010
,
0011
0000
0011
0000
1100
0000
1100
1100
,
0011
0100
0010
0100
,
0010
0100
0001
1000
,
0110
0110
0001
0010
,
0001
0000
0010
0001
0000
1000
1100
0000
,
0010
0000
0001
0100
1000
0100
0010
0000
,
0100
0100
0010
0001
0100
0010
0100
0000
,
1000
1000
0100
0000
0010
0010
0001
0000
,
0100
0100
0010
0000
0001
0001
0100
0000
,
0020
1000
1000
1000
,
1000
0030
0001
0000
0010
0000
0002
0000
,
0100
0010
0100
0010
,
1000
0000
0100
0000
0010
1000
0100
0003
,
0020
1000
0100
0001
,
1000
0030
0100
0010
1000
0001
0100
0010
,
0000
0000
0110
0110
0000
0000
0001
0001
,
0000
1000
0100
0010
0001
0010
0100
0000
,
0001
0011
0011
0011
,
1100
1100
1100
0110
,
0000
0011
0011
1100
,
1100
0011
0011
2200
,
0000
3300
0010
0000
0001
0000
1000
0000
,
0100
0010
1001
0110
,
1001
0110
0100
0100
,
1100
0011
1100
0022
,
0000
0000
0033
0000
2200
0000
0000
3300
,
0022
0000
0000
0033
2200
0000
0000
3300
,
0022
0000
0000
0033
2200
0000
0000
3300
,
1001
0110
1001
0110
,
0001
1000
1100
0001
,
0200
0000
0010
0301
,
2002
0000
0003
3220
0000
0000
0330
0000
,
1001
0110
0000
0001
0002
0000
0003
0000
,
2000
0000
0000
0000
,
0000
3101
0000
0000
0101
0000
0000
0020
,
0000
0000
0000
0000
,
0000
0030
0000
0000
;

//---------------dance-single - ----------------
#NOTES:
     dance-single:
     :
     Medium:
     7:
     0.416272,0.580277,0.479373,0.232838,0.356106,643.000000,140.000000,68.000000,0.000000,0.000000,0.000000,0.416272,0.580277,0.479373,0.232838,0.356106,643.000000,140.000000,68.000000,0.000000,0.000000,0.000000:
0000
0000
0000
0000
0000
0000
0000
2200
,
0000
0000
0000
0000
0000
0000
0000
0000
0000
0000
0000
0000
0000
0000
0000
0300
,
3010
0000
0000
0001
0000
0000
0000
0010
0000
0000
0100
0000
0000
0000
0000
2200
,
0000
0000
0000
0000
0000
0000
0000
3300
,
0010
0000
0000
1000
0000
0000
0000
0100
0000
0000
0001
0000
0000
0000
0000
0022
,
0000
0000
0000
0000
0000
0000
0000
0000
0000
0000
0000
0000
0000
0000
0000
0030
,
1003
0000
0000
0100
0000
0000
0010
0000
0000
0000
1000
0000
0000
0000
0100
0000
,
0000
0010
0000
0000
0000
0001
0000
0000
1000
0000
0000
0000
0110
0000
0000
0001
,
0000
0000
0000
1000
0000
0000
0000
0001
0000
0000
0000
1000
0000
0000
0000
0000
,
2002
0000
0000
0000
0000
0000
0000
3003
0110
0000
0000
0000
0110
0000
0000
0002
,
2000
0000
0000
0000
0000
0000
3003
0220
0000
0000
0000
0000
0000
0330
0000
2002
,
0000
0000
0000
0000
0003
0000
0000
0020
0000
3000
0000
0000
0000
0000
0000
0230
,
0000
0000
0000
0000
0000
0000
0000
2300
0000
0000
0000
0000
0000
0000
0000
3002
,
0000
0000
0000
0023
0000
0000
0000
0230
0000
0000
0000
2300
0000
0000
0000
3200
,
0000
0000
0000
0000
0000
0000
0020
0300
0000
0000
0000
0000
0000
0000
0032
0000
,
0000
0000
0000
0000
2000
0003
0000
0000
0000
0000
0000
0000
0000
3000
0000
0011
,
0000
0000
1100
0000
0000
0220
0000
0000
0000
0000
0000
0000
0000
0330
0000
0000
,
0110
0000
0000
0000
1001
0000
0000
0110
0000
0000
0000
0110
0000
0000
0000
0110
,
0000
0000
0000
0110
0000
0000
0000
0110
0000
0000
0000
0110
0000
0000
0000
0011
,
0000
0000
0000
0011
0000
0000
0000
0011
0000
0000
0000
0011
0000
0000
0000
1100
,
0000
0000
0000
0011
0000
0000
0000
1100
0000
0000
1100
0000
1100
0000
0000
0000
,
0010
0000
0000
0000
0001
0000
0000
0000
0011
0000
0000
0001
0010
0000
0000
0011
,
0000
0000
0000
0110
0000
0000
0000
0000
0110
0000
0000
0000
0110
0000
0000
0200
,
0020
0000
0000
0000
0000
0000
0330
2000
0000
0000
0000
0000
0000
3000
0000
0001
,
0000
0000
0000
1000
0000
0000
0000
0000
0001
0000
0000
0000
1000
0000
0000
0000
,
0001
0000
0000
0010
0100
0000
0000
0001
0000
0000
0000
1000
0000
0100
0000
0010
,
0000
0000
0000
0001
0000
0000
0010
0000
0100
0000
1000
0000
0000
0100
0000
0000
,
0000
0000
0000
0010
0000
0001
0000
1000
0000
0000
0000
0100
0000
0010
0000
0000
,
0100
0010
0000
0000
0110
0000
0000
0000
0000
0001
0000
1000
0000
0000
0010
0000
,
0001
0000
0000
0000
0001
0000
0000
0000
0001
0000
0000
0000
0001
0000
0000
0110
,
0000
0000
0000
0000
0001
0000
0000
0010
0000
0000
0000
0010
0000
0000
0000
0000
,
0100
0000
0000
0000
0100
0000
0000
0000
0010
0000
0000
0000
0000
1000
0000
0000
,
0001
0000
1000
0000
0001
0000
1000
0000
0001
1000
0000
0001
0000
0000
0000
0000
,
0011
0000
0000
0000
0100
0000
0000
0000
0100
0000
0000
0100
0000
0000
0000
0000
,
0100
0100
0010
0001
,
0010
0000
0000
0010
0000
0000
0000
0000
0010
0000
0000
0100
0000
0000
0000
0100
,
0000
0000
0000
0100
0000
0000
0000
0100
0000
0000
1000
0000
0100
0000
0000
0000
,
0010
0010
0010
0010
,
0001
0000
0000
0000
0001
0000
0000
0000
1000
0000
0000
1000
0000
0000
0000
0000
,
0110
0000
0001
0000
0000
0000
0000
0000
1000
0000
0000
0011
0000
0000
0000
0000
,
1000
0000
0000
0000
0100
0000
0000
0000
1100
0000
1100
0000
1100
0000
0000
0020
,
0000
0000
0000
0000
,
0030
0000
0000
0200
0000
0000
0000
0000
0000
0000
0000
0000
0000
0000
0000
0000
,
0300
0000
2000
0000
0000
0000
0000
0000
0000
0000
0000
0000
0000
3000
0002
0000
,
0000
0000
0000
0000
0000
0000
0000
0000
0000
0000
0000
0000
0003
0000
0000
2000
,
0000
0000
0000
0000
0000
0000
0000
0000
0000
0000
0000
0000
0000
0000
0000
3000
,
0000
0000
0000
0200
0000
0000
0000
0000
0000
0000
0000
0000
0000
0000
0000
0300
,
0000
0000
0020
0000
0000
0000
0000
0000
0000
0000
0000
0030
0000
0002
0000
0000
,
0000
0000
0000
0000
0000
0000
0000
0000
0000
0000
0000
0000
0003
0000
0000
2000
,
0000
0010
0100
0001
,
0010
0000
0000
0000
0100
0000
0000
0000
0100
0000
0000
0010
0000
0000
0000
0000
,
0000
0000
0000
0000
0010
0000
0000
0000
0001
0000
0000
0000
0100
0000
0000
0010
,
0000
0000
0000
0000
0100
0000
0000
0001
0000
0000
0000
0010
0000
0000
0000
3000
,
0000
0000
0000
0002
0000
0000
0000
0010
0000
0000
0000
0000
0100
0000
0000
0000
,
0010
0000
0000
0000
0100
0000
0000
0010
0000
0000
0000
0010
0000
0000
0000
0100
,
0000
0000
0000
0100
0000
0000
0000
0100
0000
0000
0000
0100
0000
0003
0000
0001
,
1000
0110
0000
0001
0000
1000
0000
0100
0000
0000
0110
0000
0001
0000
0000
0000
,
0001
0000
0000
0000
0001
0000
0000
0110
0000
0000
0000
0000
1000
0000
0000
0100
,
0000
0000
0000
0000
0100
0000
0000
0000
0100
0000
0000
0000
0100
0000
0000
0010
,
0000
0000
0000
0010
0000
0000
0000
0010
0000
0000
0000
0010
0000
0000
0000
0011
,
0000
0000
0000
0110
0000
0000
0000
1100
0000
0000
0000
1100
1100
0000
0000
0000
,
0010
0000
0000
0000
0001
0000
0000
0010
1000
0000
0000
0000
0100
0000
0000
0000
,
0100
0000
0000
0000
0100
0000
0000
0000
0001
0000
0000
0000
1000
0000
0000
0002
,
0020
0000
0000
0000
0000
0000
0000
0000
0000
0000
0000
0000
0000
0030
0003
0100
,
1000
0000
0000
0011
0000
0000
0001
0010
0011
0000
0000
0000
0000
0110
0000
0220
,
0000
0000
0000
0000
0000
0000
0000
0000
0000
0000
0000
0030
0000
0000
0300
0000
,
2000
0000
0000
0000
0000
0000
0000
0000
0000
0000
0000
0000
0000
0000
0000
3200
,
0000
0000
0000
0000
0000
0000
0000
0000
0000
0001
0000
0000
0010
0000
0300
0000
,
0011
0011
1100
1100
,
0110
0110
0011
0011
,
0110
1100
1100
0110
,
0011
0011
0110
0110
,
1100
0000
0000
0000
1100
0000
0000
0010
0001
0000
0000
0000
0011
0000
0000
0000
,
0110
0110
1100
1100
,
0110
0011
0110
0110
,
0011
0011
0000
0011
0000
0011
0000
0011
0000
0000
0000
0220
0000
0000
0000
0000
,
0000
0330
0000
1100
0000
0000
0000
0000
1100
0000
0000
0100
0000
0000
1000
0000
,
0100
0000
1000
0000
0000
0100
1000
0000
0100
0000
1000
0100
0000
1000
0000
0000
,
0001
0000
0000
0010
0001
0000
0000
0010
0000
0001
0000
0011
0000
0000
0010
0000
,
0001
0000
0010
0000
0001
0010
0001
0000
0010
0000
0100
0000
0100
0000
0100
0000
,
0010
0000
0000
0000
0010
0010
0000
0000
0000
0100
0000
0100
0100
0000
0000
0000
,
0010
0010
0000
0010
0000
0000
0001
0000
0001
0000
0000
1000
1000
0000
1000
0000
,
0100
0000
0100
0100
0000
0100
0000
0010
0010
0000
0010
0010
0000
0000
0000
0011
,
0000
0000
0000
0100
1000
0000
0000
0000
0010
0000
0100
0000
0000
0100
0000
0000
,
0000
0001
0000
0000
0010
0000
1000
0000
0010
0000
0000
0000
0100
0000
0000
0000
,
0000
0000
0000
1000
0000
0000
0100
0000
0010
0000
0000
0000
0001
0000
0000
0000
,
0000
1000
0000
0100
0010
0000
0100
0000
,
0001
0000
0000
0000
0010
0000
0000
0000
0100
0000
0000
0000
1000
0000
0100
1000
,
0000
0000
0000
0010
0000
0000
0010
0000
0001
0000
0000
0000
0100
0000
0000
0000
,
0000
0010
0000
0001
1000
0000
0100
0000
,
0000
0010
1000
0100
0010
0000
0001
0000
,
2000
0000
0100
0000
0100
0000
0100
3000
,
0110
0000
0000
0000
0110
0000
0000
0000
0001
1000
0000
0000
1001
0000
0000
0000
,
0110
0110
1001
1001
,
0110
0000
0000
0000
0000
0001
0000
0000
0010
0000
0000
0000
0100
0000
0000
1000
,
0000
0100
0000
0000
0010
0000
0000
0000
0001
0000
0000
0000
0110
0000
0000
0000
,
1001
1001
0110
0110
,
1001
0110
0110
0110
,
0011
0100
0100
0010
,
1000
0000
1000
0000
1000
1000
0000
1000
0000
0000
1000
1000
1000
0000
0000
0000
,
2000
0000
3010
0001
,
0200
0000
0300
0000
0010
0000
0000
0002
0000
0000
0000
0000
2003
0000
0000
0000
,
0200
3000
0000
0000
0302
0000
0000
0000
0023
0000
0000
0000
0230
0000
0300
0000
,
0001
0000
0000
0000
0010
0000
0000
0000
0100
0000
0000
0000
1000
0100
0000
0000
,
0010
0000
0000
0000
0001
0000
0000
0010
0000
0000
0000
0100
0000
0000
1000
0000
,
0100
0000
0000
0000
0001
0000
0000
0000
0010
0000
0000
0100
0000
0000
1000
0000
,
0000
1010
0000
0000
0001
0100
0000
0000
0010
0000
0000
0100
0000
0000
0100
0000
,
0000
0010
0000
0000
0001
0000
0000
0000
1000
0000
0000
0000
0001
0000
0000
0000
,
1000
0001
1000
0100
,
0010
0000
0000
0010
0000
0000
0001
0000
0000
0000
0000
0000
0010
0000
0000
0000
,
0000
1000
0000
0000
0100
0000
0000
0000
1000
0000
0000
0000
0100
1000
0000
0000
,
0100
0000
1000
0000
0010
0000
0000
0000
0101
0000
0000
0000
0010
0100
0000
0100
,
0000
0000
0000
0010
0000
0010
0000
0000
0001
0000
0001
0000
1000
1000
0000
0100
,
0000
0000
0010
0010
0100
0000
0001
1000
,
0000
0100
0000
1000
0000
0100
0000
0000
0010
0000
0000
0000
0000
0000
0000
0001
,
0000
0000
0000
0001
0000
0000
0010
0000
0100
0000
1000
0000
0100
0000
1000
0000
,
0100
0000
0000
0000
0010
0000
0000
0000
0000
0001
0000
0010
0001
0010
0000
0000
,
0000
0100
0000
0000
0000
0100
0000
0000
0000
0110
0000
0001
0000
0000
1000
0000
,
0000
0100
0100
0000
0100
0000
0000
0100
0000
0000
0100
0000
0100
0100
0000
0000
,
0010
0001
1000
0001
,
0011
0011
0011
0110
,
0100
0000
0100
0000
0010
1000
0100
0000
,
0100
0000
0000
0000
0100
0000
0100
0000
0000
0000
0010
0001
0000
1000
0000
0000
,
0000
0100
0000
0000
0000
0100
0000
0000
0100
0000
0000
0000
0010
0000
0000
0000
,
0010
0000
0010
0000
0001
1000
0001
0000
,
1000
1000
1000
0000
0100
0100
0100
0000
,
0010
0010
0010
0000
0001
0001
0001
0000
,
0002
1000
1000
1000
,
1000
0003
0000
2000
0000
0000
0000
0000
0100
0000
0000
0000
0010
0000
0000
0000
,
0100
0010
0100
0001
,
0010
0000
0100
0010
0001
0010
0100
0000
,
3020
0000
0100
0000
1000
0000
0100
1000
,
0100
0000
0000
0000
0200
0030
0000
0000
0000
0000
0000
0001
0000
0000
0001
0000
,
0000
0000
0000
0000
1000
0000
1000
0000
0000
0300
0000
0100
0000
0100
0000
0000
,
0000
0010
0000
0000
0100
0010
0001
0000
,
0000
1100
0010
0010
,
0010
0000
0100
0000
0001
0010
0100
0000
,
0000
0000
0011
0000
0100
0000
1000
0100
,
0010
0000
0000
0000
0001
0000
0000
0010
0100
0000
1000
0000
0100
0000
0000
0000
,
0000
0000
0000
0000
0000
0110
0000
0000
0001
0000
0000
0000
1000
0000
0000
0000
,
0001
1000
0100
0000
0010
0000
0110
0000
,
0001
0000
1000
0000
0001
0000
1000
0000
0001
0000
1000
0000
0000
0000
0000
2002
,
0000
0000
0000
0000
0000
0000
0000
0000
0000
0000
0000
3003
0110
0000
0000
0000
,
0110
1001
0110
1100
,
1100
0011
0011
0011
,
0110
1100
0100
0100
,
0011
0000
0000
0000
1100
0000
0000
0000
0011
0000
0000
0011
0000
0011
0000
0000
,
0000
0100
0000
0000
2000
0000
0000
0000
0000
0010
0000
0000
0100
0000
0000
3000
,
0010
0000
0001
0000
0100
0000
0010
0000
0000
0000
0000
2000
0000
0000
0000
0000
,
0100
0000
0000
0000
0000
0000
0200
0000
0000
0300
0000
0000
0000
0000
3001
0000
,
0010
0000
0000
0100
0000
0000
0001
0000
0001
0000
0000
0000
0000
0000
1001
0000
,
2002
0000
0000
0000
,
0000
0000
0000
0000
,
0000
0000
0000
0000
,
3003
0110
0000
0000
0000
0000
0000
0000
0000
0000
0000
0000
0000
0000
0000
0000
;

//---------------dance-single - ----------------
#NOTES:
     dance-single:
     :
     Hard:
     11:
     0.481819,0.712062,0.342409,0.428012,0.684819,760.000000,100.000000,125.000000,0.000000,4.000000,0.000000,0.481819,0.712062,0.342409,0.428012,0.684819,760.000000,100.000000,125.000000,0.000000,4.000000,0.000000:
// measure 0
0000
0000
0000
0000
,  // measure 1
0000
0020
0000
0000
0000
0000
0000
0000
0000
0000
0000
0000
0000
0000
0000
0000
0000
0000
0000
0000
0000
0000
0000
0000
,  // measure 2
0230
0000
0000
0000
0000
0000
0000
0000
0000
0000
0000
0000
0000
0000
0000
0000
0000
0000
0000
0000
0000
0000
0000
2000
,  // measure 3
0000
0000
0000
0000
0000
0300
0000
0000
0000
0000
0000
0000
0000
0000
0000
0000
0000
0000
0000
0000
0000
0020
0000
0000
,  // measure 4
0000
0000
0000
0000
0000
0000
0000
0000
0000
0000
0000
0000
0000
0000
0000
0000
0000
0000
0000
0000
0030
0000
3200
0002
,  // measure 5
0000
0000
0000
0000
,  // measure 6
0000
0020
0303
0000
0000
0000
0000
0000
0000
0000
0000
0000
0000
0000
0000
0000
0000
0000
0000
0000
0000
0000
0000
2000
,  // measure 7
0000
0030
0000
0000
0000
0000
0000
0000
0000
0000
0000
0000
0000
0000
0000
0000
0000
0000
0000
0000
0000
0000
0000
0000
,  // measure 8
0202
3000
0000
0000
0000
0000
0000
0000
0000
0000
0000
0000
0000
0000
0000
0000
0000
0000
0000
0000
0000
0303
0000
2020
,  // measure 9
0000
0000
0000
0000
,  // measure 10
0000
0000
0000
0000
0000
0000
0000
0000
0000
0000
0000
0000
0000
0000
0000
0000
0000
0000
0000
0030
3000
0000
0002
0000
,  // measure 11
0000
0000
0000
0000
0000
0000
0000
0003
0000
0200
0000
0000
0000
0000
0000
0000
0000
0000
0000
0000
0000
0300
0000
0020
,  // measure 12
0000
0000
0000
0000
0000
0000
0000
0000
0000
0000
0000
0000
0000
0000
0000
0000
0000
0000
0030
0000
0000
0000
0002
2000
,  // measure 13
0000
0000
0000
0000
0000
0000
0000
0000
0000
0000
0000
0000
0000
0000
0000
0000
0000
0000
0000
0003
0000
0000
0200
0000
,  // measure 14
0000
0000
0000
0000
0000
0000
3000
0000
0000
0000
0000
0020
0000
0000
0000
0000
0000
0300
0000
0000
0000
0000
0002
0030
,  // measure 15
0000
0000
0000
0000
0000
0000
0000
0000
0000
0000
2000
0003
0000
0000
0000
0000
0000
0000
0000
0000
3000
0000
0000
0000
,  // measure 16
0001
0000
0000
0000
1000
0000
0000
0000
0001
0000
0000
0000
0000
0000
0000
0110
0000
0000
0000
0000
0000
0000
0000
1001
,  // measure 17
0000
0000
0000
0000
0000
0110
0000
0000
0000
0000
0000
0110
0000
0000
0000
0000
0000
0110
0000
0000
0000
0000
0000
0110
,  // measure 18
0000
0000
0000
0000
0000
0000
0110
0000
0000
0000
0000
0000
0110
0000
0000
0000
0000
0000
0110
0000
0000
0000
0000
0001
,  // measure 19
0000
0000
0000
0000
0001
0000
0000
0000
0000
0000
0000
0000
0000
0000
0000
0000
0001
0000
0000
0000
0000
0000
0000
0011
,  // measure 20
0000
0000
0000
0000
0000
1100
0000
0000
0000
0000
0000
1100
0000
0000
0000
0000
1100
0000
0000
1100
0000
0000
0000
0000
,  // measure 21
0220
0000
0000
0000
0000
0000
0000
0000
0000
0000
0000
0030
0300
0000
0000
0000
0000
0001
0000
0000
0000
0000
0000
0010
,  // measure 22
0000
0000
0000
0000
0000
0100
0000
0000
0000
0000
0000
1000
0000
0000
0000
0000
0000
0100
0000
0000
0000
0000
0020
0000
,  // measure 23
0000
0000
0000
0000
0000
0000
0000
0000
0032
0000
0000
0000
0000
0000
0000
0000
0000
0000
0000
0003
0000
0000
0000
1000
,  // measure 24
0100
0000
0000
0000
0000
0001
0000
0000
0000
0000
0000
0010
0000
0000
0000
0000
0000
1000
0000
0010
0000
0000
0000
1000
,  // measure 25
0000
0010
0000
0000
0000
0000
0110
0000
0000
0000
0000
0000
0000
0000
0001
0000
0000
1000
0000
0001
0000
1000
0001
0000
,  // measure 26
0000
0000
0000
0100
0000
0000
0100
0000
0000
0000
0000
0000
0010
0000
0000
0010
0000
0001
0000
0000
0000
1000
0000
0100
,  // measure 27
0000
0000
0000
0000
0000
0010
0000
0000
0010
0000
0000
0100
0000
0000
0000
0000
0001
0000
0000
0100
0000
0000
0000
0000
,  // measure 28
1000
0000
0000
0000
0000
0000
0100
0000
0000
0000
0000
0001
0000
0000
0000
0000
0000
0010
1000
0000
0010
0000
1000
0000
,  // measure 29
0000
0000
0000
0000
0000
0001
0000
0000
0000
0000
0010
0000
0000
0000
0100
0000
0010
0000
0100
0010
0000
0000
0000
0000
,  // measure 30
0001
0000
0000
0000
0000
0100
0000
0000
0010
0100
0000
0010
0000
0000
0000
0001
0000
0000
0000
0000
0000
0000
0000
1000
,  // measure 31
0000
0000
0001
0000
0000
1000
0000
0000
0000
0000
0000
0001
1000
0000
0001
0000
1000
0000
0000
0000
0000
0110
0000
0000
,  // measure 32
0000
0000
0000
0000
0000
0110
0000
0000
0000
0000
0000
0011
0000
0000
0000
0011
0000
0000
0011
0000
0000
0000
0000
0100
,  // measure 33
0000
0000
0000
0000
0000
1000
0000
0000
0000
0100
0000
0000
1000
0000
0100
0000
0000
0000
1000
0000
0000
0100
0000
0000
,  // measure 34
1000
0000
0100
0000
0000
1000
0000
0000
0100
0000
0000
1000
0000
0000
0000
0000
0000
0000
0000
0000
0000
0000
0000
0000
,  // measure 35
0010
0000
0000
0001
0000
0000
0010
0000
0000
0001
0000
0000
0010
0000
0001
0000
0000
0010
0000
0000
0001
0000
0000
0000
,  // measure 36
0010
0000
0001
0000
0000
0010
0000
0000
0000
0001
0000
0000
0000
0000
0110
0000
0000
0110
0000
0110
0000
0000
0000
0000
,  // measure 37
0001
0000
0000
0000
0000
0000
0010
0000
1000
0000
0000
0000
0010
0000
0000
0000
0000
0010
0000
0000
0000
0000
0000
0100
,  // measure 38
0000
0000
0001
0000
0000
0000
0001
0100
0000
0000
0000
0000
0100
0000
0000
0100
0000
0000
0001
0000
0000
0000
0000
0000
,  // measure 39
0001
0000
0001
0000
0000
1000
0000
0000
0000
0000
0000
0000
0100
0000
0100
0000
0000
0000
1000
0000
0000
0000
0000
0100
,  // measure 40
0000
0000
0100
0000
0000
1000
0000
0010
0000
0000
0001
0000
0000
0000
0000
0001
0000
0000
0001
0000
0000
0000
0000
0200
,  // measure 41
0000
0000
0000
0000
0000
0010
0000
0000
0000
0000
0000
0010
0000
0000
0000
0000
0000
0010
0000
0000
0000
0000
0000
0010
,  // measure 42
0000
0000
0000
0000
0000
1000
0000
0000
0000
0000
0000
0000
1000
0000
0000
0000
0000
0001
0000
0000
0000
0000
0000
0001
,  // measure 43
0000
0000
0000
0000
0000
0010
0000
0000
0000
0000
0000
0010
0000
0000
0000
0000
0000
0001
0000
0000
0000
0000
0010
0000
,  // measure 44
0000
0000
0000
0000
0000
0001
0000
0000
0010
0000
0000
0000
0001
0000
0010
0000
0000
0000
0001
0000
0000
0000
0300
0002
,  // measure 45
0000
0000
0000
0000
0000
0000
0010
0000
0000
0000
0000
0000
0010
0000
0000
0000
0000
0010
0000
0000
0000
0000
0000
0000
,  // measure 46
0010
0000
0100
0010
0100
0000
0100
1000
,  // measure 47
0000
0000
0000
0000
0000
0000
1000
0000
0000
1000
0000
0000
0000
0000
0000
0000
0000
0000
1000
0000
1000
0000
0000
0000
,  // measure 48
0000
0000
0000
0100
0000
0000
1000
0000
0010
0000
0000
0100
0000
0000
1000
0000
0000
0110
0000
0000
0000
0000
0000
0000
,  // measure 49
2003
0000
0000
0000
0000
0200
0000
0000
0000
0000
0000
0000
0320
0000
0000
3000
0000
0002
0000
0030
0000
0000
0000
0000
,  // measure 50
0200
0000
0003
0000
0000
0020
0000
0300
0000
0000
0000
0000
0002
0000
0000
0030
0000
2000
0003
0000
0000
0000
0000
0200
,  // measure 51
3000
0000
0000
0000
0020
0300
0000
0000
0000
0000
0000
0032
0000
0000
0000
0000
2000
0000
0003
0000
0000
0000
0200
0000
,  // measure 52
3000
0000
0000
0000
0000
0020
0300
0000
0000
0000
0000
0032
0000
0000
0000
0000
2000
0003
0000
0000
0000
0000
0000
0200
,  // measure 53
3000
0000
0000
0000
0000
0020
0300
0000
0000
0000
0000
0230
0000
0000
0000
0000
0000
0020
0300
0000
0000
0000
0000
2000
,  // measure 54
0030
0000
0000
0000
0000
0000
0002
3000
0000
0000
0000
0000
0000
0000
0000
0000
0020
0003
0000
0000
0000
0000
0000
0000
,  // measure 55
0230
0000
0000
0000
0000
2300
0000
0000
0000
0000
3000
0000
,  // measure 56
1001
0000
0000
0110
0000
0000
0001
0000
0000
1000
0000
0000
0100
0000
0000
0100
0000
0000
0100
0000
0000
0000
0000
0020
,  // measure 57
0000
0000
0000
0000
0000
0030
0001
0000
0000
0000
0000
0200
0000
0000
0000
0000
0000
0000
0000
0000
0000
0300
0000
0010
,  // measure 58
0000
0000
0001
0000
0000
1000
0000
0000
0100
0000
0000
0100
0000
0000
0000
0000
0000
0010
0000
0000
0000
0001
0000
1000
,  // measure 59
0000
0000
0000
0100
0000
0000
0010
0000
0000
0001
0000
0100
0000
0000
1000
0000
0000
0100
0000
0000
0000
0000
0000
0110
,  // measure 60
0000
0000
0000
0000
0001
0000
0010
0000
0000
0000
0000
1000
0000
0000
0000
0100
0000
0000
0000
0100
0000
0000
0000
0000
,  // measure 61
0000
0010
0000
0000
0000
0000
0110
0000
0000
0000
0000
0000
0001
0000
0000
0000
0000
1000
0000
0000
0000
0000
0000
0110
,  // measure 62
0000
0000
0001
0000
0000
1000
0000
0000
0100
0000
0000
0100
0000
0000
0000
0000
0000
0000
0010
0000
0000
0000
0000
0000
,  // measure 63
0002
0000
0000
0000
0000
0000
0000
0000
0203
0000
0000
0000
0000
0000
0000
0000
0000
0000
0000
0300
0000
0000
0000
1010
,  // measure 64
0000
0000
0000
0101
0000
0000
0000
0000
0010
0000
0000
0110
0000
0000
0000
0000
0000
0000
0000
0000
0010
0000
0000
0000
,  // measure 65
0002
0000
0000
0000
,  // measure 66
0000
0000
0000
0000
,  // measure 67
0000
0000
0000
0000
0000
0000
0000
0000
0000
0000
0003
0100
1000
0000
0000
0000
0000
0220
0000
0000
0000
0000
0330
0000
,  // measure 68
0110
0000
0000
0000
0000
0000
0100
0000
0000
0000
0000
0000
0000
0100
0000
0000
0000
0100
0000
0100
0000
0000
0100
0000
,  // measure 69
0001
0000
0000
0000
0000
0000
1000
0000
0000
0000
0000
0000
0100
0000
0000
0000
0000
0100
0000
0000
0100
0000
0100
0000
,  // measure 70
0010
0000
0000
0000
0000
0000
0002
0000
0000
0000
0000
0000
0000
0000
0000
0000
0003
0000
1000
0000
0000
0100
0000
0000
,  // measure 71
0010
0000
0000
0000
0000
0100
0000
0000
1000
0000
0000
0100
0000
0010
0000
0000
0001
0000
0010
0000
0000
0100
0000
0000
,  // measure 72
0200
0000
0000
0000
0000
0000
0000
0000
0000
0000
1300
0000
0000
1000
0000
1000
0000
1000
0000
0000
0000
1000
0000
0020
,  // measure 73
0000
0000
0000
0000
0000
0000
0000
0000
0000
0000
0000
0000
0130
0000
0000
0000
0000
0000
0101
0000
0000
0000
0000
0220
,  // measure 74
0000
0000
0000
0000
0000
0000
0030
0300
0000
0000
0000
0000
0100
0000
0000
0000
0000
0000
0010
0000
0000
0000
0000
0000
,  // measure 75
1000
0000
0000
0001
0000
0000
1000
0000
0001
0000
0000
1000
0000
0001
0000
0000
0001
0000
0001
0000
0000
0000
0000
0000
,  // measure 76
2000
0000
0000
0000
0000
0000
0000
0000
0000
0000
0000
0000
3100
0000
0000
0000
0010
0000
0000
0001
0000
0000
1000
0000
,  // measure 77
0100
0000
0000
0000
0010
0000
0001
0000
0000
0000
0000
0000
0100
0000
0100
0000
0000
0100
0000
0000
0010
0000
0001
0000
,  // measure 78
0000
1000
0000
0100
0000
0000
0010
0000
0000
0000
0001
0000
0100
0000
0000
1000
0000
0100
0000
0000
1000
0000
0000
0000
,  // measure 79
0100
1000
0000
0100
1000
0100
1000
0100
1000
0100
1000
0000
0000
0010
0000
0000
0001
0000
0000
0100
0000
0000
0100
0010
,  // measure 80
0000
0100
0000
0010
0000
0100
0000
0010
0100
0000
0000
0001
0000
0001
0000
0001
0000
0001
0000
0000
1000
1000
0000
1000
,  // measure 81
0000
1000
0000
0000
0100
0000
0100
0100
0000
0000
0010
0000
0010
0000
0000
0001
0000
0000
0001
0001
0000
0000
0100
0000
,  // measure 82
0100
0000
0100
0000
0000
0010
0000
0000
0010
0000
0000
0010
0000
0010
0000
0000
0001
0000
0001
0000
0000
0000
0000
0000
,  // measure 83
0000
0011
0000
0000
0000
0000
0110
0000
0000
0000
0000
0000
0000
0110
0000
0000
0000
0000
0110
0000
0110
0110
0000
0000
,  // measure 84
0002
0000
0000
0000
0003
0000
2000
0000
0000
0000
0000
0000
0000
3200
0000
0000
0000
0000
0020
0300
0000
0000
0000
0000
,  // measure 85
0000
0000
0000
0030
0200
0000
0000
0000
0000
0000
0000
0000
2300
0000
0000
0000
0000
0000
3200
0000
0000
0000
0320
0000
,  // measure 86
0000
0000
0000
0000
0000
0031
0000
1000
0000
0000
0100
0000
2000
0000
0000
0000
0000
0000
3020
0000
0000
0000
0000
0000
,  // measure 87
0000
0230
0000
0000
0000
0020
0300
0000
0000
0000
0000
0030
0002
0000
0000
0000
0003
0000
1000
0000
0100
0000
0000
1000
,  // measure 88
0000
0000
0000
0020
0000
0000
0000
0000
0000
0000
0000
0000
0230
0000
0000
0000
0000
0000
0002
0300
0000
0000
0000
0023
,  // measure 89
0100
0000
0000
0000
0000
0000
0200
0030
0000
0000
0000
0000
0000
2300
0000
0000
0000
0000
0000
0200
3000
0000
0000
0000
,  // measure 90
0000
0300
0000
0000
0220
0000
0000
0000
0000
0330
0000
2002
0000
0000
0000
0000
3003
0000
0110
0000
0000
0000
0000
0000
,  // measure 91
0002
0000
0000
0000
0000
0000
0000
0000
0000
0000
0000
0003
,  // measure 92
1010
0101
0110
0110
,  // measure 93
1001
0000
0000
0000
0000
0000
0110
0000
0000
0000
0000
0000
0011
0000
0000
0000
0000
0011
0000
0000
0011
0000
0000
0000
,  // measure 94
0200
2000
0000
0000
0000
0000
0000
0300
3010
0000
0000
0001
0000
0000
0100
0000
0000
0010
0000
0000
0000
0100
0000
0000
,  // measure 95
2000
0000
0000
0000
0000
0000
0000
0000
0000
0000
0000
3200
0000
0000
0000
0000
0000
0000
0300
0000
0000
0000
0000
0000
,  // measure 96
0011
0000
0000
0000
0000
0000
0110
0000
0000
0000
0000
0000
1001
0000
0000
0000
0000
0110
0000
0000
0000
0110
0000
0000
,  // measure 97
2002
0000
0000
0000
3003
0000
0100
0010
0000
0000
0000
0000
0000
0001
0000
0000
1000
0000
0000
0000
0000
0100
0000
0000
,  // measure 98
0020
0000
0000
0000
0000
0030
2000
0000
0000
0000
0000
0000
3200
0000
0000
0000
0000
0000
0310
0000
0000
0000
0000
0000
,  // measure 99
0001
0000
0000
0001
0000
0000
0100
0000
0100
0000
0000
0000
1000
0000
0000
1000
0000
0000
0100
0000
0200
0000
0000
0000
,  // measure 100
0000
0000
0000
0320
0000
0000
0000
0000
0000
0000
0000
0000
0000
0030
0000
0000
0000
0000
0001
0000
1000
0000
0000
0000
,  // measure 101
0001
0000
1000
0000
0000
0000
0100
0000
0000
0010
0000
0001
0000
0000
0000
1000
0000
0000
0100
0000
0000
0010
0000
0001
,  // measure 102
0000
0000
0000
1000
0000
0000
0100
0010
0000
0000
0001
0000
0000
0000
0001
0000
0000
0010
0000
0100
0000
0000
1000
0000
,  // measure 103
0100
0000
0000
1000
0000
0100
1000
0000
0100
1000
0000
0100
1000
0100
0000
1000
0000
0000
0000
0010
0000
0000
0001
0000
,  // measure 104
0100
0000
0000
0010
0000
0000
0100
0000
0000
0000
0010
0000
0000
0010
0000
0000
0001
0001
0000
0000
0000
0100
0000
0100
,  // measure 105
0000
0010
0000
0010
0000
0001
0000
0000
0001
0000
1000
0000
1000
0000
0100
0000
0100
0000
0010
0000
0010
0000
0001
0000
,  // measure 106
0000
0001
0000
0100
0000
0200
0000
0000
0000
0310
0000
0000
0010
0000
0010
0000
0000
0001
1000
0000
0000
0001
0000
0000
,  // measure 107
0000
2000
0000
0000
0000
0000
3000
0200
0000
0000
0000
0000
0000
0000
0000
0000
0000
0000
0010
0000
0000
0000
0000
0000
,  // measure 108
0000
0001
0000
0000
0000
0000
0010
0000
0000
0000
0000
0001
0000
0000
0000
0000
0000
0010
0000
0000
0000
0302
0000
0000
,  // measure 109
0000
0000
0000
0000
0000
0010
0000
0000
0000
1000
0000
0000
0100
0000
0000
0000
0000
0000
0000
0000
0000
0003
0000
0000
,  // measure 110
0110
0000
0000
0000
0000
0000
0001
1000
0000
0000
0000
0000
0110
0000
0000
0000
0000
0000
0110
0000
0000
0000
0000
0000
,  // measure 111
0001
1000
0000
0000
0000
0000
1001
0000
0000
0000
0000
0000
0110
0000
0000
0000
0000
0000
1000
0000
0001
0000
1000
0000
,  // measure 112
0000
0000
0000
0000
0001
0000
0001
0000
0000
0100
0000
0000
0000
0000
0000
0001
0000
0000
0000
0100
0000
0010
0000
0000
,  // measure 113
0010
0000
0000
0000
0000
0000
1000
0000
0000
0100
0000
0000
1000
0000
0000
0000
1000
0000
0000
0000
0000
0100
0000
0100
,  // measure 114
0000
0100
0000
0000
0001
0000
0000
0000
0010
0000
0100
0000
0000
0100
0000
0000
0001
0000
0000
0000
0010
0000
0100
0000
,  // measure 115
0010
0000
0000
0000
0000
0000
0001
0000
0000
0000
0000
0001
0000
0000
0000
0000
0100
0000
0010
0000
0000
1000
0000
0000
,  // measure 116
0000
0100
0000
1000
0000
0000
0000
0100
0000
1000
0000
0000
0000
0100
0000
0000
1000
0000
0000
0001
0000
0000
0000
0010
,  // measure 117
0000
0001
0000
0000
0010
0000
0000
0001
0000
0000
0000
0000
0001
0000
1000
0000
0001
1000
0000
0000
0000
0100
0000
0000
,  // measure 118
0000
0110
0000
0000
0110
0000
0000
0110
0000
0110
0000
0110
0000
0110
0000
0000
0110
0000
0110
0110
0000
0110
0000
0000
,  // measure 119
0001
0000
0000
0000
0000
2000
0000
0000
0000
0000
0000
0000
3200
0000
0000
0000
0000
0000
0320
0000
0000
0000
0000
0000
,  // measure 120
0130
0000
0000
0000
0000
0000
0100
0000
0000
0000
0000
0000
0100
0000
0000
0000
0000
0000
0100
0000
0000
0000
0000
0020
,  // measure 121
0000
0000
0000
0000
0000
0200
0030
0000
0000
0000
0000
0300
0002
0000
0000
0000
0000
0003
1000
0000
0000
0000
0000
0000
,  // measure 122
0100
0000
0000
0100
0010
0000
0000
0000
0000
0001
0000
0000
0000
0000
0000
0011
0000
0011
0000
0011
0000
0000
0000
0000
,  // measure 123
0000
0200
0000
0000
0000
0000
0000
0010
0300
0000
0000
0000
0010
0000
0000
0000
0000
0000
0000
1000
0000
0000
0000
0000
,  // measure 124
0010
0000
0000
0010
0000
0000
0010
0000
0000
0000
0000
0000
0100
0000
0000
0000
0100
0000
0100
0000
0000
0000
0000
0000
,  // measure 125
0001
0000
0001
0000
0000
0000
0000
1000
0000
0000
0000
0000
0000
0100
0000
0100
0000
0000
1000
0000
0000
0000
0000
0000
,  // measure 126
0100
0000
0000
0100
0000
0000
0010
0000
0010
0000
0000
0001
0000
0000
0001
0000
0000
0001
0000
0000
0000
0000
0000
2000
,  // measure 127
0000
0000
0100
0000
0010
0000
0100
0100
,  // measure 128
0010
0000
0000
0000
0000
0000
0001
0000
0000
0000
0000
0000
0100
0000
0000
0000
0000
3000
0010
0000
0000
0001
0000
0000
,  // measure 129
0000
0020
0000
0000
0000
0000
0000
0100
0000
0000
0000
0000
0100
0000
0000
0000
0000
0000
0001
0000
0000
1000
0000
0000
,  // measure 130
0000
0000
0000
0000
1000
0000
0000
0001
0000
0000
0000
1030
0000
0100
0000
0000
0001
0000
0000
0010
0000
0000
0000
0000
,  // measure 131
0002
0000
0000
0000
0000
0000
0010
0000
0000
0000
0000
0000
0100
0000
0000
0000
0000
1000
0100
0000
0000
1000
0000
0000
,  // measure 132
0010
0003
0000
0000
0000
0000
0200
0000
0000
0000
0000
0000
1000
0000
0000
0000
0000
0000
1000
0300
0000
0010
0000
0000
,  // measure 133
0000
0000
0100
0010
0000
0000
0100
0010
,  // measure 134
0000
0001
1000
0100
0010
0001
0010
0000
,  // measure 135
0100
0000
0000
0000
0000
0000
0000
0110
0000
0000
0000
0000
0110
0000
0000
0000
0000
0000
1001
0000
0000
0000
0000
0000
,  // measure 136
1001
0000
0110
0000
0001
0010
0100
0000
,  // measure 137
0000
0000
0110
0000
1001
0000
0100
0100
,  // measure 138
1000
0000
0000
0000
0000
0000
0000
0100
0000
0100
0000
0000
0010
0000
0000
0001
0000
0000
0100
0000
0000
0000
0000
0000
,  // measure 139
0000
0000
0000
0000
0000
0000
0010
0000
0000
1000
0000
0000
0000
0100
0000
0100
0000
0000
0000
0000
0000
0000
0000
0001
,  // measure 140
0000
0000
0010
0000
0000
0100
0000
1000
0000
0000
0000
0000
0100
0000
0000
0000
0000
0000
0100
0000
0000
0000
0000
0000
,  // measure 141
0000
0010
0000
1000
0000
0000
0000
0100
0000
0000
0100
0000
0000
0010
0000
0000
0001
0000
0100
0000
0000
0000
0000
0000
,  // measure 142
0110
0000
0000
0011
0000
0000
0100
1000
0000
0100
0000
0000
,  // measure 143
0110
0000
0000
0000
0000
0000
0110
0000
0000
0000
0000
0000
0000
0001
0000
0000
0000
0000
0000
0001
0000
0000
0000
0000
,  // measure 144
0000
1000
0000
0000
0000
0000
1000
0000
0000
0000
0000
0000
1000
0000
0000
0000
0000
0000
1000
0100
0000
0000
0000
0000
,  // measure 145
0000
0010
0000
0000
0000
0000
0010
0000
0000
0000
0000
0000
0010
0000
0000
0000
0000
0000
0010
0000
0000
0000
0000
0000
,  // measure 146
1010
0000
0000
0000
0000
0000
0101
0000
0000
0000
0000
0000
1010
0000
0000
0000
1010
0000
0000
1010
0000
0000
0000
0000
,  // measure 147
0101
0010
0010
0100
,  // measure 148
0100
0000
0000
0010
0000
0000
1000
0000
0000
0100
0000
0010
0000
0000
0000
0000
0000
0000
0001
0000
0000
0000
0000
0000
,  // measure 149
2000
0000
0000
0000
0000
0000
0000
0000
0000
0000
0000
0200
0000
0000
0000
0000
0000
0000
0000
0000
0000
3300
0000
0000
,  // measure 150
0001
0000
0000
0000
0010
0000
0000
0000
0000
0100
0000
0000
0200
0000
0000
0000
0000
0300
0000
0000
0000
0110
0000
0000
,  // measure 151
0220
0000
0000
0000
,  // measure 152
0000
0330
2000
0002
0000
0000
0000
0000
0000
0000
0000
0000
0000
0000
0000
0000
0000
0000
0000
0000
0000
0000
0000
0000
,  // measure 153
0003
0000
0000
3000
0002
0000
0000
0000
0000
0000
0000
0000
0000
0000
0000
0000
2003
0000
0000
0000
0000
0000
0000
0000
,  // measure 154
0000
3000
0000
0000
0000
0000
0000
0000
0000
0000
0000
0000
0000
0000
0000
0000
0000
0000
0000
0000
0000
0000
0000
0000
;
