#TITLE:YOU MAKE ME;
#SUBTITLE:;
#ARTIST:MONDAY MICHIRU;
#TITLETRANSLIT:;
#SUBTITLETRANSLIT:;
#ARTISTTRANSLIT:;
#CREDIT:;
#BANNER:YOU MAKE ME.png;
#BACKGROUND:YOU MAKE ME-bg.png;
#LYRICSPATH:;
#CDTITLE:Club Version.png;
#MUSIC:YOU MAKE ME.ogg;
#OFFSET:0.000;
#SAMPLESTART:23.999;
#SAMPLELENGTH:14.980;
#SELECTABLE:YES;
#DISPLAYBPM:110.000;
#BPMS:0.000=109.881;
#STOPS:;
#BGCHANGES:;

//---------------dance-single - ----------------
#NOTES:
     dance-single:
     :
     Easy:
     3:
     0.188,0.256,0.076,0.000,0.000:
0000
0000
0000
0000
,
0000
0000
0000
0000
,
0000
0000
0000
0000
,
0000
0000
0000
0000
,
0000
0000
0000
0000
,
0000
0000
0000
0000
,
0000
0000
0000
0000
,
0000
0001
0000
0001
0000
0001
0000
0001
,
0000
0010
0000
0010
0000
0010
0000
0010
,
0000
1000
0000
1000
0000
1000
0000
1000
,
1000
0010
1000
0100
,
1001
0000
0000
0000
,
0000
0001
0000
0001
,
0000
1000
0000
1000
,
0000
0010
0010
0100
,
1001
0000
0010
1000
,
0000
0001
0000
0001
,
0000
1000
0000
1000
,
0000
0010
1000
0100
,
0010
0010
0010
1001
,
0000
0001
0100
1000
,
0001
1000
0010
0010
,
0000
0010
0100
1000
,
0001
1000
0010
0010
,
0000
1000
0100
0001
,
0000
0010
0100
0010
,
0000
0001
1000
1000
,
0010
0100
0001
0001
,
0001
0001
0001
0000
1000
1000
1000
0000
,
1001
0100
0010
0100
,
0010
0010
0100
0001
,
0010
0001
0100
0001
,
0001
0100
1000
1000
,
1000
0100
1000
0001
,
0000
0010
0000
1000
0000
0100
0000
0001
,
0000
0010
0000
1000
0000
0100
0000
0001
,
0000
0000
0000
0000
,
0010
0001
0010
0001
,
0100
1000
0100
1000
,
0010
1000
1000
0100
,
1001
0000
0001
0100
,
0010
0001
0100
1000
,
0001
1000
1000
1000
,
1001
0001
0100
1000
,
0100
1001
0100
1001
;

//---------------dance-single - ----------------
#NOTES:
     dance-single:
     :
     Medium:
     4:
     0.244,0.277,0.114,0.000,0.000:
0000
0000
0000
0000
,
0000
0000
0000
0000
,
0000
0000
0000
0000
,
0000
0000
0000
0000
,
0000
0000
0000
0000
,
0000
0000
0000
0000
,
0000
0000
0000
0000
,
0000
0010
0000
0010
0000
0001
0000
0001
,
0000
0100
0000
0100
0000
1000
0000
1000
,
0000
0001
0000
0001
0000
1000
0000
1000
,
1000
0010
1000
0100
,
1001
0000
0000
0000
,
1000
0001
0001
0100
,
0001
0010
0010
1000
,
0100
1000
0001
0100
,
1001
0000
0100
0001
,
0100
1000
0001
1000
,
0100
0001
1000
0001
,
0001
0010
1000
0100
,
0010
1001
0100
1001
,
0010
0000
0100
0000
0001
0001
0100
0000
,
0100
0000
0010
0000
1000
1000
0010
0000
,
1000
0000
0100
0000
0001
0001
0100
0000
,
0001
0000
0100
0000
1000
1000
0100
0000
,
0010
0000
0100
0000
1000
0001
0100
0000
,
0100
0000
0010
0000
0001
1000
0100
0000
,
0010
0010
0100
0100
,
0001
0000
0001
0000
1000
0001
0100
0000
,
0001
0001
0001
0000
1000
1000
1000
0000
,
1001
0000
0010
0000
1000
0100
0001
0000
,
1000
1000
1000
0000
0001
0001
0001
0000
,
0110
0000
0010
0000
0001
0100
1000
0000
,
1000
1000
0001
0000
0001
0001
1000
0000
,
1001
0000
0010
0000
1000
0100
0001
0100
,
0000
0010
0000
1000
0000
0100
0000
0001
,
0000
0010
0000
1000
0000
0100
0000
0001
,
0000
0000
0000
0000
,
0001
1000
0001
0000
0010
0100
0010
0000
,
0001
0001
1000
1001
,
1000
0100
1000
0000
0001
0100
0001
0000
,
1001
0100
0001
1000
,
0010
1000
0010
0000
0001
0100
0001
0000
,
0100
0100
0001
1000
,
0010
0001
0100
1000
,
1001
0110
0100
1001
;

//---------------dance-single - ----------------
#NOTES:
     dance-single:
     :
     Hard:
     5:
     0.273,0.341,0.210,0.000,0.029:
0000
0000
0000
0000
,
0000
0000
0000
0000
,
0000
0000
0000
0000
,
0000
0000
0000
0000
,
0000
0000
0000
0000
,
0000
0000
0000
0000
,
0000
0000
0000
0000
,
0000
0010
0000
0010
0000
0001
0000
0001
,
0000
0100
0000
0100
0000
1000
0000
1000
,
0000
0010
0000
0001
0000
0100
0000
1000
,
1000
0010
1000
1100
,
1001
0000
0000
0000
,
1000
0001
0001
0000
0001
1000
1000
0000
,
0001
0110
1000
1001
,
0010
1000
0010
0000
0001
0100
0001
0000
,
1000
1000
0001
0110
,
0001
0100
1000
0000
1000
0010
0001
0000
,
0001
0001
1000
0100
,
0001
0001
1000
1100
,
0010
1001
0110
1001
,
0010
0001
0100
0000
0001
0100
1000
0000
,
0010
1000
0100
0000
1000
0100
0001
0000
,
1000
1000
0001
0000
0001
0001
1000
0000
,
1000
0100
0001
0000
0001
0100
1000
0000
,
0010
1000
0100
0000
1000
0100
0001
0000
,
0010
0001
0100
0000
0001
0100
1000
0000
,
1000
0100
0001
0000
0001
0100
1000
0000
,
0010
1000
0100
0010
0001
0000
0100
0000
,
0000
0000
0000
0000
0000
0000
0000
0000
0100
0000
0000
0000
0000
0000
0000
0000
0000
0000
0000
0000
0000
1000
0000
0000
0000
0000
0000
0000
0000
0000
0000
0000
0110
0000
0000
0000
0000
0000
0000
0000
0000
0000
0000
0000
0000
0000
0000
0000
0000
0000
0000
0000
0000
0000
0000
0000
0000
0000
0000
0000
0000
0000
0000
0000
,
0000
0000
0000
0000
0000
0000
0000
0000
0010
0000
0000
0000
0000
0000
0000
0000
0000
0000
0000
0000
0000
1000
0000
0000
0000
0000
0000
0000
0000
0000
0000
0000
0101
0000
0000
0000
0000
0000
0000
0000
0000
0000
0000
0000
0000
0000
0000
0000
0000
0000
0000
0000
0000
0000
0000
0000
0000
0000
0000
0000
0000
0000
0000
0000
,
0000
0000
0000
0000
0000
0000
0000
0000
0100
0000
0000
0000
0000
0000
0000
0000
0000
0000
0000
0000
0000
0001
0000
0000
0000
0000
0000
0000
0000
0000
0000
0000
0110
0000
0000
0000
0000
0000
0000
0000
0000
0000
0000
0000
0000
0000
0000
0000
0000
0000
0000
0000
0000
0000
0000
0000
0000
0000
0000
0000
0000
0000
0000
0000
,
0000
0000
0000
0000
0000
0000
0000
0000
1000
0000
0000
0000
0000
0000
0000
0000
0000
0000
0000
0000
0000
0100
0000
0000
0000
0000
0000
0000
0000
0000
0000
0000
0011
0000
0000
0000
0000
0000
0000
0000
0000
0000
0000
0000
0000
0000
0000
0000
0000
0000
0000
0000
0000
0000
0000
0000
0000
0000
0000
0000
0000
0000
0000
0000
,
0000
0000
0000
0000
0000
0000
0000
0000
1000
0000
0000
0000
0000
0000
0000
0000
0000
0000
0000
0000
0000
0001
0000
0000
0000
0000
0000
0000
0000
0000
0000
0000
0110
0000
0000
0000
0000
0000
0000
0000
0000
0000
0000
0000
0000
0000
0000
0000
0000
0000
0000
0000
0000
0000
0000
0000
0000
0000
0000
0000
0000
0000
0000
0000
,
0000
0000
0000
0000
0000
0000
0000
0000
0010
0000
0000
0000
0000
0000
0000
0000
0000
0000
0000
0000
0000
0001
0000
0000
0000
0000
0000
0000
0000
0000
0000
0000
1100
0000
0000
0000
0000
0000
0000
0000
0000
0000
0000
0000
0000
0000
0000
0000
0000
0000
0000
0000
0000
0000
0000
0000
0000
0000
0000
0000
0000
0000
0000
0000
,
1000
0100
1000
0001
1000
0010
1000
0001
,
1000
0100
1000
0001
1000
0010
1000
0100
,
0000
0000
0000
0000
,
0010
1000
0010
0000
0001
0100
0001
0000
,
0010
0001
0010
0000
1000
0100
1000
0000
,
0001
1000
0010
0000
0001
1000
0100
0000
,
1001
0000
0001
1000
,
0100
0001
0100
0000
1000
0010
1000
0000
,
0100
1000
0100
0000
0001
0010
0001
0000
,
0010
0101
0010
1100
,
1010
0110
0101
1001
;

//---------------dance-double - ----------------
#NOTES:
     dance-double:
     :
     Easy:
     4:
     0.188,0.277,0.086,0.000,0.000:
00000000
00000000
00000000
00000000
,
00000000
00000000
00000000
00000000
,
00000000
00000000
00000000
00000000
,
00000000
00000000
00000000
00000000
,
00000000
00000000
00000000
00000000
,
00000000
00000000
00000000
00000000
,
00000000
00000000
00000000
00000000
,
00000000
10000000
00000000
10000000
00000000
10000000
00000000
10000000
,
00000000
00010000
00000000
00010000
00000000
00010000
00000000
00010000
,
00000000
00001000
00000000
00001000
00000000
00001000
00000000
00001000
,
00000100
00000001
00000010
00001000
,
00011000
00000000
00000000
00000000
,
00000000
00010000
00000000
00100000
,
00000000
10000000
00000000
10000000
,
00000000
00010000
01000000
10000000
,
10010000
00000000
00100000
00001000
,
00000000
00000010
00000000
00000010
,
00000000
00001000
00000000
00001000
,
00000000
00000001
00000100
00000100
,
00011000
01000000
10010000
01000000
,
00000000
10000000
01000000
00010000
,
00001000
00010000
00000100
00000100
,
00000000
00001000
01000000
10000000
,
00010000
10000000
10000000
10000000
,
00000000
00100000
01000000
00001000
,
00001000
00010000
00100000
10000000
,
00000000
00010000
01000000
00010000
,
00001000
00010000
00000100
00000001
,
00000001
00000001
00000001
00000000
00001000
00001000
00001000
00000000
,
00011000
01000000
00100000
10010000
,
00010000
01000000
00001000
01000000
,
00000000
10000000
01000000
00010000
,
00010000
01000000
10000000
01000000
,
00001000
00001000
00010000
01000000
,
00000000
10000000
00000000
00010000
00000000
01000000
00000000
00001000
,
00000000
00000010
00000000
00000001
00000000
00000100
00000000
00001000
,
00000000
00000000
00000000
00000000
,
00011000
01000000
00100000
00010000
,
10000000
00010000
00010000
00010000
,
10000000
00010000
00001000
00000100
,
00000010
00000000
00000010
00000010
,
00000000
00001000
00001000
00000001
,
00001000
00010000
01000000
10000000
,
01000000
00001000
01000000
10000000
,
01000000
10010000
01000000
10010000
;

//---------------dance-double - ----------------
#NOTES:
     dance-double:
     :
     Medium:
     5:
     0.252,0.299,0.181,0.000,0.029:
00000000
00000000
00000000
00000000
,
00000000
00000000
00000000
00000000
,
00000000
00000000
00000000
00000000
,
00000000
00000000
00000000
00000000
,
00000000
00000000
00000000
00000000
,
00000000
00000000
00000000
00000000
,
00000000
00000000
00000000
00000000
,
00000000
10000000
00000000
10000000
00000000
01000000
00000000
01000000
,
00000000
00001000
00000000
00001000
00000000
00000010
00000000
00000010
,
00000000
00000001
00000000
00000001
00000000
00000100
00000000
00000100
,
00010000
00100000
10000000
01010000
,
00011000
00000000
00000000
00000000
,
00000010
00001000
00010000
00000000
00100000
00000000
01000000
00000000
,
00010000
00001000
00000010
00000000
00000001
00000000
00000100
00000000
,
00000100
00000001
00000100
00000000
00001000
00010000
00001000
00000000
,
00100000
11000000
00010000
00001100
,
00000001
00000100
00001000
00000000
00000100
00000000
00010000
00000000
,
10000000
00000000
10000000
00000000
00010000
00100000
00001000
00000000
,
00000010
00000110
00001000
00011000
,
00010000
11000000
01100000
10010000
,
10000000
01000000
00000000
00010000
00001000
00000010
00000001
00000000
,
00000100
00001000
00010000
00000000
00100000
10000000
01000000
00000000
,
00100000
00010000
00100000
00000000
10000000
01000000
10000000
00000000
,
00010000
00000000
00010000
00000000
00000010
00000001
00000100
00000000
,
00000001
00000000
00000001
00000000
00001000
00001000
00001000
00000000
,
00010000
00000000
00010000
00000000
10000000
10000000
10000000
00000000
,
01000000
00000000
01000000
00000000
10000000
01000000
00010000
00001000
,
00000100
00000000
00000100
00000000
00000001
00000010
00001000
00000000
,
00000000
00000000
00000000
00000000
00000000
00000000
00000000
00000000
00000010
00000000
00000000
00000000
00000000
00000000
00000000
00000000
00000000
00000000
00000000
00000000
00000000
00001000
00000000
00000000
00000000
00000000
00000000
00000000
00000000
00000000
00000000
00000000
00011000
00000000
00000000
00000000
00000000
00000000
00000000
00000000
00000000
00000000
00000000
00000000
00000000
00000000
00000000
00000000
00000000
00000000
00000000
00000000
00000000
00000000
00000000
00000000
00000000
00000000
00000000
00000000
00000000
00000000
00000000
00000000
,
00000000
00000000
00000000
00000000
00000000
00000000
00000000
00000000
00100000
00000000
00000000
00000000
00000000
00000000
00000000
00000000
00000000
00000000
00000000
00000000
00000000
10000000
00000000
00000000
00000000
00000000
00000000
00000000
00000000
00000000
00000000
00000000
01010000
00000000
00000000
00000000
00000000
00000000
00000000
00000000
00000000
00000000
00000000
00000000
00000000
00000000
00000000
00000000
00000000
00000000
00000000
00000000
00000000
00000000
00000000
00000000
00000000
00000000
00000000
00000000
00000000
00000000
00000000
00000000
,
00000000
00000000
00000000
00000000
00000000
00000000
00000000
00000000
00010000
00000000
00000000
00000000
00000000
00000000
00000000
00000000
00000000
00000000
00000000
00000000
00000000
00001000
00000000
00000000
00000000
00000000
00000000
00000000
00000000
00000000
00000000
00000000
00000110
00000000
00000000
00000000
00000000
00000000
00000000
00000000
00000000
00000000
00000000
00000000
00000000
00000000
00000000
00000000
00000000
00000000
00000000
00000000
00000000
00000000
00000000
00000000
00000000
00000000
00000000
00000000
00000000
00000000
00000000
00000000
,
00000000
00000000
00000000
00000000
00000000
00000000
00000000
00000000
00000010
00000000
00000000
00000000
00000000
00000000
00000000
00000000
00000000
00000000
00000000
00000000
00000000
00010000
00000000
00000000
00000000
00000000
00000000
00000000
00000000
00000000
00000000
00000000
00110000
00000000
00000000
00000000
00000000
00000000
00000000
00000000
00000000
00000000
00000000
00000000
00000000
00000000
00000000
00000000
00000000
00000000
00000000
00000000
00000000
00000000
00000000
00000000
00000000
00000000
00000000
00000000
00000000
00000000
00000000
00000000
,
00000000
00000000
00000000
00000000
00000000
00000000
00000000
00000000
01000000
00000000
00000000
00000000
00000000
00000000
00000000
00000000
00000000
00000000
00000000
00000000
00000000
00001000
00000000
00000000
00000000
00000000
00000000
00000000
00000000
00000000
00000000
00000000
00000110
00000000
00000000
00000000
00000000
00000000
00000000
00000000
00000000
00000000
00000000
00000000
00000000
00000000
00000000
00000000
00000000
00000000
00000000
00000000
00000000
00000000
00000000
00000000
00000000
00000000
00000000
00000000
00000000
00000000
00000000
00000000
,
00000000
00000000
00000000
00000000
00000000
00000000
00000000
00000000
00000100
00000000
00000000
00000000
00000000
00000000
00000000
00000000
00000000
00000000
00000000
00000000
00000000
00010000
00000000
00000000
00000000
00000000
00000000
00000000
00000000
00000000
00000000
00000000
01010000
00000000
00000000
00000000
00000000
00000000
00000000
00000000
00000000
00000000
00000000
00000000
00000000
00000000
00000000
00000000
00000000
00000000
00000000
00000000
00000000
00000000
00000000
00000000
00000000
00000000
00000000
00000000
00000000
00000000
00000000
00000000
,
00100000
10000000
00000000
10000000
00000000
01000000
00000000
01000000
,
00000000
00010000
00000000
00001000
00000000
00000010
00000000
00000001
,
00000000
00000000
00000000
00000000
,
00000010
00000001
00000010
00000000
00001000
00000100
00001000
00000000
,
00010000
00100000
00010000
00000000
10000000
01000000
10000000
00000000
,
00010000
10000000
00010000
00000000
10000000
00000000
10000000
00000000
,
10010000
00000000
01000000
10000000
,
01000000
10000000
01000000
00000000
00010000
00100000
00010000
00000000
,
00001000
00000100
00001000
00000000
00000001
00000010
00000001
00000000
,
00000001
00000001
00001000
00011000
,
00100000
11000000
00001000
00001100
;

//---------------dance-double - ----------------
#NOTES:
     dance-double:
     :
     Hard:
     8:
     0.420,0.548,0.200,0.305,0.277: // measure 1
00000000
00000000
00000000
00000000
,  // measure 2
00000000
00000000
00000000
00000000
,  // measure 3
00000000
00000000
00000000
00000000
,  // measure 4
00000000
00000000
00000000
00000000
,  // measure 5
00000000
00000000
00000000
00000000
,  // measure 6
00000000
00000000
00000000
00000000
,  // measure 7
00000000
00000000
00000000
00000000
,  // measure 8
00000000
00000001
00000000
00000001
00000000
00000010
00000000
00000010
,  // measure 9
00000000
00010000
00000000
00010000
00000000
01000000
00000000
01000000
,  // measure 10
00000000
00000000
00000000
10000000
00000000
00000000
00000000
00000000
00000000
10000000
00000000
00000000
00000000
00000000
00000000
00100000
00000000
00000000
00000000
00000000
00000000
00100000
00000000
00010000
,  // measure 11
00001000
00000100
00000001
00001010
,  // measure 12
00011000
00000000
00000000
01000000
,  // measure 13
10010000
00000000
00000000
00000000
00000000
00000000
00000000
00000000
00000000
00000000
00000000
00000000
00000000
00000000
00000000
00000000
00200000
00000000
00000000
00000000
00000000
00000000
00000000
00000000
00000000
00000000
00000000
00000000
00000000
00000000
00000000
00000000
20300000
00000000
00000000
00000000
00000000
00000000
00000000
00000000
00000000
00000000
00000000
00000000
00000000
00000000
00000000
00000000
32000000
00000000
00000000
00000000
00000000
00000000
00000000
00000000
00000000
00000000
00000000
00000000
00000000
03100000
00000000
00000000
,  // measure 14
00000000
00000000
00000000
00000000
00000000
00000000
00000000
00000000
01000000
00010000
00000000
00001000
00000000
00000000
00001000
00000000
00000000
00001000
00000100
00000000
00000010
00000000
00000000
00000000
,  // measure 15
00000000
00000000
00000000
00000000
00000000
00000000
00000000
00000000
00000200
00000000
00000000
00000000
00000000
00000000
00000000
00000000
00000302
00000000
00000000
00000000
00000000
00000000
00000000
00000000
00002003
00000000
00000000
00000000
00000000
00000000
00000000
00003001
,  // measure 16
00000200
00000000
00000000
00000000
00000000
00000000
00000000
00000000
00000000
00000000
00000000
00000000
00000000
00000000
00000000
00000000
00000300
00000000
00000000
00000000
00000000
00000000
00000000
00000000
00000000
00000000
00000000
00000000
00000000
00000000
00000000
00000000
00200000
00000000
00000000
00000000
00000000
00000000
00000000
00000000
00000000
00000000
00000000
00000000
00000000
00000000
00000000
00000000
20300000
00000000
00000000
00000000
00000000
00000000
00000000
00000000
00000000
00000000
00000000
00000000
00000000
30010000
00000000
00000000
,  // measure 17
00000000
00000000
00000000
00000000
00000000
00000000
00000000
00000000
00000000
00000000
00000000
00000000
00000000
00000000
00000000
00000000
00200000
00000000
00000000
00000000
00000000
00000000
00000000
00000000
00000000
00000000
00000000
00000000
00000000
00000000
00000000
00000000
20300000
00000000
00000000
00000000
00000000
00000000
00000000
00000000
00000000
00000000
00000000
00000000
00000000
00000000
00000000
00000000
32000000
00000000
00000000
00000000
00000000
00000000
00000000
00000000
00000000
00000000
00000000
00000000
00000000
03100000
00000000
00000000
,  // measure 18
00000000
00000000
00000000
00000000
00000000
00000000
00000000
00000000
01000000
00010000
00000000
00001000
00000000
00000000
00001000
00000000
00000000
00001000
00000100
00000000
00000010
00000000
00000000
00000000
,  // measure 19
00000000
00000000
00000000
00000000
00000000
00000000
00000000
00000000
00000200
00000000
00000000
00000000
00000000
00000000
00000000
00000000
00000302
00000000
00000000
00000000
00000000
00000000
00000000
00000000
00002003
00000000
00000000
00000000
00000000
00000000
00000000
00003001
,  // measure 20
00000200
00000000
00000000
00000000
00000300
00000000
00001000
00010000
00001000
00010000
00001000
00010000
00000000
00100000
01000000
00100000
,  // measure 21
00000000
00000000
10000000
01000000
00100000
00010000
01000000
10000000
,  // measure 22
01000000
00000000
00001000
00100000
01000000
00010000
00001000
00010000
,  // measure 23
00000100
00000000
00000010
00000001
00000100
00010000
00000100
00000001
,  // measure 24
00000020
00000000
00002030
00000000
00003100
00000001
00000010
00000001
,  // measure 25
00000200
00000000
00001300
00010000
00100000
10000000
01000000
02020000
,  // measure 26
00000000
03030000
01000000
10000000
00100000
00010000
00001000
00022000
,  // measure 27
00000000
00033000
00001000
00000100
00000010
00010000
00001000
00000200
,  // measure 28
00000010
00000300
00001000
00000000
00000002
00000010
00000023
00001000
,  // measure 29
00001030
00000000
00000000
00000000
00000000
00000000
00000000
00000000
00010000
00000000
00000000
00000000
00000000
00000000
00000000
00000000
00000000
00000000
00000000
00000000
00000000
01000000
00000000
00000000
00000000
00000000
00000000
00000000
00000000
10000000
00000000
00000000
00010000
00000000
00000000
00000000
01000000
00000000
00000000
00000000
00000000
00000000
00000000
00000000
00000000
01100000
00000000
00000000
00000000
00000000
00000000
00000000
00000000
00000000
00000000
00000000
00100000
00000000
00000000
00000000
00000000
00000000
00000000
00000000
,  // measure 30
10000000
00000000
00000000
00000000
00000000
00000000
00000000
00000000
00000000
00000000
00000000
00000000
00000000
00000000
00000000
00000000
00000000
00000000
00000000
00000000
00000000
00000000
00000000
00000000
01000000
00000000
00000000
00000000
00000000
00000000
00000000
00000000
00000000
00000000
00000000
00000000
00000000
00000000
00000000
00000000
00000000
00000000
00000000
00000000
00000000
00000000
00000000
00000000
00000000
00000000
00000000
00000000
00000000
00000000
00000000
00000000
00000000
00000000
00000000
00000000
00000000
00000000
00000000
00100000
00000000
00000000
00000000
00000000
00000000
00000000
00000000
00000000
00000000
00000000
00000000
00000000
00000000
00000000
00000000
00000000
00000000
00000000
00000000
00000000
00000000
00000000
00000000
00010000
00000000
00000000
00000000
00000000
00000000
00000000
00000000
00000000
01000000
00000000
00000000
00000000
00000000
00000000
00000000
00000000
00000000
00000000
00000000
00000000
00000000
00000000
00000000
00000000
00000000
00000000
00000000
00000000
00000000
00100000
00000000
00000000
00000000
00000000
00000000
00000000
00000000
00000000
00000000
00000000
00000000
00000000
00000000
00000000
10000000
00000000
00000000
00000000
00000000
00000000
00000000
00000000
00000000
00000000
00000000
00000000
00000000
00000000
00000000
00000000
00000000
00000000
00000000
00000000
00000000
01000000
00000000
00000000
00000000
00000000
00000000
00000000
00000000
00000000
00000000
00000000
00010000
00000000
00000000
00000000
00000000
00000000
00000000
00000000
00000000
00000000
00000000
00000000
00000000
00001000
00000000
00000000
00000000
00000000
00000000
00000000
00000000
00000000
00000000
00000000
00000000
00000000
00000000
00000000
,  // measure 31
00000000
00000000
00000000
00000000
00000000
00000000
00000000
00000000
00010000
00000000
00000000
00000000
00000000
00000000
00000000
00000000
00000000
00000000
00000000
00000000
00000000
00001000
00000000
00000000
00000000
00000000
00000000
00000000
00000000
00000100
00000000
00000000
00000001
00000000
00000000
00000000
00001000
00000000
00000000
00000000
00000000
00000000
00000000
00000000
00000000
00001001
00000000
00000000
00000000
00000000
00000000
00000000
00000000
00000000
00000000
00000000
00000001
00000000
00000000
00000000
00000000
00000000
00000000
00000000
,  // measure 32
00000010
00000000
00000000
00000000
00000000
00000000
00000000
00000000
00001000
00000000
00000000
00000000
00000000
00000000
00000000
00000000
00000000
00000000
00000000
00000000
00000000
00010000
00000000
00000000
00000000
00000000
00000000
00000000
00000000
00100000
00000000
00000000
10000000
00000000
00000000
00000000
00000000
00000000
00000000
00000000
00010000
00000000
00000000
00000000
00000000
00000000
00000000
00000000
00100000
00000000
00000000
00000000
00001000
00000000
00000000
00100000
00000000
00000000
00000000
00000000
00000000
00000000
00000000
00000000
,  // measure 33
00000000
00000000
00000000
00000000
00000000
00000000
00000000
00000000
00000100
00000000
00000000
00000000
00000000
00000000
00000000
00000000
00000000
00000000
00000000
00000000
00000000
00001000
00000000
00000000
00000000
00000000
00000000
00000000
00000000
00000001
00000000
00000000
00000100
00000000
00000000
00000000
00000010
00000000
00000000
00000000
00000000
00000000
00000000
00000000
00000000
00000110
00000000
00000000
00000000
00000000
00000000
00000000
00000000
00000000
00000000
00000000
00000100
00000000
00000000
00000000
00000000
00000000
00000000
00000000
,  // measure 34
00000001
00000000
00000000
00000000
00000000
00000000
00000000
00000000
00000010
00000000
00000000
00000000
00000000
00000000
00000000
00000000
00000000
00000000
00000000
00000000
00000000
00001000
00000000
00000000
00000000
00000000
00000000
00000000
00000000
00010000
00000000
00000000
00100000
00000000
00000000
00000000
00000000
00000000
00000000
10000000
00000000
00000000
00000000
00000000
01000000
00000000
00000000
00000000
00000000
00000000
00000000
00010000
00000000
00000000
00000000
00001000
00000000
00000000
00000000
00010000
00000000
00000000
00000000
00000000
,  // measure 35
00100000
10010000
01000000
10010000
00100000
00011000
00000010
00011000
,  // measure 36
00000100
00001001
00000010
00001001
00000100
00011000
00100000
10010000
,  // measure 37
00200000
00000000
00000000
00000000
00000000
00000000
00000000
00000000
00000000
00000000
00000000
01000000
00000000
00000000
00000000
00000000
00000000
00000000
00000000
00000000
00000000
00000000
00000000
00000000
01000000
00000000
00000000
00000000
00000000
00000000
00000000
00000000
01000000
00000000
00000000
00000000
00000000
00000000
00000000
00000000
01000000
00000000
00000000
00000000
00000000
00000000
00000000
00000000
01000000
00000000
00000000
00000000
00000000
00000000
00000000
00000000
01300000
00000000
00000000
00000000
00000000
00000000
00000000
00000000
,  // measure 38
20020000
00000000
00000000
00000000
00000000
00000000
30030000
00000000
00000000
10000000
00000000
01000000
10000000
00000000
00000000
01000000
00000000
00000000
00010000
00000000
00000000
01000000
00000000
00000000
,  // measure 39
00010000
00000000
00000000
00000100
00000000
00000000
00001000
00000000
00000000
00000100
00000000
00000000
00001000
00000000
00000000
00000010
00000000
00000000
00000100
00000000
00000000
00000001
00000000
00001000
,  // measure 40
00000001
00000000
00000000
00000100
00000000
00000000
00001000
00000000
00000000
01000000
00000000
00010000
01000000
00000000
00000000
00100000
00000000
00000000
10000000
00000000
00000000
01000000
00000000
00000000
,  // measure 41
00010000
00000000
00000000
00000100
00000000
00000000
00001000
00000000
00000000
00000010
00000000
00000100
00000010
00000000
00000000
00000001
00000000
00000000
00001000
00000000
00000000
00000100
00000000
00000000
,  // measure 42
00000001
00000000
00000000
00000010
00000000
00000000
00000001
00000000
00000000
00000010
00000000
00001000
00000010
00000000
00000000
00001000
00000000
00000000
00100000
00000000
00000000
00010000
00000000
00000000
,  // measure 43
00000010
00000000
00000000
00001000
00000000
00000000
00010000
00000000
00000000
00100000
00000000
00000000
10000000
00000000
00000000
01000000
00000000
00000000
00010000
00000000
00000000
00001000
00000000
00010000
,  // measure 44
00001000
00000100
00001000
00010000
00100000
01000000
00100000
00010000
,  // measure 45
00110000
00000000
00001100
00000000
01020000
01000000
01030000
00000000
,  // measure 46
00002020
00000000
00000000
00000000
,  // measure 47
00003030
00000000
00000000
00000000
;
