#TITLE:The legend of MAX;
#SUBTITLE:;
#ARTIST:;
#TITLETRANSLIT:;
#SUBTITLETRANSLIT:;
#ARTISTTRANSLIT:ZZ;
#CREDIT:;
#BANNER:The legend of MAX.png;
#BACKGROUND:The legend of MAX-bg.png;
#LYRICSPATH:;
#CDTITLE:./CDTITLES/DANCE DANCE REVOLUTION EXTREME.PNG;
#MUSIC:The legend of MAX.mp3;
#OFFSET:-0.054;
#SAMPLESTART:11.540;
#SAMPLELENGTH:15.000;
#SELECTABLE:YES;
#DISPLAYBPM:83.000:333.000;
#BPMS:0.000=332.990,322.000=666.670,328.000=333.330,329.000=166.670,330.000=83.330,330.000=83.240,339.000=332.990;
#STOPS:330.000=0.720
;
#BGCHANGES:;

//---------------dance-single - ----------------
#NOTES:
     dance-single:
     :
     Easy:
     6:
     0.424,0.507,0.182,0.064,0.000:
0000
0000
0000
0000
,
0000
0000
0000
0000
,
0000
0000
0000
0000
,
0000
0000
0000
0000
,
0000
0000
0000
0000
,
0000
0000
0000
0000
,
0000
0000
0000
0000
,
0000
0000
0000
0000
,
1000
0000
0100
0000
,
0001
0000
0100
0000
,
1000
0000
0010
0000
,
0001
0000
0010
0000
,
0100
0000
0010
0000
,
0100
0000
2002
3003
,
0100
0000
0010
0000
,
0100
0000
0010
0110
,
1000
0100
1000
0000
,
0001
0000
0001
0000
,
0100
0000
0100
0000
,
0010
0000
0000
0010
0000
0000
0100
0000
,
0001
0100
0001
0000
,
1000
0000
1000
0000
,
0100
0000
0100
0000
,
0010
0000
0000
0010
0000
0000
0100
0000
,
0001
1000
0001
0000
,
0100
0000
0100
0000
,
0010
0000
0100
0000
,
0001
0000
0000
0001
0000
0000
1000
0000
,
1000
0001
1000
0000
,
0100
0000
0100
0000
,
0010
0000
0100
0000
,
1000
0000
0000
1000
0000
0000
0001
0000
,
0100
0000
0010
0000
,
0100
0000
1000
0000
,
0100
0000
0001
0100
,
0010
0000
1001
0000
,
0100
0000
0010
0000
,
0100
0000
0001
0000
,
0100
0000
1000
0100
,
0010
0000
1001
0000
,
0010
0000
0100
0000
,
0010
0000
1000
0000
,
0010
0000
0001
0000
,
0010
0000
1001
0000
,
0100
0000
1001
0000
,
0100
0000
1001
0000
,
0100
0000
0010
0000
,
0100
0000
1001
0000
,
1000
0100
1000
0000
,
0000
0001
0000
0001
,
0000
1000
0000
1000
,
0100
0000
1001
0000
,
0001
0100
0001
0000
,
0000
1000
0000
1000
,
0000
0001
0000
0001
,
0100
0000
1001
0000
,
0010
0100
0010
0000
,
0000
1000
0000
0100
,
0000
0001
0000
0100
,
0010
0000
1001
0000
,
0010
0100
0010
0000
,
0000
0001
0000
0100
,
0000
1000
0000
0100
,
0010
0000
1001
0000
,
1000
0010
1000
0000
,
0000
0001
0000
0001
,
0000
1000
0000
1000
,
0010
0000
1001
0000
,
0001
0010
0001
0000
,
0000
1000
0000
1000
,
0000
0001
0000
0001
,
0010
0000
1001
0000
,
0100
0010
0100
0000
,
0000
1000
0000
0010
,
0000
0001
0000
0010
,
0100
0000
1001
0000
,
0100
0010
0100
0000
,
1000
0001
1000
0000
,
0100
0010
0100
0010
,
0100
0000
0010
0000
,
2002
0000
0000
0000
,
0000
0000
0000
0000
,
0000
0000
0000
0000
0000
3003
0100
0000
,
0010
1000
0001
0010
,
0100
0001
1000
0100
,
0000
0010
0000
0100
,
0000
0010
0000
0100
,
0000
0001
0000
1000
,
0000
0010
0000
0100
,
0000
0010
0000
0100
,
0000
0010
0000
0100
,
0000
1000
0000
0001
,
0000
0010
0000
0100
,
1000
0100
0000
0010
,
0000
0001
0000
0010
,
0001
0010
0000
0100
,
0000
1000
0000
0001
,
0100
0001
0000
1000
,
0000
0010
0000
1000
,
0100
1000
0000
0001
,
0000
0010
0000
0010
,
1000
0010
0000
0100
,
0000
0001
0000
0100
,
0001
0100
0000
0010
,
0000
1000
0000
0001
,
0010
0001
0000
1000
,
0000
0100
0000
1000
,
0010
1000
0000
0001
,
0000
0100
0000
1000
,
0000
0001
0000
0000
1000
0000
0100
0000
,
0000
0100
0000
0001
,
0000
0001
0000
0000
0001
0000
1000
0000
,
0000
1000
0000
0000
1000
0000
0100
0000
,
0000
0100
0000
0000
0100
0000
0010
0000
,
0000
0010
0000
0000
0010
0000
0100
0000
,
0000
0010
0000
0000
1000
0000
0001
0000
,
0000
0100
0000
0000
0010
0000
2002
0000
,
0000
0000
0000
0000
,
0000
0000
3003
0000
;

//---------------dance-single - ----------------
#NOTES:
     dance-single:
     :
     Medium:
     9:
     0.655,0.823,0.363,0.406,0.011:
0000
0000
0000
0000
,
0000
0000
0000
0000
,
0000
0000
0000
0000
,
0000
0000
0000
0000
,
0000
0000
0000
0000
,
0000
0000
0000
0000
,
0000
0000
0000
0000
,
0000
0000
0000
0000
,
1000
0100
1000
0100
,
1000
0000
1000
0000
,
0001
0100
0001
0100
,
0001
0000
0001
1000
,
0010
0100
0010
0100
,
0010
0000
0220
0330
,
1000
0100
1000
0001
,
0010
0001
1000
0001
,
0100
0010
1000
0000
,
0100
0010
0001
0000
,
0100
0010
1000
0001
,
0010
0000
0000
0010
0000
0000
0100
0000
,
0100
0010
0001
0000
,
0100
0010
1000
0000
,
0100
0010
0001
1000
,
0010
0000
0000
0010
0000
0000
0100
0000
,
0001
0100
0001
1000
,
0010
0100
0001
0000
,
1000
0100
0010
0001
,
1000
0000
0000
1000
0000
0000
0100
0000
,
1000
0100
1000
0001
,
0010
0100
1000
0000
,
0001
0100
0010
1000
,
0001
0000
0000
0001
0000
0000
0100
0000
,
0010
1000
0010
0001
,
0010
1000
0001
0000
,
0100
1000
0100
0001
,
1000
0000
0000
0001
0000
0000
0100
0000
,
0010
0001
0010
1000
,
0010
0001
1000
0000
,
0100
0001
0100
1000
,
0001
0000
0000
1000
0000
0000
0100
0000
,
0001
0100
0001
0010
,
1000
0010
0001
0000
,
1000
0001
0100
0001
,
0010
0000
0000
0100
0000
0000
0100
0000
,
0010
0001
1001
0000
,
0010
1000
1001
0000
,
0100
0010
0100
0010
,
0220
0330
2002
3003
,
1000
0000
0100
0000
2000
0000
0000
3000
,
0000
0100
0000
1000
,
0000
1000
0100
1000
,
0020
0030
2002
3003
,
0001
0000
0100
0000
0002
0000
0000
0003
,
0000
0100
0000
0001
,
0000
0001
0100
0001
,
0020
0030
2002
3003
,
1000
0000
0010
0000
2000
0000
0000
3000
,
0000
0010
0000
1000
,
0000
1000
0010
1000
,
0200
0300
2002
3003
,
0001
0000
0010
0000
0002
0000
0000
0003
,
0000
0010
0000
0001
,
0000
0001
0010
0001
,
0200
0300
1001
0000
,
1000
0000
0001
0000
2000
0000
0000
3000
,
0000
0100
0000
1000
,
0000
1000
0001
1000
,
0020
0000
0200
0330
,
0001
0000
1000
0000
0002
0000
0000
0003
,
0000
0100
0000
0001
,
0000
0001
1000
0001
,
0020
0000
0200
0330
,
1000
0000
0001
0000
0200
0000
0000
0300
,
0000
0100
0000
0010
,
0000
0001
1000
0001
,
0200
0300
2002
3003
,
0001
1000
0002
0003
,
1000
0001
2000
3000
,
0010
0100
0010
0100
,
0020
0000
0200
0330
,
2002
0000
0000
0000
,
0000
0000
0000
0000
,
0000
0000
0000
0000
0000
3003
0100
0000
,
0010
0000
0000
1000
1000
0000
0000
0000
0001
0000
0000
0000
0100
0000
0000
0000
,
0010
0000
0000
0001
0001
0000
1000
0000
1000
0000
0100
0000
0010
0000
0000
0000
,
0001
0010
0001
0010
,
0001
1000
0001
1000
,
0100
1000
0100
1000
,
0100
1000
0001
0010
,
0100
0010
0100
0010
,
0100
1000
0100
0010
,
0100
0010
0100
0010
,
0100
0001
0100
1000
,
0100
0010
0001
0010
,
0100
0000
1000
0001
1000
0000
0001
0000
,
0010
0100
1000
0100
,
0010
0000
0001
1000
0001
0000
1000
0000
,
0010
0100
0001
0100
,
0010
0000
1000
0001
1000
0000
0001
0000
,
0100
0010
1000
0010
,
0100
0000
0001
1000
0001
0000
1000
0000
,
0100
1000
0001
0100
,
0010
0000
1000
0001
1000
0000
0001
0000
,
0100
0001
1000
0100
,
0010
0000
0001
1000
0001
0000
1000
0000
,
1000
0100
0100
0010
,
0010
0001
0001
1000
,
0100
0010
0001
1000
,
0100
0010
0001
0011
,
0000
1001
0000
0000
1100
0000
0100
0000
,
0000
1001
0000
0000
0010
0000
1010
0000
,
0000
1001
0000
0000
0101
0000
0110
0000
,
0000
1010
0000
0000
1001
0000
1100
0000
,
0000
0110
0000
0000
0011
0000
1001
0000
,
0000
1010
0000
0000
0110
0000
0011
0000
,
0000
1001
0000
0000
0101
0000
1010
0000
,
0000
1001
0000
0000
1100
0000
0220
0000
,
0000
0000
0000
0000
,
0000
0000
0330
0000
;

//---------------dance-single - ----------------
#NOTES:
     dance-single:
     :
     Hard:
     10:
     0.884,1.000,0.780,0.064,0.064: // measure 1
0000
0000
0000
0000
,  // measure 2
0000
0000
0000
0000
,  // measure 3
0000
0000
0000
0000
,  // measure 4
0000
0000
0000
0000
,  // measure 5
0000
0000
0000
0000
,  // measure 6
0000
0000
0000
0000
,  // measure 7
0000
0000
0000
0000
,  // measure 8
0000
0000
0000
0000
,  // measure 9
1000
0100
1000
0010
,  // measure 10
1000
0100
1000
0010
,  // measure 11
0100
0001
0010
0001
,  // measure 12
0100
0001
0010
0001
,  // measure 13
0100
0010
1000
0001
,  // measure 14
0100
0010
2002
3003
,  // measure 15
0010
1000
0010
1000
,  // measure 16
0001
0000
0100
0000
0001
0100
0001
0100
,  // measure 17
0010
0100
0001
0100
,  // measure 18
0010
0000
0100
0000
0001
0100
0001
0000
,  // measure 19
1000
0100
1000
0100
,  // measure 20
1001
0000
0000
1100
0000
0000
0110
0000
,  // measure 21
0010
0100
1000
0100
,  // measure 22
0010
0000
0100
0000
1000
0100
1000
0000
,  // measure 23
0001
0100
0001
0100
,  // measure 24
1001
0000
0000
1010
0000
0000
0110
0000
,  // measure 25
0010
0100
0001
0100
,  // measure 26
0010
0000
0100
0000
0001
0100
0001
0000
,  // measure 27
1000
0100
1000
0100
,  // measure 28
1100
0000
0000
0011
0000
0000
0110
0000
,  // measure 29
0010
0100
1000
0100
,  // measure 30
0010
0000
0100
0000
1000
0100
1000
0000
,  // measure 31
0001
0010
0001
0000
1000
0000
0001
1000
,  // measure 32
0010
0100
1001
0000
,  // measure 33
0010
0000
0001
0000
1000
0100
1000
0000
,  // measure 34
0001
0000
0010
0000
0100
1000
0100
0000
,  // measure 35
0010
0000
0001
0000
1000
0001
1000
0000
,  // measure 36
0010
1000
0000
1000
0010
0000
1010
0000
,  // measure 37
0010
0000
1000
0000
0001
0100
0001
0000
,  // measure 38
1000
0000
0010
0000
0100
0001
0100
0000
,  // measure 39
0010
0000
1000
0000
0001
1000
0001
0000
,  // measure 40
0010
0001
0000
0001
0010
0000
0011
0000
,  // measure 41
0010
0000
0001
0000
1000
0100
0010
0000
,  // measure 42
0001
0000
0010
0000
0100
1000
0001
0000
,  // measure 43
0010
0000
0001
0000
1000
0001
0100
0000
,  // measure 44
0010
1000
0000
1000
0010
0000
0110
0000
,  // measure 45
0010
1000
0010
0000
1010
0000
1001
0000
,  // measure 46
0010
0001
0010
0000
0011
0000
1001
0000
,  // measure 47
0100
1000
0100
0000
0010
0001
0010
0000
,  // measure 48
0001
0100
0001
0000
1000
0010
1000
0001
,  // measure 49
0010
0100
1100
0000
,  // measure 50
1000
0110
0000
0011
,  // measure 51
0000
0001
0100
0001
,  // measure 52
1001
0000
1100
0000
,  // measure 53
0010
0100
0101
0000
,  // measure 54
0001
0110
0000
1010
,  // measure 55
0000
1000
0100
1000
,  // measure 56
1001
0000
0101
0000
,  // measure 57
0010
0000
0001
0010
0100
0000
0000
0000
,  // measure 58
1000
1100
0000
0011
,  // measure 59
0000
0000
1000
0010
0100
0000
0101
0000
,  // measure 60
0110
0000
1010
0000
,  // measure 61
0010
0000
1000
0100
0010
0000
0000
0000
,  // measure 62
0001
0101
0000
1010
,  // measure 63
0000
0000
0001
0010
0100
0000
1100
0000
,  // measure 64
0110
0000
0011
0000
,  // measure 65
0110
0000
0001
1000
0100
0000
0000
0000
,  // measure 66
0100
0000
1000
0001
0100
0000
0110
0000
,  // measure 67
0000
0000
0010
1000
0010
0000
1001
0000
,  // measure 68
1100
0000
0011
0000
,  // measure 69
0110
0000
1000
0001
0100
0000
0000
0000
,  // measure 70
0100
0000
0001
1000
0010
0000
0110
0000
,  // measure 71
0000
0000
0010
0001
0010
0000
1001
0000
,  // measure 72
0101
0000
1010
0000
,  // measure 73
1001
0000
0001
0100
0010
0000
1000
0000
,  // measure 74
1001
0000
1000
0100
0010
0000
0001
0000
,  // measure 75
0110
0000
0010
0001
0010
0000
0100
0000
,  // measure 76
0110
0010
1100
0001
,  // measure 77
1000
0000
0001
0100
0010
0000
1000
0000
,  // measure 78
0110
0000
0010
0100
0010
0000
1100
0000
,  // measure 79
1000
0100
0010
0001
0010
0100
1000
0000
,  // measure 80
0010
0100
0001
0000
1000
0010
0100
0000
,  // measure 81
2002
0000
0000
0000
,  // measure 82
0000
0000
0000
0000
,  // measure 83
0000
0000
0000
0000
0000
0000
0000
0000
0000
0000
0000
0000
0000
0000
0000
0000
0000
0000
0000
0000
0000
0000
0000
0000
0000
0000
0000
0000
0000
0000
0000
0000
0000
0000
0000
0000
0000
0000
0000
0000
0000
3003
0000
0000
0000
0000
0000
0000
0100
0000
0000
0000
0000
0000
1000
0000
0000
0000
0000
0000
0010
0000
0000
0000
,  // measure 84
0000
0000
0000
0000
0000
0000
0001
0000
1001
0000
0000
0000
0000
0000
0100
0000
0100
0000
0000
0001
0000
0000
0010
0000
0010
0000
0000
0001
0000
0000
0100
0000
,  // measure 85
0000
0000
0000
0000
0000
0000
1000
0000
1001
0000
0000
0000
0000
0000
0010
0000
0010
0000
0000
1000
0000
0000
0100
0000
0010
0000
0000
0000
0000
0000
0000
0000
,  // measure 86
0001
0010
0001
1000
,  // measure 87
0100
0000
1000
0100
1000
0000
0010
0000
,  // measure 88
1000
0010
1000
0001
,  // measure 89
0100
0000
0001
0100
0001
0000
1000
0000
,  // measure 90
0001
0000
0010
0100
1000
0000
0001
0000
,  // measure 91
1000
0000
0010
0100
0001
0000
0010
0000
,  // measure 92
0100
0000
1000
0001
1000
0000
0001
1000
,  // measure 93
0010
0000
0100
0001
1000
0000
0001
0000
,  // measure 94
1000
0100
1000
0000
1000
0100
1000
0000
,  // measure 95
0001
0100
0001
0000
0001
0100
0001
0000
,  // measure 96
1000
0001
1000
0000
1000
0100
1000
0000
,  // measure 97
0001
1000
0001
0000
0001
0100
0010
0000
,  // measure 98
0100
0001
0100
0000
0010
1000
0010
0000
,  // measure 99
0100
0001
0100
0000
0010
1000
0001
0000
,  // measure 100
0010
0001
0010
0000
0001
0100
0001
0000
,  // measure 101
1000
0010
1000
0000
0001
0100
0010
1000
,  // measure 102
0010
1000
0010
1000
0001
0000
0010
0001
,  // measure 103
0010
0001
0010
0001
1000
0000
0010
1000
,  // measure 104
0010
0100
0001
1000
0100
0000
0010
0001
,  // measure 105
0010
0100
1000
0001
0100
0000
0010
1000
,  // measure 106
0001
0010
0100
0000
1000
0100
0010
0001
,  // measure 107
1000
0010
0100
0000
0001
0100
0010
1000
,  // measure 108
0100
0010
0001
0100
0010
1000
0100
0010
,  // measure 109
0001
0100
0010
1000
0001
0100
0001
0000
,  // measure 110
0000
1010
0000
0000
1001
0000
0101
0000
,  // measure 111
0000
0010
1000
0000
1010
0000
1001
0000
,  // measure 112
0000
0100
0001
0000
0101
0000
1001
0000
,  // measure 113
0000
0010
0001
0000
0011
0000
1001
0000
,  // measure 114
0000
0100
1000
0000
1100
0000
1001
0000
,  // measure 115
0000
0010
1000
0000
1010
0000
0010
0100
,  // measure 116
0000
0001
0100
0000
1001
0000
0010
0001
,  // measure 117
0000
0001
0100
0000
0110
0000
2002
0000
,  // measure 118
0000
0000
0000
0000
,  // measure 119
0000
0000
3003
0000
;

//---------------dance-double - ----------------
#NOTES:
     dance-double:
     :
     Easy:
     6:
     0.398,0.570,0.150,0.053,0.000:
00000000
00000000
00000000
00000000
,
00000000
00000000
00000000
00000000
,
00000000
00000000
00000000
00000000
,
00000000
00000000
00000000
00000000
,
00000000
00000000
00000000
00000000
,
00000000
00000000
00000000
00000000
,
00000000
00000000
00000000
00000000
,
00000000
00000000
00000000
00000000
,
00100000
00000000
01000000
00000000
,
00100000
00000000
10000000
00000000
,
01000000
00000000
00100000
00000000
,
01000000
00000000
00010000
00000000
,
00001000
00000000
00000100
00000000
,
00001000
00000000
00020000
00030000
,
00000100
00000000
00000100
00000000
,
00000100
00000000
00000010
00000000
,
00000001
00000000
00000100
00000000
,
00001000
00000000
00010000
00000000
,
00100000
00000000
10000000
00000000
,
00010000
00000000
00010000
00000000
,
10000000
00000000
01000000
00000000
,
00010000
00000000
00001000
00000000
,
00000010
00000000
00000001
00000000
,
00001000
00000000
00001000
00000000
,
00000010
00000000
00000100
00000000
,
00001000
00000000
00010000
00000000
,
01000000
00000000
00100000
00000000
,
00001000
00000000
00001000
00000000
,
00100000
00000000
01000000
00000000
,
00010000
00000000
00001000
00000000
,
00000100
00000000
00000010
00000000
,
00010000
00000000
00010000
00000000
,
00000010
00001000
00000010
00000000
,
00000100
00000000
00000100
00000000
,
00000001
00000000
00000100
00000000
,
00001000
00000000
00010000
00000000
,
00100000
00010000
00100000
00000000
,
01000000
00000000
01000000
00000000
,
10000000
00000000
01000000
00000000
,
00010000
00000000
00001000
00000000
,
00000010
00000100
00001000
00000000
,
00000001
00000000
00000100
00000000
,
00001000
00000000
00010000
00000000
,
00100000
00000000
10000000
00000000
,
01000000
00000000
10010000
00000000
,
00100000
00000000
01100000
00000000
,
00010000
00000000
00001000
00000000
,
00010000
00000000
00011000
00000000
,
00000010
00000100
00000010
00000000
,
00000000
00001000
00000000
00001000
,
00000000
00010000
00000000
00010000
,
00001000
00000000
00011000
00000000
,
00100000
01000000
00100000
00000000
,
00000000
00010000
00000000
00010000
,
00000000
00001000
00000000
00001000
,
00010000
00000000
00011000
00000000
,
00000100
00000001
00000100
00000000
,
00000000
00000010
00000000
00000010
,
00000000
00010000
00000000
00010000
,
00001000
00000000
00011000
00000000
,
01000000
10000000
01000000
00000000
,
00000000
00100000
00000000
00100000
,
00000000
00001000
00000000
00001000
,
00010000
00000000
00011000
00000000
,
00000100
00000010
00001000
00000000
,
00000000
00000100
00000000
00000010
,
00000000
00000001
00000000
00000100
,
00001000
00000000
00011000
00000000
,
01000000
00100000
00010000
00000000
,
00000000
01000000
00000000
00100000
,
00000000
10000000
00000000
01000000
,
00010000
00000000
00011000
00000000
,
00000010
00000100
00000010
00000001
,
00000000
00000100
00000000
00001000
,
00000000
00010000
00000000
01000000
,
00100000
00000000
10010000
00000000
,
10000000
01000000
11000000
00000000
,
01000000
00010000
01010000
00000000
,
00010000
00000000
00001000
00000000
,
00000010
00000000
00001000
00000000
,
00022000
00000000
00000000
00000000
,
00000000
00000000
00000000
00000000
,
00000000
00000000
00000000
00000000
00000000
00033000
00100000
00000000
,
10000000
01000000
00010000
00001000
,
00000100
00000001
00001000
00000100
,
00000010
00000001
00000000
00000100
,
00000000
00000100
00000000
00001000
,
00000000
00010000
00000000
01000000
,
00000000
00100000
00000000
10000000
,
00000000
01000000
00000000
10000000
,
00000000
00010000
00000000
10000000
,
00000000
00100000
00000000
01000000
,
00000000
00001000
00000000
00010000
,
00001000
00010000
00000000
00000100
,
00000000
00000100
00000000
00000010
,
00000000
00000001
00000000
00000100
,
00000000
00000001
00000000
00000100
,
00000010
00000100
00000000
00001000
,
00000000
00001000
00000000
00010000
,
00000000
00100000
00000000
00010000
,
00000000
00001000
00000000
00010000
,
01000000
00010000
00000000
00001000
,
00000000
00010000
00000000
01000000
,
00000000
00100000
00000000
00001000
,
00000000
00010000
00000000
00000100
,
00000000
00000010
00000000
00000001
,
00000000
00000100
00000000
00001000
,
00000000
00010000
00000000
00100000
,
00000000
10000000
00000000
01000000
,
00000000
01000000
00000000
00000000
01000000
00000000
00010000
00000000
,
00000000
00010000
00000000
00001000
,
00000000
00001000
00000000
00000000
00001000
00000000
00000100
00000000
,
00000000
00000100
00000000
00000000
00000100
00000000
00000001
00000000
,
00000000
00000001
00000000
00000000
00000001
00000000
00000010
00000000
,
00000000
00000010
00000000
00000000
00000010
00000000
00001000
00000000
,
00000000
00001000
00000000
00000000
00001000
00000000
00010000
00000000
,
00000000
00010000
00000000
00000000
00010000
00000000
00022000
00000000
,
00000000
00000000
00000000
00000000
,
00000000
00000000
00033000
00000000
;

//---------------dance-double - ----------------
#NOTES:
     dance-double:
     :
     Medium:
     9:
     0.624,0.760,0.395,0.064,0.011:
00000000
00000000
00000000
00000000
,
00000000
00000000
00000000
00000000
,
00000000
00000000
00000000
00000000
,
00000000
00000000
00000000
00000000
,
00000000
00000000
00000000
00000000
,
00000000
00000000
00000000
00000000
,
00000000
00000000
00000000
00000000
,
00000000
00000000
00000000
00000000
,
00100000
10000000
00010000
00000000
,
01000000
00001000
00010000
00000000
,
00000100
00000010
00000001
00000000
,
00000100
00000010
00010000
00001000
,
00000010
00000001
00001000
00000000
,
00000100
00010000
00022000
00033000
,
01000000
00100000
01000000
00100000
,
10000000
00000000
10010000
00000000
,
01000000
00010000
01000000
00010000
,
00001000
00010000
00001000
00010000
,
00000100
00000010
00000100
00000010
,
00000001
00000000
00000000
00000001
00000000
00000000
00000001
00000000
,
00000100
00001000
00000100
00001000
,
00010000
00001000
00010000
00001000
,
01000000
00100000
01000000
00100000
,
10000000
00000000
00000000
10000000
00000000
00000000
10000000
00000000
,
01000000
00010000
01000000
00100000
,
00001000
00010000
00000100
00010000
,
00001000
00000010
00000100
00001000
,
00000001
00000000
00000000
00000001
00000000
00000000
00000001
00000000
,
00000100
00001000
00000100
00000010
,
00010000
00001000
01000000
00001000
,
00010000
00100000
01000000
00010000
,
10000000
00000000
00000000
10000000
00000000
00000000
10000000
00000000
,
01000000
00010000
00001000
00010000
,
00001000
00000010
00000100
00000001
,
00000100
00001000
00000001
00000100
,
00000001
00000000
00000000
00000001
00000000
00000000
00000001
00000000
,
00000100
00001000
00010000
00001000
,
00010000
00100000
01000000
10000000
,
01000000
00010000
10000000
01000000
,
10000000
00000000
00000000
10000000
00000000
00000000
10000000
00000000
,
01000000
00010000
00001000
00000010
,
00000100
00010000
00001000
00100000
,
01000000
00010000
00001000
00000010
,
00000001
00000000
00000000
00000001
00000000
00000000
00000001
00000000
,
00000100
00001000
00001100
00000000
,
00001000
00010000
00011000
00000000
,
01000000
00100000
01000000
00100000
,
01000000
00000000
10010000
00000000
,
10000000
01000000
10000000
00000000
,
00000000
01000000
00000000
00010000
,
00000000
00010000
00001000
00010000
,
00001000
00000000
00000110
00000000
,
00000001
00000100
00000001
00000000
,
00000000
00000100
00000000
00001000
,
00000000
00001000
00010000
00001000
,
00010000
00000000
01100000
00000000
,
10000000
01000000
10000000
00010000
,
00000000
01000000
00000000
00001000
,
00000000
00010000
00001000
00010000
,
00000100
00000000
00000110
00000000
,
00000001
00000100
00000001
00001000
,
00000000
00000100
00000000
00010000
,
00000000
00001000
00010000
00001000
,
01000000
00000000
01100000
00000000
,
00100000
00001000
00010000
00000000
,
00000000
00001000
00000000
01000000
,
00000000
00010000
00100000
00001000
,
00010000
00000000
00000110
00000000
,
00000010
00010000
00001000
00000000
,
00000000
00010000
00000000
00000100
,
00000000
00001000
00000010
00010000
,
00001000
00000000
01100000
00000000
,
00010000
10000000
01000000
00100000
,
00000000
00001000
00000000
00010000
,
00000000
00000100
00000010
00000001
,
00001000
00000000
00000101
00000000
,
00000001
00000100
00000101
00000000
,
00000100
00001000
00001100
00000000
,
00001000
00010000
00001000
00010000
,
00100000
00000000
00100000
00000000
,
20020000
00000000
00000000
00000000
,
00000000
00000000
00000000
00000000
,
00000000
00000000
00000000
00000000
00000000
30030000
00000001
00000000
,
00000010
00000000
00000000
00000100
00000100
00000000
00000000
00000000
00000010
00000000
00000000
00000000
00000001
00000000
00000000
00000000
,
00000100
00000000
00000000
00001000
00001000
00000000
00010000
00000000
00100000
00000000
01000000
00000000
00010000
00000000
00000000
00000000
,
10000000
00010000
01000000
00100000
,
10000000
01000000
00010000
00001000
,
00000010
00000100
00000010
00000001
,
00000100
00001000
00000100
00000010
,
00001000
00000100
00000010
00000001
,
00000100
00001000
00010000
00001000
,
00010000
00100000
10000000
01000000
,
00100000
00010000
01000000
00100000
,
10000000
01000000
00010000
00001000
,
00000010
00000000
00000100
00001000
00000100
00000000
00000010
00000000
,
00000001
00000100
00001000
00010000
,
00100000
00000000
01000000
00010000
01000000
00000000
00100000
00000000
,
10000000
01000000
00100000
00001000
,
00010000
00000000
00000100
00000010
00000100
00000000
00000010
00000000
,
00000001
00000100
00000010
00010000
,
00001000
00000000
01000000
00100000
01000000
00000000
00010000
00000000
,
10000000
01000000
00100000
00001000
,
00010000
00000000
00000010
00000100
00000001
00000000
00001000
00000000
,
00000001
00000100
00000010
00010000
,
00001000
00000000
00100000
01000000
10000000
00000000
00010000
00000000
,
00010000
01000000
01000000
00100000
,
00100000
00010000
00010000
00001000
,
00001000
00000100
00000100
00000010
,
00000010
00001000
00001000
00001100
,
00000000
00001001
00000000
00000000
00001010
00000000
00000100
00000000
,
00000000
00000100
00000000
00010010
,
00000000
00011000
00000000
00000000
00010100
00000000
00011000
00000000
,
00000000
00101000
00000000
00000000
01100000
00000000
11000000
00000000
,
00000000
10010000
00000000
00000000
01010000
00000000
01001000
00000000
,
00000000
00011000
00000000
00000000
00010010
00000000
00001010
00000000
,
00000000
00000110
00000000
00000000
00000101
00000000
00000110
00000000
,
00000000
00001010
00000000
00000000
00010010
00000000
00022000
00000000
,
00000000
00000000
00000000
00000000
,
00000000
00000000
00033000
00000000
;

//---------------dance-double - ----------------
#NOTES:
     dance-double:
     :
     Hard:
     10:
     0.835,0.886,0.609,0.064,0.064:
00000000
00000000
00000000
00000000
,
00000000
00000000
00000000
00000000
,
00000000
00000000
00000000
00000000
,
00000000
00000000
00000000
00000000
,
00000000
00000000
00000000
00000000
,
00000000
00000000
00000000
00000000
,
00000000
00000000
00000000
00000000
,
00000000
00000000
00000000
00000000
,
00100000
10000000
00100000
01000000
,
00001000
01000000
00001000
01000000
,
00001000
00010000
00001000
00010000
,
00000100
00010000
00000100
00010000
,
00001000
00010000
00100000
00010000
,
00001000
00010000
00022000
00033000
,
00100000
10000000
00010000
01000000
,
00100000
00000000
10000000
00000000
00010000
01000000
00010000
01000000
,
00001000
00100000
00010000
00100000
,
00001000
00000000
00010000
00000000
00000100
00010000
00000100
00000000
,
00001000
00000001
00000100
00000010
,
00010010
00000000
00000000
00001010
00000000
00000000
00010100
00000000
,
00010000
00000010
00001000
00000010
,
00010000
00000000
00001000
00000000
01000000
00001000
01000000
00000000
,
00010000
10000000
01000000
00100000
,
00101000
00000000
00000000
00110000
00000000
00000000
01010000
00000000
,
00001000
01000000
00010000
01000000
,
00001000
00000000
00010000
00000000
00000010
00010000
00000010
00000000
,
00001000
00000001
00000010
00000100
,
00010100
00000000
00000000
00011000
00000000
00000000
00001100
00000000
,
00010000
00000100
00001000
00000100
,
00010000
00000000
00001000
00000000
00100000
00001000
00100000
00000000
,
00010000
10000000
00100000
01000000
,
01001000
00000000
00000000
00011000
00000000
00000000
01010000
00000000
,
00100000
00000000
10000000
00000000
00100000
01000000
00100000
00000000
,
01000000
00000000
00001000
00000000
00010000
00001000
00010000
00000000
,
00000100
00000000
00001000
00000000
00000001
00000010
00000001
00000000
,
00000001
00001000
00000000
00001000
00000010
00000000
00001100
00000000
,
00000010
00000000
00000001
00000000
00000010
00000100
00000010
00000000
,
00000100
00000000
00010000
00000000
00001000
00010000
00001000
00000000
,
01000000
00000000
00010000
00000000
10000000
00100000
10000000
00000000
,
10000000
00010000
00000000
00010000
00100000
00000000
01010000
00000000
,
00100000
00000000
10000000
00000000
01000000
00100000
01000000
00000000
,
00100000
00000000
00001000
00000000
00010000
00000100
00010000
00000000
,
00000010
00000000
00001000
00000000
00000001
00000100
00000001
00000000
,
00001000
00000100
00000000
00000100
00000010
00000000
00001001
00000000
,
00000010
00010000
00001000
00000000
00010000
00000000
01001000
00000000
,
01000000
00001000
00010000
00000000
00001000
00000000
00010010
00000000
,
00001000
01000000
00100000
10000000
,
01000000
10000000
01000000
00000000
00100000
00010000
00100000
00010000
,
10000000
01000000
10000000
00000000
,
01000000
00100000
00000000
00101000
,
00000000
00001000
00010000
00000100
,
00000110
00000000
00000011
00000000
,
00000001
00000100
00000001
00000000
,
00000100
00000010
00000000
00010010
,
00000000
00010000
00001000
01000000
,
01100000
00000000
10010000
00000000
,
00100000
00000000
10000000
00010000
10000000
00000000
00000000
00000000
,
01000000
00101000
00000000
00011000
,
00000000
00000000
00010000
00000100
00010000
00000000
00000010
00000000
,
00001010
00000000
00000101
00000000
,
00000010
00000000
00000001
00001000
00000001
00000000
00000000
00000000
,
00000100
00010010
00000000
00011000
,
00000000
00000000
00001000
01000000
00001000
00000000
00100000
00000000
,
00110000
00000000
10010000
00000000
,
00100000
00000000
00001000
00010000
00001000
00000000
00000000
00000000
,
00010000
00000000
00000100
00001000
00000100
00000000
00000110
00000000
,
00000000
00000000
00000010
00000001
00000010
00000000
00000011
00000000
,
00001001
00000000
00001100
00000000
,
00000010
00000000
00010000
00001000
00010000
00000000
00000000
00000000
,
00001000
00000000
01000000
00010000
01000000
00000000
01100000
00000000
,
00000000
00000000
00100000
10000000
00100000
00000000
10100000
00000000
,
10010000
00000000
01010000
00000000
,
00100000
00000000
10000000
01000000
10000000
00000000
01000000
00000000
,
00100000
00000000
00001000
00010000
00001000
00000000
00010000
00000000
,
00000100
00000000
00000010
00000001
00000010
00000000
00001000
00000100
,
00000010
00000000
00010100
00000000
,
00000010
00000000
00000001
00000010
00000001
00000000
00001000
00000000
,
00000100
00000000
00010000
00001000
00010000
00000000
00001000
00000000
,
00100000
00000000
00010000
10000000
00010000
00000000
01000000
00100000
,
10000000
01000000
10000000
00000000
00010000
00100000
00010000
00000000
,
00022000
00000000
00000000
00000000
,
00000000
00000000
00000000
00000000
,
00000000
00000000
00000000
00000000
00000000
00000000
00000000
00000000
00000000
00000000
00000000
00000000
00000000
00000000
00000000
00000000
00000000
00000000
00000000
00000000
00000000
00000000
00000000
00000000
00000000
00000000
00000000
00000000
00000000
00000000
00000000
00000000
00000000
00000000
00000000
00000000
00000000
00000000
00000000
00000000
00000000
00033000
00000000
00000000
00000000
00000000
00000000
00000000
00000100
00000000
00000000
00000000
00000000
00000000
00000010
00000000
00000000
00000000
00000000
00000000
00000001
00000000
00000000
00000000
,
00000000
00000000
00000000
00000000
00000000
00000000
00000100
00000000
00000100
00000000
00000000
00000000
00000000
00000000
00001000
00000000
00001000
00000000
00000000
00010000
00000000
00000000
00100000
00000000
01000000
00000000
00000000
10000000
00000000
00000000
00100000
00000000
,
00000000
00000000
00000000
00000000
00000000
00000000
01000000
00000000
01000000
00000000
00000000
00000000
00000000
00000000
00001000
00000000
00001000
00000000
00000000
00010000
00000000
00000000
00000100
00000000
00000010
00000000
00000000
00000000
00000000
00000000
00000000
00000000
,
00000001
00001000
00010000
00100000
,
10000000
00000000
00010000
10000000
01000000
00000000
00010000
00000000
,
00001000
00010000
00000100
00000010
,
00000001
00000000
00000100
00001000
00000100
00000000
00010000
00000000
,
00100000
00000000
10000000
01000000
10000000
00000000
01000000
00000000
,
00010000
00000000
00001000
00010000
00001000
00000000
00000010
00000000
,
00000001
00000000
00001000
00000001
00000100
00000000
00001000
00000000
,
00010000
00000000
01000000
00100000
00001000
00000000
00010000
00000000
,
00100000
10000000
00100000
00000000
10000000
01000000
10000000
00000000
,
01000000
00010000
01000000
00000000
00010000
00001000
00010000
00000000
,
00001000
00000010
00001000
00000000
00000010
00000001
00000010
00000000
,
00000001
00000100
00000010
00000000
00010000
00001000
00010000
00000000
,
00100000
10000000
01000000
00000000
00100000
00001000
00010000
00000000
,
00001000
00000010
00000100
00000000
00001000
00000001
00000100
00000000
,
00001000
00010000
00100000
00000000
00010000
00100000
01000000
00000000
,
00100000
10000000
01000000
00000000
01000000
00010000
00001000
00000000
,
00001000
00000010
00000001
00000000
00001000
00000100
00000010
00000000
,
00000001
00000100
00000010
00000000
00010000
00001000
00010000
00000000
,
00100000
10000000
00100000
00000000
01000000
00010000
10000000
00000000
,
01000000
00010000
00001000
00000000
00010000
00001000
00000010
00000000
,
00000001
00000100
00000010
00000000
00010000
00001000
00010000
00000000
,
00000100
00000010
00000001
00000000
00000100
00001000
00010000
00000000
,
00001000
00010000
00100000
00000000
10000000
01000000
00100000
00001000
,
00010000
00100000
01000000
00001000
00010000
00000000
00011000
00000000
,
00000000
01001000
00000000
00000000
00110000
00000000
00100000
00000000
,
00000000
00010000
01000000
00000000
01010000
00000000
10100000
00000000
,
00000000
01000000
00001000
00000000
00011000
00000000
00010100
00000000
,
00000000
00001000
00000100
00000000
00000011
00000000
00001001
00000000
,
00000000
00000100
00000001
00000000
00010010
00000000
00011000
00000000
,
00000000
00001000
01000000
00000000
01010000
00000000
00100000
10000000
,
00000000
10000000
01000000
00000000
00101000
00000000
00010000
00000100
,
00000000
00000100
00000010
00000000
00000011
00000000
00002002
00000000
,
00000000
00000000
00000000
00000000
,
00000000
00000000
00003003
00000000
;

//---------------dance-single - ----------------
#NOTES:
     dance-single:
     :
     Beginner:
     3:
     0.307,0.437,0.289,0.000,0.000:
0000
0000
0000
0000
,
0000
0000
0000
0000
,
0000
0000
0000
0000
,
0000
0000
0000
0000
,
0000
0000
0000
0000
,
0000
0000
0000
0000
,
0000
0000
0000
0000
,
0000
0000
0000
0000
,
0100
0000
0000
0000
,
0010
0000
0000
0000
,
0100
0000
0000
0000
,
0010
0000
0000
0000
,
1000
0000
0000
0000
,
0001
0000
0000
0000
,
0100
0000
0000
0000
,
0010
0000
1001
0000
,
1000
0000
0000
0000
,
1000
0000
0000
0000
,
1000
0000
0000
0000
,
1000
0000
1001
0000
,
0001
0000
0000
0000
,
0001
0000
0000
0000
,
0001
0000
0000
0000
,
0001
0000
1001
0000
,
0100
0000
0000
0000
,
0100
0000
0000
0000
,
0100
0000
0000
0000
,
0100
0000
0110
0000
,
0010
0000
0000
0000
,
0010
0000
0000
0000
,
0010
0000
0000
0000
,
0010
0000
0110
0000
,
1000
0000
0000
0000
,
0001
0000
0000
0000
,
1000
0000
0000
0000
,
0001
0000
1001
0000
,
0001
0000
0000
0000
,
1000
0000
0000
0000
,
0001
0000
0000
0000
,
1000
0000
1001
0000
,
0100
0000
0000
0000
,
0010
0000
0000
0000
,
0100
0000
0000
0000
,
0010
0000
0110
0000
,
0010
0000
0110
0000
,
0010
0000
0110
0000
,
0010
0000
0010
0000
,
0010
0000
0110
0000
,
0100
0000
0100
0000
,
0000
0010
0000
0010
,
0000
0010
0000
0010
,
0010
0000
0110
0000
,
0010
0000
0010
0000
,
0000
0100
0000
0100
,
0000
0100
0000
0100
,
0100
0000
0110
0000
,
1000
0000
1000
0000
,
0000
0001
0000
0001
,
0000
0001
0000
0001
,
0001
0000
1001
0000
,
0001
0000
0001
0000
,
0000
1000
0000
1000
,
0000
1000
0000
1000
,
1000
0000
1001
0000
,
0100
0000
0010
0000
,
0000
0100
0000
0010
,
0000
0100
0000
0010
,
0010
0000
0110
0000
,
0010
0000
0100
0000
,
0000
0010
0000
0100
,
0000
0010
0000
0100
,
0100
0000
0110
0000
,
1000
0000
0001
0000
,
0000
1000
0000
0001
,
0000
1000
0000
0001
,
0001
0000
1001
0000
,
0001
0000
1000
0000
,
0001
0000
1000
0000
,
0001
0000
0001
0000
,
1000
0000
1000
0000
,
1001
0000
0000
0000
,
0000
0000
0000
0000
,
0000
0000
0000
0100
,
0000
0010
0000
1000
,
0000
0001
0000
1000
,
1000
0000
0000
0000
,
0000
0100
0000
0100
,
0000
0100
0000
0000
,
0000
0001
0000
0001
,
0000
0001
0000
0000
,
0000
0010
0000
0010
,
0000
0010
0000
0000
,
0000
1000
0000
0001
,
0000
0100
0000
0001
,
0000
0100
0000
0001
,
0000
0100
0000
0001
,
0000
1000
0000
1000
,
0000
0100
0000
1000
,
0000
0100
0000
1000
,
0000
0100
0000
1000
,
0000
0001
0000
0010
,
0000
0100
0000
0010
,
0000
0100
0000
0010
,
0000
0100
0000
0010
,
0000
1000
0000
0100
,
0000
0010
0000
0100
,
0000
0010
0000
0100
,
0000
0010
0000
0100
,
0000
0001
0000
0100
,
0000
0000
0000
1001
,
0000
0000
0000
0110
,
0000
0000
0000
1001
,
0000
0000
0000
0110
,
0000
0000
0000
1001
,
0000
0000
0000
0110
,
0000
0000
0000
0110
,
0000
0000
0000
1001
;

//---------------dance-double - ----------------
#NOTES:
     dance-double:
     :
     Beginner:
     1:
     0.129,0.310,0.053,0.000,0.000: // measure 1
00000000
00000000
00000000
00000000
,  // measure 2
00000000
00000000
00000000
00000000
,  // measure 3
00000000
00000000
00000000
00000000
,  // measure 4
00000000
00000000
00000000
00000000
,  // measure 5
00000000
00000000
00000000
00000000
,  // measure 6
00000000
00000000
00000000
00000000
,  // measure 7
00000000
00000000
00000000
00000000
,  // measure 8
00000000
00000000
00000000
00000000
,  // measure 9
00000100
00000000
00000000
00000000
,  // measure 10
00000000
00000000
00000000
00000000
,  // measure 11
00001000
00000000
00000000
00000000
,  // measure 12
00000000
00000000
00000000
00000000
,  // measure 13
00010000
00000000
00000000
00000000
,  // measure 14
00000000
00000000
00000000
00000000
,  // measure 15
01000000
00000000
00000000
00000000
,  // measure 16
00000000
00000000
00000000
00000000
,  // measure 17
10010000
00000000
00000000
00000000
,  // measure 18
00000000
00000000
00000000
00000000
,  // measure 19
00000000
00000000
00000000
00000000
,  // measure 20
00010000
00000000
00000000
00000000
,  // measure 21
01000000
00000000
00000000
00000000
,  // measure 22
00000000
00000000
00000000
00000000
,  // measure 23
00000000
00000000
00000000
00000000
,  // measure 24
00001000
00000000
00000000
00000000
,  // measure 25
00010000
00000000
00000000
00000000
,  // measure 26
00000000
00000000
00000000
00000000
,  // measure 27
00000000
00000000
00000000
00000000
,  // measure 28
00000100
00000000
00000000
00000000
,  // measure 29
00001000
00000000
00000000
00000000
,  // measure 30
00000000
00000000
00000000
00000000
,  // measure 31
00000001
00000000
00000000
00000000
,  // measure 32
00001000
00000000
00000000
00000000
,  // measure 33
00000001
00000000
00000000
00000000
,  // measure 34
00000000
00000000
00000000
00000000
,  // measure 35
00000000
00000000
00000000
00000000
,  // measure 36
00000100
00000000
00000000
00000000
,  // measure 37
00001000
00000000
00000000
00000000
,  // measure 38
00000000
00000000
00000000
00000000
,  // measure 39
00000000
00000000
00000000
00000000
,  // measure 40
00010000
00000000
00000000
00000000
,  // measure 41
01000000
00000000
00000000
00000000
,  // measure 42
00000000
00000000
00000000
00000000
,  // measure 43
00000000
00000000
00000000
00000000
,  // measure 44
10000000
00000000
00000000
00000000
,  // measure 45
00010000
00000000
00000000
00000000
,  // measure 46
00100000
00000000
00000000
00000000
,  // measure 47
00001000
00000000
00010000
00000000
,  // measure 48
00001000
00000000
00000000
00000000
,  // measure 49
00011000
00000000
00000000
00000000
,  // measure 50
00000000
00000000
00000000
00000000
,  // measure 51
00000100
00000000
00000000
00000000
,  // measure 52
00000000
00000000
00000000
00000000
,  // measure 53
00000001
00000000
00000000
00000000
,  // measure 54
00000000
00000000
00000000
00000000
,  // measure 55
00000100
00000000
00000000
00000000
,  // measure 56
00000000
00000000
00000000
00000000
,  // measure 57
00001000
00000000
00000000
00000000
,  // measure 58
00000000
00000000
00000000
00000000
,  // measure 59
00010000
00000000
00000000
00000000
,  // measure 60
00000000
00000000
00000000
00000000
,  // measure 61
01000000
00000000
00000000
00000000
,  // measure 62
00000000
00000000
00000000
00000000
,  // measure 63
10000000
00000000
00000000
00000000
,  // measure 64
00000000
00000000
00000000
00000000
,  // measure 65
00010000
00000000
00000000
00000000
,  // measure 66
00000000
00000000
00000000
00000000
,  // measure 67
00100000
00000000
00000000
00000000
,  // measure 68
00000000
00000000
00000000
00000000
,  // measure 69
00001000
00000000
00000000
00000000
,  // measure 70
00000000
00000000
00000000
00000000
,  // measure 71
00010000
00000000
00000000
00000000
,  // measure 72
00000000
00000000
00000000
00000000
,  // measure 73
00000100
00000000
00000000
00000000
,  // measure 74
00000000
00000000
00000000
00000000
,  // measure 75
00001000
00000000
00000000
00000000
,  // measure 76
00000000
00000000
00000000
00000000
,  // measure 77
00000100
00000000
00000000
00000000
,  // measure 78
00010000
00000000
00000000
00000000
,  // measure 79
00001000
00000000
00010000
00000000
,  // measure 80
00001000
00000000
00000000
00000000
,  // measure 81
00011000
00000000
00000000
00000000
,  // measure 82
00000000
00000000
00000000
00000000
,  // measure 83
00000000
00000000
00000000
00000000
,  // measure 84
00001000
00000000
00010000
00000000
,  // measure 85
01000000
00000000
10000000
10000000
,  // measure 86
00000000
00000000
00000000
01000000
,  // measure 87
00000000
00000000
00000000
00010000
,  // measure 88
00000000
00000000
00000000
00001000
,  // measure 89
00000000
00000000
00000000
00000100
,  // measure 90
00000000
00000000
00000000
00001000
,  // measure 91
00000000
00000000
00000000
00010000
,  // measure 92
00000000
00000000
00000000
01000000
,  // measure 93
00000000
00000000
00000000
00010000
,  // measure 94
00000000
00000000
00000000
00001000
,  // measure 95
00000000
00000000
00000000
00000010
,  // measure 96
00000000
00000000
00000000
00001000
,  // measure 97
00000000
00000000
00000000
00010000
,  // measure 98
00000000
00000000
00000000
00100000
,  // measure 99
00000000
00000000
00000000
00010000
,  // measure 100
00000000
00000000
00000000
00001000
,  // measure 101
00000000
00000000
00000000
00000100
,  // measure 102
00000000
00000000
00000000
00000001
,  // measure 103
00000000
00000000
00000000
00000010
,  // measure 104
00000000
00000000
00000000
00001000
,  // measure 105
00000000
00000000
00000000
00010000
,  // measure 106
00000000
00000000
00000000
01000000
,  // measure 107
00000000
00000000
00000000
10000000
,  // measure 108
00000000
00000000
00000000
00010000
,  // measure 109
00000000
00000000
00000000
10010000
,  // measure 110
00000000
00000000
00000000
00000000
,  // measure 111
00000000
00000000
00000000
10000000
,  // measure 112
00000000
00000000
00000000
01000000
,  // measure 113
00000000
00000000
00000000
00010000
,  // measure 114
00000000
00000000
00000000
00001000
,  // measure 115
00000000
00000000
00000000
00000100
,  // measure 116
00000000
00000000
00000000
00000001
,  // measure 117
00000000
00000000
00000000
00001001
;

//---------------dance-single - ----------------
#NOTES:
     dance-single:
     :
     Challenge:
     10:
     0.771,1.000,0.351,0.170,0.000:
0000
0000
0000
0000
,
0000
0000
0000
0000
,
0000
0000
0000
0000
,
0000
0000
0000
0000
,
0000
0000
0000
0000
,
0000
0000
0000
0000
,
0000
0000
0000
0000
,
0000
0000
0001
0000
0001
0000
0001
1000
,
0010
0000
0100
0000
,
0001
0000
1000
0000
,
0100
0000
0010
0000
,
0100
0000
1000
0000
,
0001
0000
0100
0000
,
0010
0000
1000
1000
,
0000
0000
0000
0000
,
0000
0000
0001
0100
0001
0010
0100
1000
,
0001
0100
0001
0010
,
0001
1000
0100
1000
,
0010
0100
0001
1000
,
0001
0000
0000
0001
0000
0000
0100
0000
,
0001
1000
0100
0001
,
0100
1000
0001
0100
,
0010
1000
0001
0100
,
0001
0000
0000
0001
0000
0000
0001
0000
,
0001
0100
0001
1000
0001
0010
0100
1000
,
0001
1000
0010
1000
0100
0010
0001
1000
,
0010
0100
0001
0010
0100
1000
0001
0010
,
0100
1000
0001
1000
0010
0100
0001
1000
,
0100
1000
0001
0100
,
0010
1000
0100
0010
,
0011
0000
1001
0000
1100
0000
0010
0001
,
1000
0000
0110
0000
,
1001
1000
0010
0001
,
0010
1000
0001
0100
,
1000
0100
0001
0010
,
0001
0000
0000
0001
0000
0000
0100
0000
,
0020
0000
0000
0000
,
0000
0000
0000
0000
,
0000
1030
0000
1000
,
0010
0000
0000
0010
0000
0000
0100
0000
,
1001
0010
0100
0001
,
1000
0100
0001
0100
,
1000
0010
0100
0001
,
0010
0000
0000
0010
0000
0000
0100
0000
,
1001
0000
0000
0100
,
1001
0000
0000
0100
,
1001
0100
0010
1000
,
0001
0000
0010
0000
0100
1000
0001
0100
,
0010
0000
1000
0000
,
0001
0000
0100
0000
,
0001
0000
1000
0000
,
0100
0000
1000
0000
,
0001
0000
0100
0000
,
0001
0000
1000
0000
,
0010
0000
0100
0100
,
0100
0000
0000
0000
0001
0000
0010
0100
,
1000
0010
0000
1000
,
0000
0001
0000
0010
,
0000
0001
0000
1000
,
0000
0010
0000
1000
,
0000
0001
0000
0010
,
0000
0001
0000
1000
,
1100
0011
0101
1010
,
1001
0110
0000
0000
,
1001
0000
0001
0100
0001
0000
0100
0010
,
0100
0000
0010
1000
0010
0000
1000
0100
,
1000
0000
0100
0001
0100
0000
0001
0100
,
1000
0000
0001
0100
0001
0000
1000
0010
,
1000
0000
0001
0010
0001
0000
1000
0100
,
1000
0000
0010
0100
0001
0000
0010
0100
,
1000
0000
0001
0100
0001
0000
1000
0010
,
1000
0000
0001
1000
0100
0000
1000
0001
,
0100
0001
0100
0001
1000
0001
0010
0001
,
1000
0100
1000
0010
1000
0001
1000
0010
,
0100
0010
0001
0010
1000
0100
0010
0100
,
0001
0100
1000
0100
0010
1000
0001
0100
,
0020
0000
0031
0000
,
0012
0000
0103
0000
,
2010
3100
1002
0203
,
0320
0030
0020
0030
,
2002
0000
0000
0000
,
0000
0000
0000
0000
,
0000
0000
3003
0200
,
0001
0000
1000
0000
0010
0000
0002
0300
,
0010
0000
1000
0100
1000
0010
2000
0003
,
0000
0001
0000
0000
0010
0000
0000
0000
,
0000
0000
0000
0000
,
0000
0000
0000
0001
0000
0000
0010
0000
,
0000
0001
0000
0000
0100
0000
0020
3000
,
0000
1000
0000
0000
0001
0000
0100
0000
,
0000
1000
0000
0000
0100
0000
0001
0000
,
0000
1000
0000
0000
0001
0000
1000
0000
,
0000
0100
0000
0000
0030
0000
1001
0000
,
0000
0000
0001
1000
0100
0010
0001
0010
,
0001
1000
0100
1000
0100
1000
0001
1000
,
0001
0100
0001
0100
0001
1000
0010
1000
,
0010
1000
0100
1000
0100
0010
0001
1000
,
0100
1000
0001
0100
0010
1000
0001
0010
,
0100
1000
0100
0010
0001
0100
0010
1000
,
0100
0010
0001
0100
0001
1000
0001
0100
,
0001
1000
0100
0010
0100
1000
0001
0100
,
0010
1000
0001
0100
0001
0100
0010
1000
,
0100
0010
0001
0100
0010
1000
0001
0010
,
0100
1000
0001
0010
0001
1000
0100
1000
,
0001
0100
0001
1000
0010
0100
0001
1000
,
0100
0010
0001
0100
0010
1000
0100
0010
,
0001
0100
0001
1000
0010
0100
0001
0010
,
0100
0010
0100
1000
0001
0100
0010
1000
,
0001
0010
0001
0100
1000
0100
0001
0000
,
0000
0001
0000
0000
0100
0000
0001
0010
,
0000
0010
0100
0000
1000
0000
0010
0000
,
0000
0010
0000
0000
0100
0000
0001
0000
,
0000
0001
0000
0000
0011
0000
0110
0000
,
0000
0010
0000
0000
0110
0000
1100
0000
,
0000
1000
0000
0000
1001
0000
1010
0000
,
0000
0110
0000
0000
0101
0000
1001
0000
,
0000
0011
0000
0000
0110
0000
2002
0000
,
0000
0000
0000
0000
,
0000
0000
0000
3003
;
