#TITLE:Standing Still In Time;
#SUBTITLE:;
#ARTIST:Neuropa;
#TITLETRANSLIT:;
#SUBTITLETRANSLIT:;
#ARTISTTRANSLIT:;
#CREDIT:;
#BANNER:Standing Still In Time.png;
#BACKGROUND:Standing Still In Time-bg.png;
#LYRICSPATH:;
#CDTITLE:./CDTITLES/DANCE DANCE REVOLUTION ULTRAMIX 2.PNG;
#MUSIC:Standing Still In Time.ogg;
#OFFSET:0.000;
#SAMPLESTART:21.932;
#SAMPLELENGTH:15.000;
#SELECTABLE:YES;
#BPMS:0.000=141.988;
#STOPS:;
#BGCHANGES:;

//---------------dance-single - ----------------
#NOTES:
     dance-single:
     :
     Beginner:
     1:
     0.143,0.136,0.056,0.000,0.000:
0000
0000
0000
0000
,
0000
0000
0000
0000
,
0000
0000
0000
0000
,
0000
0000
0000
0000
,
0000
0000
0000
0000
,
1000
0000
1000
0000
,
1000
0000
1000
0000
,
0001
0000
0001
0000
,
0001
0000
0001
0000
,
0100
0000
0100
0000
,
0100
0000
0100
0000
,
0010
0000
0010
0000
,
0010
0000
0010
0000
,
1000
0000
1000
0000
,
0001
0000
0001
0000
,
1000
0000
1000
0000
,
0001
0000
0001
0000
,
0100
0000
0100
0000
,
0100
0000
0100
0000
,
0010
0000
0010
0000
,
0010
0000
0010
0000
,
1000
0000
1000
0000
,
1000
0000
1000
0000
,
0001
0000
0001
0000
,
0001
0000
0001
0000
,
1000
0000
1000
0000
,
0001
0000
0001
0000
,
0010
0000
0010
0000
,
0100
0000
0100
0000
,
1000
0000
1000
0000
,
0001
0000
0001
0000
,
0010
0000
0010
0000
,
0100
0000
0100
0000
,
0110
0000
0000
0000
,
1000
0000
0001
0000
,
0110
0000
0000
0000
,
0010
0000
0100
0000
,
1001
0000
0000
0000
,
0010
0000
0010
0000
,
1001
0000
0000
0000
,
0010
0000
0010
0000
,
1000
0000
1000
0000
,
0001
0000
0001
0000
,
1000
0000
0001
0000
,
1000
0000
0001
0000
,
0010
0000
0010
0000
,
0100
0000
0100
0000
,
0010
0000
0100
0000
,
0010
0000
0100
0000
,
1001
0000
0000
0000
;

//---------------dance-single - ----------------
#NOTES:
     dance-single:
     :
     Easy:
     2:
     0.261,0.249,0.056,0.111,0.000:
0000
0000
0000
0000
,
0000
0000
0000
0000
,
0000
0000
0000
0000
,
0000
0000
0000
0000
,
0000
0000
0000
0000
,
1000
1000
1000
1000
,
1000
1000
1000
1000
,
0001
0001
0001
0001
,
0001
0001
0001
0001
,
0100
0100
0100
0100
,
0100
0100
0100
0100
,
0010
0010
0010
0010
,
0010
0010
0010
0010
,
1000
0000
1000
0000
,
0001
0000
0001
0000
,
1000
0000
1000
0000
,
0001
0000
0001
0000
,
0100
0100
0100
0100
,
0100
0100
0100
0100
,
0010
0010
0010
0010
,
0010
0010
0010
0010
,
1000
1000
1000
1000
,
1000
1000
1000
1000
,
0001
0001
0001
0001
,
0001
0001
0001
0001
,
1000
0000
1000
0000
,
0001
0000
0001
0000
,
0010
0000
0010
0000
,
0100
0000
0100
0000
,
1000
1000
1000
1000
,
0001
0001
0001
0001
,
0010
0010
0010
0010
,
0100
0100
0100
0100
,
0220
0000
0000
0330
,
1000
1000
0001
0001
,
0220
0000
0000
0330
,
0010
0010
0100
0100
,
2002
0000
0000
3003
,
0010
0100
0010
0100
,
2002
0000
0000
3003
,
0010
0100
0010
0100
,
1000
1000
1000
1000
,
0001
0001
0001
0001
,
1000
1000
0001
0001
,
1000
1000
0001
0001
,
0010
0010
0010
0010
,
0100
0100
0100
0100
,
0010
0010
0100
0100
,
0010
0010
0100
0100
,
2002
0000
0000
3003
;

//---------------dance-single - ----------------
#NOTES:
     dance-single:
     :
     Medium:
     4:
     0.326,0.360,0.379,0.234,0.000:
0000
0000
0000
0000
,
0000
0000
0000
0000
,
0000
0000
0000
0000
,
0000
0000
0000
0000
,
0000
0000
0000
0000
,
1001
0010
0001
0100
,
1001
1000
0010
0001
,
1001
0001
0100
1000
,
1001
0010
0001
0100
,
1001
0000
0100
0000
2000
0100
3000
0000
,
0002
0100
0003
0000
0101
0000
0000
0000
,
1100
0000
0101
0000
0100
0001
0000
0000
,
0001
0100
0000
0000
1001
0000
0000
0000
,
0002
0000
0000
1000
0000
0000
0003
0000
,
2000
0000
0000
0001
0000
0000
3000
0000
,
0002
0000
0000
1000
0000
0000
1003
0100
,
0000
1000
0001
1000
,
1001
0000
0001
0000
1000
0000
0100
0001
,
0000
0000
0001
0010
0000
0000
1001
0000
,
0000
0000
2000
0100
3000
0000
0002
0100
,
0003
0000
0101
0000
0000
0000
0100
0100
,
0000
0000
0100
0100
0000
0000
0101
0000
,
1100
0101
1100
0101
,
0010
0010
0100
0100
,
0001
0001
0001
0000
0000
0000
1000
0000
,
1000
0001
0001
1001
,
0100
0000
1000
1000
1000
0000
0000
0000
,
0200
0000
0300
0000
0100
1000
0100
0000
,
0001
1000
0001
1001
,
0010
0000
0001
0200
0000
0000
0300
0000
,
0110
1000
0001
1000
,
0100
0100
0000
0000
0010
0010
0000
0000
,
1010
0000
0000
1000
0000
0000
0100
0000
,
0202
0000
0000
0303
,
0010
0000
0000
0001
0000
0000
0101
0000
,
0220
0000
0000
0330
,
0100
0000
0000
0010
0000
0000
0101
0000
,
2002
0000
0000
3003
,
0100
0000
0000
0010
0000
0000
1001
0000
,
2200
0000
0000
3300
,
0010
0000
0000
0000
0010
0100
0010
0000
,
1000
0001
1000
0001
,
0100
0100
0000
0100
0000
0000
1001
0000
,
0020
0000
0000
0000
0100
0100
0030
0000
,
0110
0000
0000
0000
1000
0001
1000
0000
,
1001
0010
0100
0010
,
1000
0001
0000
0100
0000
0000
0120
0000
,
0000
0100
0130
0000
1000
0001
0010
0000
,
1001
0000
0000
0100
0000
0000
0100
0000
,
0202
0000
0000
0303
;

//---------------dance-single - ----------------
#NOTES:
     dance-single:
     :
     Hard:
     5:
     0.410,0.443,0.223,0.200,0.000:
0000
0000
0000
0000
,
0000
0000
0000
0000
,
0000
0000
0000
0000
,
0000
0000
0000
0000
,
0000
0000
0000
0000
,
1001
0000
1000
0100
0000
0000
0000
0010
,
0100
0000
1000
0100
0000
0000
0000
0100
,
0001
0000
0010
0001
0100
0000
0000
0100
,
1000
0000
0100
0001
0000
1001
0000
1000
,
0100
0000
0001
0001
0000
0000
0000
0010
,
0100
0000
1000
1000
0000
0000
0000
0001
,
1000
0000
0100
0010
0100
0000
0000
1000
,
0001
0000
0010
0100
0000
1000
0000
1000
,
0020
0000
0000
0200
0000
0000
0030
0000
,
0302
0000
0000
2000
0000
0000
0003
0000
,
3020
0000
0000
2000
0030
0000
0001
0000
,
3002
0000
0000
2003
0000
0000
3010
0000
,
0010
0100
1000
0100
0001
0100
0100
0000
,
0010
0100
0001
0100
0001
1000
1000
0000
,
0010
0001
1000
0000
0010
1000
0001
0000
,
0010
1000
0100
1000
0010
0100
0100
0000
,
0110
0000
1001
0000
0010
0001
0100
0000
,
0100
0001
0010
0000
0001
1000
0100
0000
,
1100
0000
0101
0000
0001
0010
0001
0000
,
1000
0001
1000
0100
1000
0010
0100
0000
,
1001
0000
0110
0000
1000
0100
0010
0000
,
0010
0001
0100
1000
0000
1000
0100
0001
,
0010
0000
0110
0000
0010
1000
0010
0000
,
0100
0001
0100
0001
1000
0100
0100
0000
,
0010
0001
0100
0000
0010
1000
0001
0000
,
0010
1000
0100
1000
0001
0100
0100
0000
,
0001
1000
0100
0010
0100
1000
0010
1000
,
0001
0200
0000
0302
0000
2000
0003
0000
,
3010
0100
0000
0100
0010
0000
0010
1000
,
0100
0001
0000
0200
0000
0000
0300
0000
,
0010
0001
0000
0100
1000
0000
0100
0010
,
0001
0100
0000
0002
0000
0000
0003
0000
,
1000
0001
0000
0001
1000
0000
0001
0010
,
0100
1000
0000
0020
0000
0000
0030
0000
,
0100
0010
0000
0010
1000
0000
1000
0100
,
0001
0100
0000
0000
1000
0010
0100
0010
,
0100
1010
0101
1100
,
0100
0001
0000
0110
0000
1001
0000
0001
,
1000
0000
0010
0000
0100
0010
0000
2002
,
0000
0000
3003
0000
0001
0100
0001
1000
,
0010
1010
1001
0101
,
0100
1000
0000
1100
0000
0101
0000
0010
,
0100
0000
0001
0000
1000
0100
0010
0100
,
0000
0000
0000
2000
0000
0000
3001
0000
,
0200
0000
0000
0300
;

//---------------dance-double - ----------------
#NOTES:
     dance-double:
     :
     Beginner:
     1:
     0.138,0.160,0.011,0.000,0.000:
00000000
00000000
00000000
00000000
,
00000000
00000000
00000000
00000000
,
00000000
00000000
00000000
00000000
,
00000000
00000000
00000000
00000000
,
00000000
00000000
00000000
00000000
,
10000000
00000000
00010000
00000000
,
01000000
00000000
00001000
00000000
,
00010000
00000000
00000100
00000000
,
00001000
00000000
00000001
00000000
,
00000010
00000000
00000100
00000000
,
00000010
00000000
00000100
00000000
,
00000100
00000000
00001000
00000000
,
00001000
00000000
00010000
00000000
,
10000000
00000000
00010000
00000000
,
10000000
00000000
00010000
00000000
,
10000000
00000000
00010000
00000000
,
10000000
00000000
00010000
00000000
,
10000000
00000000
01000000
00000000
,
00010000
00000000
01000000
00000000
,
00100000
00000000
00010000
00000000
,
01000000
00000000
00010000
00000000
,
00001000
00000000
00010000
00000000
,
00001000
00000000
00010000
00000000
,
00001000
00000000
00000010
00000000
,
00001000
00000000
00000100
00000000
,
00000001
00000000
00000100
00000000
,
00001000
00000000
00000100
00000000
,
00001000
00000000
00000100
00000000
,
00000100
00000000
00010000
00000000
,
00010000
00000000
01000000
00000000
,
00001000
00000000
01000000
00000000
,
10000000
00000000
01000000
00000000
,
00010000
00000000
01000000
00000000
,
01000000
00000000
00000000
10000000
,
00000000
00100000
00000000
00010000
,
00000000
01000000
00000000
01000000
,
00000000
00001000
00000000
00001000
,
00000000
00010000
00000000
00010000
,
00000000
00000100
00000000
00000100
,
00000000
00001000
00000000
00000010
,
00000000
00000001
00000000
00000010
,
00000000
00000010
00000000
00000000
,
00000001
00000000
00001000
00000000
,
00010000
00000000
10000000
00000000
,
00010000
00000000
00010000
00000000
,
00010000
00000000
00010000
00000000
,
00100000
00000000
01000000
00000000
,
00010000
00000000
10000000
00000000
,
10010000
00000000
00000000
00000000
;

//---------------dance-double - ----------------
#NOTES:
     dance-double:
     :
     Easy:
     3:
     0.235,0.360,0.022,0.156,0.000:
00000000
00000000
00000000
00000000
,
00000000
00000000
00000000
00000000
,
00000000
00000000
00000000
00000000
,
00000000
00000000
00000000
00000000
,
00000000
00000000
00000000
00000000
,
10000000
01000000
00010000
00000000
,
01000000
00010000
00001000
00000000
,
00010000
00001000
00000100
00000000
,
00001000
00000100
00000001
00000000
,
00000010
00000001
00000100
00000000
,
00000010
00001000
00000100
00000000
,
00000100
00010000
00001000
00000000
,
00001000
01000000
00010000
00000000
,
20000000
31000000
00020000
01030000
,
20000000
30100000
00020000
00130000
,
20000000
31000000
00020000
01030000
,
20000000
30100000
00020000
00130000
,
10000000
00000000
01000000
01000000
,
00010000
00000000
01000000
01000000
,
00100000
00000000
00010000
00010000
,
01000000
00000000
00010000
00010000
,
00001000
00000000
00010000
00010000
,
00001000
00000000
00010000
00010000
,
00001000
00000000
00000010
00000010
,
00001000
00000000
00000100
00000100
,
00000001
00001000
00000100
00000000
,
00001000
00000010
00000100
00000000
,
00001000
00010000
00000100
00000000
,
00000100
00001000
00010000
00000000
,
00010000
00001000
01000000
00000000
,
00001000
00010000
01000000
00000000
,
10000000
00010000
01000000
00000000
,
00010000
00100000
01000000
00000000
,
02000000
00100000
00000000
10000000
,
00000000
00100000
00000000
03010000
,
00020000
01000000
00000000
01000000
,
00000000
00001000
00000000
00031000
,
00002000
00010000
00000000
00010000
,
00000000
00000100
00000000
00003100
,
00000200
00001000
00000000
00000010
,
00000000
00000001
00000000
00000310
,
00000010
00000010
00000010
00000000
,
00000001
00000100
00001000
00000000
,
00010000
00100000
10000000
01000000
,
00010000
00000000
00010000
10010000
,
00010000
00010000
00010000
00000000
,
00100000
10000000
01000000
00000000
,
00010000
00100000
10000000
01000000
,
20020000
00000000
00000000
00000000
,
00000000
00000000
00000000
30030000
;

//---------------dance-double - ----------------
#NOTES:
     dance-double:
     :
     Medium:
     4:
     0.280,0.305,0.056,0.178,0.000:
00000000
00000000
00000000
00000000
,
00000000
00000000
00000000
00000000
,
00000000
00000000
00000000
00000000
,
00000000
00000000
00000000
00000000
,
00000000
00000000
00000000
00000000
,
00000010
00000001
00001000
00000100
,
00010000
00001000
01000000
00010000
,
10000000
00100000
01000000
00010000
,
00100000
00001000
00010000
00000100
,
00000010
00000100
00001000
00000001
,
00000100
00001000
00010000
01000000
,
00100000
01000000
10000000
00010000
,
00100000
01000000
00010000
00001000
,
00002000
00003000
00000200
00000300
,
00000020
00000030
00000002
00000003
,
00000020
00000030
00002000
00003000
,
00000001
00001000
00000100
00000010
,
00000001
00000000
00000100
00001000
,
00010000
00000000
00100000
10000000
,
01000000
00000000
00010000
00001000
,
00000010
00000000
00000001
00001000
,
00000001
00000000
00001000
00000001
,
00000100
00000000
00001000
00010000
,
00001000
00000000
00010000
00100000
,
10000000
00000000
00010000
10000000
,
01000000
00000000
10000000
00100000
,
00010000
00000000
00100000
00010000
,
00001000
00000000
00010000
00001000
,
00000100
00000000
00001000
00000100
,
00000001
00000000
00000001
00000010
,
00001000
00000000
00000010
00001000
,
00010000
00000000
00001000
00010000
,
01000000
00000000
00010000
01000000
,
20000000
31000000
00020000
01030000
,
20000000
30100000
00020000
00130000
,
00010000
00001000
00001000
00010000
,
00000100
00001000
00000001
00000010
,
00000002
00000103
00002000
00003100
,
00000002
00000013
00002000
00003010
,
00001000
00010000
00010000
00001000
,
01000000
00010000
10000000
00100000
,
10000000
10000000
10000000
01100000
,
00010000
00010000
00010000
01100000
,
00100000
00010000
00001000
00000010
,
00001000
00000001
00000100
00000010
,
00000001
00000001
00000001
00000110
,
00001000
00001000
00001000
00000110
,
00000100
00001000
00010000
01000000
,
00010000
10000000
00100000
01000000
,
20020000
00000000
00000000
30030000
;

//---------------dance-double - ----------------
#NOTES:
     dance-double:
     :
     Hard:
     5:
     0.329,0.360,0.134,0.178,0.000:
00000000
00000000
00000000
00000000
,
00000000
00000000
00000000
00000000
,
00000000
00000000
00000000
00000000
,
00000000
00000000
00000000
00000000
,
00000000
00000000
00000000
00000000
,
00010000
00000000
10000000
00010000
00000000
00000000
00000000
00000000
,
01000000
00000000
00001000
00010000
00000000
00000000
00000000
00000000
,
00001000
00000000
00000100
00000001
00000010
00000000
00000000
00000001
,
00001000
00000000
00000001
00001000
00000000
00000010
00000000
00000100
,
00000001
00000000
00001000
00000010
00000000
00000000
00000000
00000100
,
00000001
00000000
00001000
00000001
00000000
00000000
00000000
00000000
,
00000010
00000000
00001000
00010000
01000000
00000000
00000000
00010000
,
00001000
00000000
00010000
00001000
00000000
00010000
00000000
01000000
,
20000000
00000000
00000000
00020000
00000000
00000000
30030000
00000000
,
02000000
00000000
00000000
00002000
00000000
00000000
03003000
00000000
,
00020000
00000000
00000000
00000020
00030000
00000000
00001030
00000000
,
00001000
00000000
00000000
00000100
00000000
00000000
00001000
00000000
,
00000001
00000100
00000010
00000000
00001000
00000000
00000100
00000000
,
00010000
00001000
00010000
00000000
01000000
00000000
00100000
00000000
,
10010000
00010000
10010000
10000000
,
00100000
10000000
00010000
00000000
01000000
00000000
00010000
00000000
,
00000000
10000000
10000000
01000000
00000000
00000000
00000000
00100000
,
00100000
00010000
00000000
00000000
00000000
00001000
00001000
00000100
,
00000000
00000000
00000000
00000010
00000010
00000001
00000000
00000000
,
00000010
00000100
00000010
00000100
,
00001000
00000000
00000001
00000000
00001000
00000100
00001000
00000000
,
00000001
00000000
00001000
00000000
00000001
00000100
00000001
00000000
,
00001000
00000000
00001001
00000000
00000010
00000001
00000100
00000000
,
00000001
00000100
00001000
00000000
00000100
00001000
00010000
00000000
,
00001000
00011000
00010000
01010000
,
01000000
11000000
10000000
10010000
,
00100000
00000000
01000000
00000000
00010000
10000000
00010000
00000000
,
01000000
00000000
00001000
00020000
00000000
00000000
00031000
00000000
,
00012000
00000000
00000100
00000100
,
00003100
00000000
00000000
00000002
00000000
00000000
00000013
00000000
,
00000021
00000000
00000100
00000100
00000000
00000000
00000001
00000000
,
00000031
00000000
00000000
00002000
00000000
00000000
00003100
00000000
,
00001200
00000000
00010000
00010000
,
00010300
00000000
00000000
00002000
00000000
00000000
00013000
00000000
,
00021000
00000000
00000000
00001000
,
00001000
00000000
00031000
00000000
00010000
01000000
10000000
01000000
,
00100000
00010000
10000000
00010000
,
00100000
00001000
00000000
00010000
00000000
00010000
00000000
00001000
,
00000100
00000000
00000001
00000000
00001000
00000001
00000000
00000100
,
00000000
00000000
00000000
00000000
00000001
00000100
00001000
00000100
,
00000010
00001000
00000001
00001000
,
00000010
00000100
00000000
00000001
00000000
00000100
00000000
00001000
,
00010000
00000000
00001000
00000000
00010000
01000000
10000000
00010000
,
00000000
00000000
00000000
00010000
00000000
00000000
10000000
00000000
,
20020000
00000000
00000000
30030000
;

//---------------dance-double - ----------------
#NOTES:
     dance-double:
     :
     Challenge:
     7:
     0.455,0.473,0.189,0.290,0.000: // measure 1
00000000
00000000
00000000
00000000
,  // measure 2
00000000
00000000
00000000
00000000
,  // measure 3
00000000
00000000
00000000
00000000
,  // measure 4
00000000
00000000
00000000
00000000
,  // measure 5
00000000
00000000
00000000
00000000
,  // measure 6
00010000
00000000
10000000
00010000
00000000
00000000
00000000
01000000
,  // measure 7
00001000
00000000
00010000
00001000
00000000
00000000
00000000
00000100
,  // measure 8
00000001
00000010
00000001
00001000
00000001
00000000
00000000
00001000
,  // measure 9
00000010
00000000
00000100
00000001
00000000
00001000
00000000
00000010
,  // measure 10
00000100
00000000
00000001
00001000
00000000
00000000
00000000
00000001
,  // measure 11
00000010
00000000
00001000
00010000
00000000
00000000
00000000
01000000
,  // measure 12
00010000
00001000
00010000
00001000
00010000
00000000
00000000
01000000
,  // measure 13
10000000
00000000
00010000
01000000
00000000
00001000
00000000
00010000
,  // measure 14
00000020
00000000
00000000
00002000
00000000
00000000
00000030
00000000
,  // measure 15
00003200
00000000
00000000
00002000
00000000
00000000
00000300
00000000
,  // measure 16
00003002
00000000
00000000
00000200
00000003
00000000
00000320
00000000
,  // measure 17
00002000
00000000
00000000
00003030
,  // measure 18
00000001
00000100
00000001
00001000
00000001
00000010
00000001
00000100
,  // measure 19
00000010
00000100
00001000
00000100
00000010
00000100
00001000
00010000
,  // measure 20
00001000
00100000
00001000
00010000
00000010
00010000
00001000
00100000
,  // measure 21
00001000
00100000
01000000
00010000
01000000
00100000
01000000
10000000
,  // measure 22
00010000
00100000
00010000
10000000
00010000
01000000
00010000
00100000
,  // measure 23
01000000
10000000
01000000
00010000
00001000
00010000
01000000
10000000
,  // measure 24
00010000
01000000
00001000
00010000
00001000
00100000
00010000
01000000
,  // measure 25
00001000
00010000
00000010
00001000
00000100
00010000
00001000
00000100
,  // measure 26
00000001
00000100
00000010
00010000
00001000
00000100
00000010
00010000
,  // measure 27
00001000
00000100
00000001
00000010
00001000
00010000
01000000
10000000
,  // measure 28
01000000
00100000
00001000
00010000
01000000
00100000
00001000
00010000
,  // measure 29
01000000
10000000
01000000
00010000
00001000
00000010
00000001
00000010
,  // measure 30
00001000
00000010
00001000
00010000
01000000
10000000
01000000
00010000
,  // measure 31
00001000
00000010
00001000
00000010
00000001
00000100
00001000
00010000
,  // measure 32
00100000
10000000
00100000
00010000
00100000
00010000
00001000
00000100
,  // measure 33
00000010
00000100
00000001
00000100
00001000
00010000
00100000
00000000
,  // measure 34
10020000
01000000
00100000
10000000
,  // measure 35
02030000
03200000
00320000
00031000
,  // measure 36
00002001
00000100
00000010
00000001
,  // measure 37
00003200
00000320
00000032
00001003
,  // measure 38
00021000
00000010
00100000
00000010
,  // measure 39
00230000
00320000
00032000
00013000
,  // measure 40
00012000
01000000
00000100
01000000
,  // measure 41
00003200
00000000
00000302
00000000
00001003
00000100
00000001
00000100
,  // measure 42
00000010
00000011
00000101
00001100
,  // measure 43
00001000
00010000
00000000
00011000
00000000
00011000
00000000
00010000
,  // measure 44
00100000
00000000
10100000
00000000
10000000
00010000
00000000
11000000
,  // measure 45
00000000
00000000
00000000
00000000
10000000
01000000
00010000
01000000
,  // measure 46
00100000
01100000
00011000
00000110
,  // measure 47
00000010
00000100
00000000
00001001
00000000
00000110
00000000
00001000
,  // measure 48
00010000
00000000
00011000
00000000
00100000
01000000
10000000
00100000
,  // measure 49
00000000
00000000
00000000
20000000
00000000
00000000
30020000
00000000
,  // measure 50
20000000
00000000
00000000
00000000
,  // measure 51
30030000
00000000
00000000
00000000
;
