#TITLE:special energy;
#SUBTITLE:(CLUB ANOTHER VER.);
#ARTIST:DJ FX;
#TITLETRANSLIT:;
#SUBTITLETRANSLIT:;
#ARTISTTRANSLIT:;
#CREDIT:;
#BANNER:special energy (CLUB ANOTHER VER.).png;
#BACKGROUND:special energy (CLUB ANOTHER VER.)-bg.png;
#LYRICSPATH:;
#CDTITLE:Dance Dance Revolution 2nd Append -Club v2-.png;
#MUSIC:special energy (CLUB ANOTHER VER.).mp3;
#OFFSET:-0.054;
#SAMPLESTART:54.600;
#SAMPLELENGTH:12.000;
#SELECTABLE:YES;
#DISPLAYBPM:140.000;
#BPMS:0.000=140.260;
#STOPS:;
#BGCHANGES:;

//---------------dance-single - ----------------
#NOTES:
     dance-single:
     :
     Easy:
     5:
     0.257,0.304,0.013,0.000,0.120:
0000
0000
0000
0000
,
0000
0000
0000
0000
,
0000
0000
0000
0000
,
0000
0001
0000
0001
,
0000
0001
0000
0100
,
0000
0001
0000
0100
,
0000
0001
0000
0100
,
0000
1000
0000
0100
,
0001
0100
1000
0100
,
0001
0100
1000
0100
,
0001
0100
1000
0010
,
0001
0100
1000
0010
,
0000
0100
0000
0100
,
0010
0010
0100
0100
,
0010
1000
0010
0100
,
0010
0001
0010
0100
,
1010
0000
0000
0010
0100
0000
0010
0010
,
0010
0000
0000
0000
0000
0000
0010
0000
0100
0000
0000
0100
0000
0000
0100
0000
,
0000
0000
0000
0000
0000
0000
0001
0000
1000
0000
0000
1000
0000
0000
1000
0000
,
0000
0000
0000
0000
0000
0000
1000
0000
0001
0000
0000
0001
0000
0000
0001
0000
,
0000
0000
0000
0000
0010
0000
0000
0000
0001
0000
0000
0100
0000
0000
1000
0000
,
0000
0000
0000
0000
0010
0000
0000
0000
1000
0000
0000
0100
0000
0000
0001
0000
,
0000
0000
1000
0000
0001
0001
0001
0001
,
0000
0000
0000
0000
0001
0000
0000
0000
1000
0000
0000
1000
0000
0000
1000
0000
,
0000
0001
0000
1000
,
0001
0100
1000
0100
,
0000
0000
0000
0000
0010
0000
0000
0000
0100
0000
0000
0100
0000
0000
0100
0000
,
0000
0100
0000
0100
,
0000
0000
0000
0001
0000
0000
0000
1000
,
0000
0000
0000
0010
0000
0000
0000
0100
,
0000
0001
0000
1000
0000
0010
0000
0100
,
0000
0000
0000
0000
,
0000
0000
0000
0000
0000
0000
0000
0000
1000
0000
0000
0001
0000
0000
0001
0000
,
0000
0000
0000
0000
0100
0000
0000
0000
0001
0000
0000
1000
0000
0000
1000
0000
,
0000
0000
0000
0000
0010
0000
0000
0000
0001
0000
0000
1000
0000
0000
1000
0000
,
0000
0000
0000
0000
0010
0000
0000
0000
1000
0000
0000
0001
0000
0000
0001
0000
,
0000
0000
0000
0000
0100
0000
0000
0000
0010
0000
0000
0001
0000
0000
0100
0000
,
0000
0000
0000
0000
0100
0000
0000
0000
0010
0000
0000
1000
0000
0000
0100
0000
,
0000
0000
0000
0000
0001
0000
0000
0000
1000
0000
0000
0100
0000
0000
0100
0000
,
0000
0000
0000
0000
1000
0000
0000
0000
0001
0000
0000
0100
0000
0000
0100
0000
,
0000
0000
0000
0000
0100
0000
0000
0000
0010
0000
0000
0001
0000
0000
0100
0000
,
0000
0000
0000
0000
0100
0000
0000
0000
0010
0000
0000
1000
0000
0000
0100
0000
,
0000
0000
0000
0000
0100
0000
0000
0000
0010
0000
0000
1000
0000
0000
0100
0000
,
0000
0000
0000
0000
0100
0000
0000
0000
0010
0000
0000
0001
0000
0000
0100
0000
;

//---------------dance-single - ----------------
#NOTES:
     dance-single:
     :
     Medium:
     6:
     0.290,0.359,0.126,0.000,0.120:
0000
0000
0000
0000
,
0000
0000
0000
0000
,
0000
0000
0000
0000
,
0000
0001
0000
0001
,
0000
0001
0000
0100
,
0000
0001
0000
0100
,
0001
0100
0001
0100
,
0001
0100
0001
0100
,
0001
0100
1000
0100
,
0001
0100
1000
0100
,
0001
0100
1000
0010
,
0001
0100
1000
0010
,
0000
0100
0000
0001
,
0100
0001
0010
0010
,
1001
0010
0100
0001
,
0110
1000
0001
0100
,
1010
0000
0000
0001
0100
0000
1000
0100
,
0001
0000
0000
0000
0000
0000
0010
0000
1000
0000
0000
0100
0000
0000
0001
0000
,
0000
0000
0000
0000
0000
0000
0010
0000
0100
0000
0000
0010
0000
0000
0001
0000
,
0000
0000
0000
0000
0000
0000
0010
0000
0100
0000
0000
0010
0000
0000
1000
0000
,
0000
0000
0000
0000
1001
0000
0000
0000
0011
0000
0000
0100
0000
0000
1000
0000
,
0000
0000
0000
0000
1001
0000
0000
0000
1010
0000
0000
0100
0000
0000
0001
0000
,
0100
0000
1000
0001
1000
0100
0001
0100
,
0010
0000
0000
0000
0001
0000
1000
0000
0001
0000
0000
0010
0000
0000
1000
0000
,
0000
0010
0000
0100
,
0010
0100
1100
0100
,
0000
0000
0010
0000
1000
0000
0000
0000
0100
0000
0000
0100
0000
0000
0100
0000
,
0000
0100
0000
0100
,
0000
0000
0000
0001
0000
0000
0000
1000
,
0000
0000
0000
0010
0000
0000
0000
0100
,
0000
0001
0000
1000
0000
0010
0000
0100
,
0000
0000
0000
0000
,
0000
0000
0000
0000
0000
0000
0000
0000
1000
0000
0000
0001
0000
0000
0100
0000
,
0000
0000
0000
0000
1000
0000
0000
0000
0001
0000
0000
1000
0000
0000
1000
0000
,
0000
0000
0000
0000
0010
0000
0000
0000
0001
0000
0000
1000
0000
0000
0100
0000
,
0000
0000
0000
0000
0010
0000
0000
0000
1000
0000
0000
0001
0000
0000
0001
0000
,
0000
0000
0000
0000
0100
0000
0000
0000
0010
0000
0000
0001
0000
0000
0100
0000
,
0000
0000
0000
0000
0100
0000
0000
0000
0010
0000
0000
1000
0000
0000
1000
0000
,
0000
0000
0000
0000
1001
0000
0000
0000
0010
0000
0000
0001
0000
0000
0100
0000
,
0000
0000
0000
0000
1001
0000
0000
0000
0010
0000
0000
0010
0000
0000
0010
0000
,
0000
0000
0000
0000
0100
0000
0000
0000
0010
0000
0000
0001
0000
0000
0100
0000
,
0000
0000
0000
0000
0100
0000
0000
0000
0010
0000
0000
1000
0000
0000
1000
0000
,
0000
0000
0000
0000
0010
0000
0000
0000
0001
0000
0000
1000
0000
0000
0100
0000
,
0000
0000
0000
0000
0010
0000
0000
0000
1000
0000
0000
0001
0000
0000
0001
0000
;

//---------------dance-single - ----------------
#NOTES:
     dance-single:
     :
     Hard:
     7:
     0.414,0.498,0.391,0.000,0.126:
0000
0000
0000
0000
,
0000
0000
0000
0000
,
0000
0000
0000
0000
,
0001
0001
0001
0001
,
0000
0100
0001
0100
,
0001
0100
1000
0100
,
0001
0100
1000
0010
,
0001
0100
1000
0000
0001
0100
1000
0000
,
0001
1000
0100
0000
0001
1000
0100
0000
,
0010
0001
0100
0000
0010
0001
0100
0000
,
0001
0010
1000
0000
0001
0010
1000
0000
,
0010
0010
0010
0010
,
1001
0101
1000
0100
,
0011
0101
1000
0001
,
0010
1000
0010
0001
,
0100
1000
0100
0001
,
1100
0000
0000
0001
0100
0000
1000
0110
,
0001
0000
0000
0000
0000
0000
0100
0000
1010
0000
0000
0101
0000
0000
1001
0000
,
0110
0000
0000
0000
0000
0000
0010
0000
0101
0000
0000
0010
0000
0000
1000
0000
,
0110
0000
0000
0000
0000
0000
0010
0000
1100
0000
0000
0010
0000
0000
0001
0000
,
0011
0000
0000
0000
0110
0000
0000
0000
1010
0000
0000
1000
0000
0000
0100
0000
,
1010
0000
0000
0000
0110
0000
0000
0000
0011
0000
0000
0001
0000
0000
0100
0000
,
1001
0000
0110
1000
0100
0010
0001
1100
,
0010
0000
0000
0000
0001
0000
0100
0000
0001
0000
0000
0100
0000
0000
1000
0000
,
0010
1001
0010
0100
,
0001
0001
1100
0101
,
0000
0000
0010
0000
1000
0000
0001
0000
0010
0000
0000
0001
0000
0000
1000
0000
,
0000
0000
0100
0000
0001
0000
1000
0000
0100
0000
0000
1000
0000
0000
0001
0000
,
0000
0000
0000
0001
0000
0000
0000
1000
,
0000
0000
0000
0010
0000
0000
0000
0100
,
0000
1010
0000
1100
0000
0001
0000
0100
,
0000
0000
0000
0000
,
1010
0000
0000
0000
0101
0000
0000
0000
1000
0000
0000
0001
0000
0000
0100
0000
,
0110
0000
1000
0000
0100
0000
0000
0000
0001
0000
0000
1000
0000
0000
0100
0000
,
1000
0000
0001
0000
0010
0000
0000
0000
0100
0000
0000
0100
0000
0000
0100
0000
,
0010
0000
1000
0000
0001
0000
0000
0000
0100
0000
0000
0001
0000
0000
0001
0000
,
1000
0000
0000
0000
0010
0000
0000
0000
0100
0000
0000
0001
0000
0000
0010
0000
,
0110
0000
0001
0000
1000
0000
0000
0000
0001
0000
0000
0100
0000
0000
1000
0000
,
0100
0000
0001
0000
0100
0000
0000
0000
0010
0000
0000
1000
0000
0000
0001
0000
,
1000
0000
0100
0000
0001
0000
0000
0000
0010
0000
0000
0010
0000
0000
0010
0000
,
0100
0000
0000
0000
0010
0000
0000
0000
1000
0000
0000
0001
0000
0000
0010
0000
,
0001
0000
1000
0000
0010
0000
0000
0000
0001
0000
0000
0010
0000
0000
1000
0000
,
0010
0000
0100
0000
1000
0000
0000
0000
0001
0000
0000
0100
0000
0000
1000
0000
,
0010
0000
0100
0000
0001
0000
0000
0000
1000
0000
0000
0100
0000
0000
0001
0000
;

//---------------dance-double - ----------------
#NOTES:
     dance-double:
     :
     Easy:
     6:
     0.295,0.387,0.164,0.000,0.120:
00000000
00000000
00000000
00000000
,
00000000
00000000
00000000
00000000
,
00000000
00000000
00000000
00000000
,
00000000
10000000
00000000
10000000
,
00000000
10000000
00000000
01000000
,
00000000
10000000
00000000
01000000
,
10000000
01000000
00010000
00001000
,
00000100
00000001
00001000
00000001
,
00000010
00001000
00000010
00001000
,
00000010
00000001
00000100
00000100
,
00000001
00001000
00010000
10000000
,
00100000
01000000
10010000
01100000
,
00000000
10000000
00000000
01000000
,
10000000
00100000
00010000
01000000
,
00110000
11000000
00100000
01000000
,
01010000
10100000
01000000
00100000
,
01100000
00000000
00000000
00100000
10000000
00000000
00010000
01000000
,
10000000
00000000
00000000
00000000
00000000
00000000
01100000
00000000
00010000
00000000
00000000
00001000
00000000
00000000
00000100
00000000
,
00000000
00000000
00000000
00000000
00000000
00000000
00000101
00000000
00000010
00000000
00000000
00000001
00000000
00000000
00000100
00000000
,
00000000
00000000
00000000
00000000
00000000
00000000
00001010
00000000
00000100
00000000
00000000
00001000
00000000
00000000
00000010
00000000
,
00000000
00000000
00000000
00000000
00000001
00000000
00000000
00000000
00001000
00000000
00000000
00000001
00000000
00000000
00000100
00000000
,
00000000
00000000
00000000
00000000
00000110
00000000
00000000
00000000
00001000
00000000
00000000
00010000
00000000
00000000
01000000
00000000
,
10000000
00000000
00100000
00010000
01000000
10000000
01000000
00010000
,
00100000
00000000
00000000
00000000
10000000
00000000
01000000
00000000
00100000
00000000
00000000
00010000
00000000
00000000
11000000
00000000
,
00000000
00100000
00000000
00100000
,
01000000
01000000
00100000
01100000
,
00000000
00000000
10000000
00000000
00100000
00000000
00000000
00000000
00010000
00000000
00000000
00010000
00000000
00000000
00010000
00000000
,
00000000
10000000
00000000
10000000
,
00000000
00000000
00000000
01000000
00000000
00000000
00000000
00010000
,
00000000
00000000
00000000
00001000
00000000
00000000
00000000
00000100
,
00000000
00000001
00000000
00001000
00000000
00000010
00000000
00000010
,
00000000
00000000
00000000
00000000
,
00000000
00000000
00000000
00000000
00000000
00000000
00000000
00000000
00001000
00000000
00000000
00000100
00000000
00000000
00000001
00000000
,
00000000
00000000
00000000
00000000
00001000
00000000
00000000
00000000
00000001
00000000
00000000
00001000
00000000
00000000
00001000
00000000
,
00000000
00000000
00000000
00000000
00000010
00000000
00000000
00000000
00000001
00000000
00000000
00000100
00000000
00000000
00001000
00000000
,
00000000
00000000
00000000
00000000
00010000
00000000
00000000
00000000
01000000
00000000
00000000
00010000
00000000
00000000
00001000
00000000
,
00000000
00000000
00000000
00000000
00001000
00000000
00000000
00000000
00000100
00000000
00000000
00001000
00000000
00000000
00010000
00000000
,
00000000
00000000
00000000
00000000
00010000
00000000
00000000
00000000
00100000
00000000
00000000
00010000
00000000
00000000
00001000
00000000
,
00000000
00000000
00000000
00000000
00001000
00000000
00000000
00000000
00000010
00000000
00000000
00001000
00000000
00000000
00010000
00000000
,
00000000
00000000
00000000
00000000
01000000
00000000
00000000
00000000
10000000
00000000
00000000
00010000
00000000
00000000
01000000
00000000
,
00000000
00000000
00000000
00000000
01000000
00000000
00000000
00000000
00010000
00000000
00000000
00010000
00000000
00000000
00010000
00000000
,
00000000
00000000
00000000
00000000
10000000
00000000
00000000
00000000
00010000
00000000
00000000
01000000
00000000
00000000
10000000
00000000
,
00000000
00000000
00000000
00000000
00100000
00000000
00000000
00000000
10000000
00000000
00000000
10000000
00000000
00000000
10000000
00000000
,
00000000
00000000
00000000
00000000
01000000
00000000
00000000
00000000
00010000
00000000
00000000
10000000
00000000
00000000
01000000
00000000
;

//---------------dance-double - ----------------
#NOTES:
     dance-double:
     :
     Medium:
     7:
     0.410,0.442,0.340,0.000,0.126:
00000000
00000000
00000000
00000000
,
00000000
00000000
00000000
00000000
,
00000000
00000000
00000000
00000000
,
00001000
00001000
00001000
00001000
,
00000010
00001000
00000010
00001000
,
00010000
01000000
00010000
01000000
,
00001000
00000100
00010000
01000000
,
00001000
00010000
01000000
00000000
00010000
00001000
00000100
00000000
,
00001000
00010000
00100000
00000000
00010000
00001000
00000010
00000000
,
00000010
00001000
00010000
00000000
00100000
00010000
00001000
00000000
,
00000001
00001000
00010000
00000000
10000000
00010000
00001000
00000000
,
00000110
00001001
00000100
00000001
,
00000011
00001000
00000100
00000101
,
00001000
00001000
00000001
00000001
,
00000001
00000110
00001000
00010000
,
01100000
10000000
01100000
00010000
,
10000000
00000000
00000000
01000000
00100000
00000000
00010000
00100000
,
10000000
00000000
00000000
00000000
00000000
00000000
00100000
00000000
01000000
00000000
00000000
10100000
00000000
00000000
11000000
00000000
,
00010000
00000000
00000000
00000000
00000000
00000000
00100000
00000000
01000000
00000000
00000000
00110000
00000000
00000000
01010000
00000000
,
10000000
00000000
00000000
00000000
00000000
00000000
00010000
00000000
10000000
00000000
00000000
00100000
00000000
00000000
00010000
00000000
,
00001000
00000000
00000000
00000000
00000001
00000000
00000000
00000000
00000110
00000000
00000000
00001000
00000000
00000000
00000001
00000000
,
00001000
00000000
00000000
00000000
00000110
00000000
00000000
00000000
00001000
00000000
00000000
00010000
00000000
00000000
00100000
00000000
,
01100000
00000000
00010000
00001000
00000100
00000001
00000100
00001000
,
00000101
00000000
00000000
00000000
00001000
00000000
00000010
00000000
00000100
00000000
00000000
00000001
00000000
00000000
00001000
00000000
,
00000010
00001001
00000010
00000100
,
00000001
00000001
00001100
00000101
,
00000000
00000000
00000001
00000000
00000001
00000000
00000100
00000000
00001000
00000000
00000000
00001000
00000000
00000000
00001000
00000000
,
00000000
00000000
00001000
00000000
00001000
00000000
00000010
00000000
00000001
00000000
00000000
00000001
00000000
00000000
00000001
00000000
,
00000000
00000000
00000000
00001001
00000000
00000000
00000000
00000110
,
00000000
00000000
00000000
00001100
00000000
00000000
00000000
00001001
,
00000000
00000010
00000000
00000101
00000000
00001000
00000000
00010000
,
00000000
00000000
00000000
00000000
,
00011000
00000000
00000000
00000000
00001000
00000000
00000000
00000000
01000000
00000000
00000000
00010000
00000000
00000000
00001000
00000000
,
00000010
00000000
00001000
00000000
00010000
00000000
00000000
00000000
00000100
00000000
00000000
00001000
00000000
00000000
00010000
00000000
,
00100000
00000000
00010000
00000000
00001000
00000000
00000000
00000000
00001000
00000000
00000000
00000100
00000000
00000000
00001000
00000000
,
00010000
00000000
01000000
00000000
00010000
00000000
00010000
00000000
01000000
00000000
00000000
00010000
00000000
00000000
00001000
00000000
,
00011000
00000000
00000000
00000000
00000110
00000000
00000000
00000000
00000100
00000000
00000000
00000100
00000000
00000000
00000100
00000000
,
00000001
00000000
00000010
00000000
00001000
00000000
00000000
00000000
01100000
00000000
00000000
10000000
00000000
00000000
00010000
00000000
,
00100000
00000000
01000000
00000000
10000000
00000000
00000000
00000000
10000000
00000000
00000000
01000000
00000000
00000000
00010000
00000000
,
10000000
00000000
01000000
00000000
00010000
00000000
00000000
00000000
00001000
00000000
00000000
00000010
00000000
00000000
00000001
00000000
,
00000010
00000000
00000000
00000000
00000010
00000000
00000000
00000000
00001000
00000000
00000000
00000001
00000000
00000000
00000100
00000000
,
00000010
00000000
00010000
00000000
00001000
00000000
00000000
00000000
00001000
00000000
00000000
00010000
00000000
00000000
01000000
00000000
,
00100000
00000000
00010000
00000000
00100000
00000000
00000000
00000000
01000000
00000000
00000000
00100000
00000000
00000000
10000000
00000000
,
00010000
00000000
00100000
00000000
00010000
00000000
00000000
00000000
10000000
00000000
00000000
00010000
00000000
00000000
01000000
00000000
;

//---------------dance-double - ----------------
#NOTES:
     dance-double:
     :
     Hard:
     9:
     0.554,0.594,0.466,0.025,0.441: // measure 1
00000000
00000000
00000000
00000000
,  // measure 2
00000000
00000000
00000000
00000000
,  // measure 3
00000000
00000000
00000000
00000000
00000000
00000000
00010000
00100000
,  // measure 4
01000000
00000000
10000000
00000000
00100000
01000000
00010000
00100000
,  // measure 5
01000000
10000000
00000000
10000000
00100000
00000000
01000000
00000000
00010000
00100000
00000000
00100000
01000000
00000000
10000000
00000000
,  // measure 6
00100000
00010000
00000000
00010000
00001000
00000000
00010000
00000000
00000010
00000100
00000000
00000100
00000001
00000000
00000010
00000000
,  // measure 7
00000100
00001000
00000000
00001000
00000010
00000000
00000100
00000000
00000001
00000010
00000000
00000010
00001000
00000000
00010000
00000000
,  // measure 8
00100000
00010000
00000000
00010000
00001000
00000000
00000100
00000000
00001000
00010000
00000000
00010000
00100000
00000000
00010000
00000000
,  // measure 9
00001000
00000010
00000000
00000010
00001000
00000000
00010000
00000000
01000000
00010000
00000000
00010000
00001000
00000000
00000100
00000000
,  // measure 10
00000001
00000000
00000000
00000000
00000101
00000000
00000000
00000000
00000000
00000100
00000000
00000000
00001100
00000000
00001000
00010000
,  // measure 11
00000000
01000000
00000000
00000000
11000000
00000000
00000000
00000000
00000000
10000000
00000000
00000000
00010000
00000000
00000000
00000000
,  // measure 12
00000000
00110000
00000000
00000000
01100000
00000000
00010000
00001000
00000000
00110000
00000000
00000000
01100000
00000000
10000000
00010000
,  // measure 13
00000000
20020000
30030000
00000000
,  // measure 14
00101000
00000000
00000000
00000000
00010010
00000000
00000000
00000000
00101000
00000000
00000000
00010010
00000000
00000000
00101000
00000000
,  // measure 15
00001000
00000010
00000000
00000001
00000000
00000000
00000010
00000000
00000001
00000100
00000000
00000010
00000000
00000000
00010000
00000000
,  // measure 16
00001000
01000000
00000000
00100000
00000000
00000000
10000000
00000000
01000000
00100000
00000000
00010000
00000000
00000000
10000000
00000000
,  // measure 17
00100000
10000000
00000000
10010000
00000000
00000000
00010000
00000000
00000100
00000000
00000000
00000010
00000000
00000000
00001000
00000000
,  // measure 18
00000001
00000010
00000000
00001001
00000000
00000000
00001000
00000000
00100000
00000000
00000000
01000000
00000000
00000000
00010000
00000000
,  // measure 19
10000000
00100000
00000000
01010000
00000000
00000000
01000000
00000000
00100000
00000000
00000000
10000000
00000000
00000000
00010000
00000000
,  // measure 20
00000000
00000000
00000000
00000000
00000000
00000000
00000100
00000000
00000001
00000000
00000000
00001000
00000000
00000000
01000000
00000000
,  // measure 21
00000000
00000000
10000000
00000000
00100000
00000000
00001000
00000000
00100000
00000000
00000000
00010000
00000000
00000000
00001000
00000000
,  // measure 22
00000000
00000000
00000100
00000000
00000001
00000000
00000010
00000000
00010000
00000000
00000000
00000010
00000000
00000000
00001000
00000000
,  // measure 23
00001010
00000000
00000011
00000010
00000001
00000101
00000000
00001100
,  // measure 24
00011000
00000000
00000000
00000000
00011000
00000000
00010000
00000000
00001000
00000000
00000000
00010000
00000000
00000000
00011000
00000000
,  // measure 25
00000000
00000000
00000000
00000000
00000000
00000000
01000000
10000000
00000000
00000000
00000000
00000000
00000000
00000000
00010000
00100000
,  // measure 26
00000000
00000000
00000000
00000000
00000000
00000000
00001000
00000100
00000000
00000000
00000000
00000000
00000000
00000000
00000001
00000010
,  // measure 27
00000001
00000000
00000100
00000000
00001000
00000000
00000100
00000000
00001100
00000000
00000000
00001000
00000000
00000000
00010000
00000000
,  // measure 28
01010000
00000000
01000000
00000000
10000000
00000000
00100000
00000000
10100000
00000000
00000000
10000000
00000000
00000000
00100000
00000000
,  // measure 29
10010000
00100000
00000000
00100000
00000000
00100000
00000000
00100000
,  // measure 30
00011000
00000100
00000000
00000100
00000000
00000100
00000000
00000100
,  // measure 31
00001001
00000010
00000000
00000010
00011000
01000000
00000000
01000000
,  // measure 32
10010000
00000000
00000000
00000000
01100000
00000000
00000000
00000000
00011000
00000000
00000000
00000110
00000000
00000000
00011000
00000000
,  // measure 33
00011000
00000000
00001000
00000000
00000010
00000000
00001000
00000000
00010000
00000000
00000000
00100000
00000000
00000000
00010000
00000000
,  // measure 34
00000000
00000000
00001000
00000000
00000100
00000000
00001000
00000000
00010000
00000000
00000000
01000000
00000000
00000000
00010000
00000000
,  // measure 35
00000000
00000000
00001000
00000000
00000010
00000000
00000001
00000000
00000010
00000000
00000000
00000100
00000000
00000000
00010000
00000000
,  // measure 36
00000000
00000000
00001000
00000000
00010000
00000000
00100000
00000000
10000000
00000000
00000000
00100000
00000000
00000000
00010000
00000000
,  // measure 37
00000000
00000000
00010000
00000000
00100000
00000000
10000000
00000000
00010000
00000000
00000000
00001000
00000000
00000000
00000001
00000000
,  // measure 38
00000000
00000000
00000010
00000000
00001000
00000000
00010000
00000000
00000010
00000000
00000000
00000100
00000000
00000000
00001000
00000000
,  // measure 39
00000000
00000000
00001000
00000000
00000100
00000000
00000010
00000000
00010000
00000000
00000000
00001000
00000000
00000000
00000010
00000000
,  // measure 40
00000000
00000000
00000001
00000000
00001000
00000000
00010000
00000000
10000000
00000000
00000000
00100000
00000000
00000000
00010000
00000000
,  // measure 41
00000000
00000000
00100000
00000000
10000000
00000000
00010000
00000000
00100000
00000000
00000000
01000000
00000000
00000000
10000000
00000000
,  // measure 42
00000000
00000000
00100000
00000000
00001000
00000000
00000010
00000000
00000100
00000000
00000000
00000001
00000000
00000000
00000010
00000000
,  // measure 43
00000000
00000000
00010000
00000000
00100000
00000000
01000000
00000000
10000000
00000000
00000000
00100000
00000000
00000000
00010000
00000000
,  // measure 44
00000000
00000000
00000100
00000000
00010000
00000000
00100000
00000000
00010000
00000000
00000000
00000010
00000000
00000000
00010000
00000000
,  // measure 45
00000000
00000000
00001000
00000000
00000010
00000000
00001000
00000000
00100000
00000000
00000000
00010000
00000000
00000000
11000000
00000000
;
