#TITLE:サナ・モレッテ・ネ・エンテ;
#SUBTITLE:(B.L.T.STYLE);
#ARTIST:Togo Project feat. Sana;
#TITLETRANSLIT:SANA MOLLETE NE ENTE;
#SUBTITLETRANSLIT:(B.L.T.STYLE);
#ARTISTTRANSLIT:;
#CREDIT:;
#BANNER:SANA MOLLETE NE ENTE (B.L.T.STYLE).png;
#BACKGROUND:SANA MOLLETE NE ENTE (B.L.T.STYLE)-bg.png;
#LYRICSPATH:;
#CDTITLE:./CDTITLES/BeatmaniaIIDX.png;
#MUSIC:SANA MOLLETE NE ENTE (B.L.T.STYLE).ogg;
#OFFSET:0.000;
#SAMPLESTART:42.640;
#SAMPLELENGTH:15.000;
#SELECTABLE:YES;
#BPMS:0.000=90.000,40.000=180.000;
#STOPS:;
#BGCHANGES:3.750=SANA MOLLETE NE ENTE (B.L.T.STYLE).avi=1.000=1=0=0,
267.000=SANA MOLLETE NE ENTE (B.L.T.STYLE)-bg.png=1.000=0=0=1,
99999=-nosongbg-=1.000=0=0=0 // don't automatically add -songbackground-
;

//---------------dance-single - ----------------
#NOTES:
     dance-single:
     :
     Beginner:
     2:
     0.146,0.149,0.028,0.000,0.000:
0000
0000
0000
0000
,
0000
0000
0000
0000
,
0000
0000
0000
0000
,
0000
0000
0000
0000
,
0000
0000
0000
0000
,
0000
0000
0000
0000
,
0010
0000
1000
0000
,
0001
0000
0100
0000
,
0010
0000
1000
0000
,
0100
0100
0000
0000
,
0000
0000
0000
0000
,
0000
0000
0000
0000
,
0000
0000
0000
0000
,
0000
0000
0000
0000
,
0001
0000
0001
0000
,
0001
0000
0001
0000
,
1000
0000
0100
0000
,
0001
0000
0100
0000
,
0001
0000
0001
0000
,
0001
0000
0001
0000
,
1000
0000
0100
0000
,
0001
0000
0100
0000
,
0010
0000
1000
0000
,
0001
0000
0100
0000
,
0010
0000
1000
0000
,
0100
0000
0100
0000
,
0010
0000
0001
0000
,
1000
0000
0100
0000
,
0010
0000
0001
0000
,
0100
0000
0100
0000
,
0001
0001
0000
0000
,
0010
0010
0000
0000
,
0001
0001
0000
0000
,
0100
0100
0000
0000
,
1000
1000
0000
0000
,
0010
0010
0000
0000
,
1000
1000
0000
0000
,
0100
0100
0000
0000
,
1000
0000
1000
0000
,
1000
0000
1000
0000
,
0001
0000
0100
0000
,
1000
0000
0100
0000
,
1000
0000
1000
0000
,
1000
0000
1000
0000
,
0001
0000
0100
0000
,
1000
0000
0100
0000
,
0010
0000
1000
0000
,
0001
0000
0100
0000
,
0010
0000
1000
0000
,
0100
0000
0100
0000
,
0010
0000
0001
0000
,
1000
0000
0100
0000
,
0010
0000
0001
0000
,
0100
0000
0100
0000
,
0001
0001
0000
0000
,
0010
0010
0000
0000
,
0001
0001
0000
0000
,
0100
0100
0000
0000
,
1000
1000
0000
0000
,
0010
0010
0000
0000
,
1000
1000
0000
0000
,
0100
0100
0000
0000
,
0000
1001
0000
0000
,
0000
0110
0000
0000
,
0000
1001
0000
0000
;

//---------------dance-single - ----------------
#NOTES:
     dance-single:
     :
     Easy:
     2:
     0.129,0.181,0.000,0.028,0.000:
0000
0000
0000
0000
,
0000
0000
0000
0000
,
0000
0000
0000
0000
,
0000
0000
0000
0000
,
1000
0000
1000
0000
,
0001
0000
0001
0000
,
1000
0000
1000
0000
,
0010
0000
0010
0000
,
1000
0000
1000
0000
,
0100
0000
0010
0000
,
0001
0000
0000
0000
,
0001
0000
0000
0000
,
1000
0000
0000
0000
,
0001
0000
0000
0000
,
0100
0000
0000
0000
,
0010
0000
0000
0000
,
0100
0000
0000
0000
,
0001
0000
0000
0000
,
0100
0000
0000
0000
,
0010
0000
0000
0000
,
0100
0000
0000
0000
,
0001
0000
0000
0000
,
1000
0000
0100
0000
,
0010
0000
0001
0000
,
0010
0000
0100
0000
,
1000
0000
0000
0000
,
1000
0000
1000
0000
,
0010
0000
0100
0000
,
1000
0000
1000
0000
,
0100
0000
0000
0000
,
0010
0000
0100
0000
,
0000
0000
0001
0000
,
0010
0000
0100
0000
,
0000
0000
1000
0000
,
0010
0000
0100
0000
,
0000
0000
0001
0000
,
0010
0000
0100
0000
,
0000
0000
1000
0000
,
0001
0000
1000
0000
,
0001
0000
1000
0000
,
0010
0000
1000
0000
,
0001
0000
0000
0000
,
1000
0000
0001
0000
,
1000
0000
0001
0000
,
0100
0000
0001
0000
,
1000
0000
0000
0000
,
0001
0000
0001
0000
,
0000
0000
0000
0000
,
1000
0000
1000
0000
,
0000
0000
0000
0000
,
0001
0000
0001
0000
,
0010
0000
0100
0000
,
0010
0000
0100
0000
,
1000
0000
0000
0000
,
0100
0000
0100
0000
,
0100
0000
0000
0000
,
1000
0000
0010
0000
,
0100
0000
0000
0000
,
0020
0000
0100
0000
,
0230
0000
0000
0300
,
0001
0000
0010
0000
,
0200
0000
0000
0300
,
1000
0000
1000
0000
,
0001
0000
0100
0000
,
0001
0000
0001
0000
,
1000
0000
0000
0000
;

//---------------dance-single - ----------------
#NOTES:
     dance-single:
     :
     Medium:
     5:
     0.314,0.332,0.140,0.354,0.000:
0000
0000
0000
0000
,
0000
0000
0000
0000
,
0000
0000
0000
0000
,
0000
0000
0000
0000
,
1000
0100
0010
0011
,
0100
1000
0001
1010
,
1000
1000
1000
0100
,
0010
0100
0020
0000
,
0001
0001
0031
0010
,
0100
1000
0002
0000
,
1003
0000
0010
0000
,
1001
0000
0000
0000
,
1010
0000
0100
0000
,
2002
0000
3003
0000
,
1000
0100
0010
0001
0000
1000
0000
0001
,
0000
1000
0000
0000
0100
0000
0000
0000
,
1000
0100
0010
0001
0000
1000
0000
2002
,
0000
0000
0000
3003
,
0001
0010
0100
1000
0000
0001
0000
1000
,
0000
0001
0000
0000
0100
0000
0000
0000
,
0001
0010
0100
1000
0000
0001
0000
2002
,
0000
0000
0000
3003
,
0001
0010
0001
1000
,
0010
1000
0100
0010
,
1001
0010
0100
0001
,
2020
0000
0000
3030
,
1000
0100
1000
0001
,
0100
0001
0010
0100
,
1001
0100
0010
0001
,
0022
0000
0000
0033
,
0200
0000
2300
0000
,
0001
0000
3001
0000
,
0020
0000
0032
0000
,
1000
0000
1003
0000
,
2000
0000
3020
0000
,
0100
0000
0130
0000
,
0002
0000
0023
0000
,
0100
0000
0130
0000
,
1000
0100
0010
0001
0000
1000
0000
0001
,
0000
1000
0000
0000
0100
0000
0000
0000
,
1000
0100
0010
0001
0000
0100
0000
0220
,
0000
0000
0000
0330
,
0001
0010
0100
1000
0000
0001
0000
1000
,
0000
0001
0000
0000
0100
0000
0000
0000
,
0001
0010
0100
1000
0000
0100
0000
0220
,
0000
0000
0000
0330
,
0001
0010
0001
0000
,
1000
0010
1000
0000
,
0001
0000
0100
0000
0001
0000
2000
0002
,
0000
3003
1001
0000
,
1000
0100
0010
0000
,
0001
0010
0100
0000
,
1000
0000
0001
1000
0001
0000
2000
0002
,
0000
3003
0000
0000
0000
0000
0000
0000
,
0001
0100
0010
1000
,
0100
0010
0002
0000
,
1003
0010
0100
0001
,
0010
0100
2000
0000
,
3020
0100
0000
1030
,
0200
0000
0000
0300
,
2000
0001
0010
3000
,
0200
0000
0000
0300
,
1000
0100
0020
0000
,
0032
0010
0203
0000
,
1300
0000
0002
0000
1000
1003
0000
1001
;

//---------------dance-single - ----------------
#NOTES:
     dance-single:
     :
     Hard:
     7:
     0.456,0.483,0.112,0.270,0.000:
0000
0000
0000
0000
,
0000
0000
0000
0000
,
0000
0000
0000
0000
,
0000
0000
0000
0000
,
0001
0000
0010
0100
1000
0000
1100
0000
,
0101
0000
1000
0100
0010
0000
0011
0000
,
1000
0001
1000
0000
0001
1000
0001
0000
,
0010
0001
0100
0010
1000
0000
0000
0000
,
0001
1000
0001
0000
1000
0100
0010
0000
,
0001
0010
0100
0000
2000
0000
0000
0000
,
3001
0000
0010
0100
0000
1000
0001
0000
,
1000
0000
0100
0010
0000
0001
1000
0000
,
0100
0000
0010
0001
0000
0010
0000
0000
,
0022
0000
0033
0000
,
0001
0010
0100
1000
0001
1000
0010
0100
,
0010
1000
0100
0010
0001
0100
0001
0000
,
0010
0100
1000
0001
0000
1000
0000
2002
,
0000
3000
0100
0103
,
1000
0100
0010
0001
1000
0001
0100
0010
,
0100
0001
0100
0010
1000
0100
1000
0000
,
0010
0100
0001
1000
0000
0001
0000
2002
,
0000
0003
0100
3100
,
0001
0000
0010
0000
0100
0000
1000
0001
,
0010
0100
1000
0001
0000
1000
0100
1000
,
0000
0010
0001
0010
0000
0001
1000
2002
,
0000
0000
0000
3003
,
1000
0000
0100
0000
0010
0000
0001
1000
,
0100
0010
0001
1000
0000
0001
0100
0001
,
0000
1000
0100
0010
0001
1000
0001
1000
,
0000
0001
0010
0100
1000
0100
0010
0000
,
0000
0000
1000
0100
0010
0001
0000
1000
,
0000
0001
0000
0100
0000
0020
0000
0000
,
0000
0030
1000
0100
0010
0001
0000
1000
,
0002
0200
0000
0303
,
0000
0000
0001
0010
0100
1000
0000
0001
,
0000
1000
0000
0100
0000
0020
0000
0000
,
0000
0030
0001
0010
0100
1000
0000
0001
,
1000
0000
0200
0000
0300
1000
0001
0000
,
0001
0010
0100
1000
0001
1000
0010
0100
,
0010
1000
0100
0010
0001
0100
0001
0000
,
0010
0100
1000
0001
0000
1000
0000
0220
,
0000
0300
1000
1030
,
1000
0100
0010
0001
1000
0001
0100
0010
,
0100
0001
0100
0010
1000
0100
1000
0000
,
0010
0100
0001
1000
0000
0001
0000
0210
,
0000
0001
0001
0300
,
0001
0000
0010
0000
0100
0000
1000
0001
,
0010
0100
1000
0001
0000
1000
0100
1000
,
0000
0010
0001
0010
0000
0001
1000
2002
,
0000
0000
0000
3003
,
1000
0000
0100
0000
0010
0000
0001
1000
,
0100
0010
0001
1000
0000
0001
0010
0001
,
0000
0100
1000
0100
0000
1000
0001
2002
,
0000
0000
0000
3003
,
0000
1000
0100
0010
0001
0010
0100
1000
,
0100
0010
0001
0010
0100
1000
0010
1000
,
0001
0010
0001
0020
0000
0200
0030
2000
,
0300
0000
0000
0000
3000
0001
0010
0100
,
2000
0010
0100
3001
,
0200
0000
0000
0000
0300
0001
0010
0001
,
0010
1000
0010
1000
,
0020
0000
0000
0000
0030
1000
0100
1000
,
0100
0000
0001
0000
1000
2000
0000
0001
,
3000
0000
0100
0000
0010
0020
0000
1000
,
0030
0000
0010
0000
0010
0010
0000
1001
;

//---------------dance-single - ----------------
#NOTES:
     dance-single:
     :
     Challenge:
     8:
     0.486,0.497,0.149,0.400,0.033:
0000
0000
0000
0000
,
0000
0000
0000
0000
,
0000
0000
0000
0000
,
0000
0000
0000
0000
,
0101
0000
0010
1000
0100
0000
1100
0000
,
0101
0000
1000
0100
0010
0000
0011
0000
,
1000
0001
1000
0000
0001
0100
0010
0000
,
1000
0001
0100
0010
1000
0001
0110
0000
,
0001
1000
0001
0000
1000
0100
0010
0000
,
0001
0000
0010
0000
1100
0000
0000
2001
0000
0000
0000
0000
0000
0000
0000
0000
,
3001
0000
0010
0100
0000
1000
0001
0000
,
1000
0000
0100
0010
0000
0001
1000
0000
,
0100
0000
0010
1000
0000
0100
0000
0000
,
0202
0000
0303
0000
,
0001
0010
0100
1000
0001
1000
0010
0100
,
0010
1000
0100
0010
0001
0100
0001
0000
,
0010
0100
1000
0001
0000
1000
0000
2002
,
0000
3000
0100
0103
,
1000
0100
0010
0001
1000
0001
0100
0010
,
0100
0001
0100
0010
1000
0100
1000
0000
,
0010
0100
1000
0001
0000
0100
0000
2002
,
0000
0003
0100
3100
,
0001
0000
0010
0000
0100
0000
1000
0010
,
0100
0001
1000
0200
0300
0010
0001
1000
,
0010
0000
0100
0000
0010
1000
0000
0000
0100
0000
0010
0000
0000
0000
2002
0000
,
0000
0000
0000
3003
,
0010
0000
0001
0000
0100
0000
0010
1000
,
0100
0010
0001
0200
0300
0010
2000
0001
,
3000
0000
0100
0000
0010
0000
0100
0000
0010
0000
0000
0100
0000
0000
1100
0000
,
0000
0001
1000
0100
0010
0100
0020
0000
,
0000
0030
0001
0010
0100
2000
0000
3002
,
0000
0203
0000
0320
0000
2030
0000
0000
,
3000
0000
0010
1000
0100
0010
0000
0001
,
0000
2000
0000
0200
3000
0000
0300
0000
,
0000
0000
0010
1000
0100
0010
0000
0002
,
0000
2003
0000
3020
0000
0230
0000
0000
,
0300
0000
0001
0010
0100
1000
0000
0010
,
0100
0000
0001
0000
1000
0000
0200
0000
0000
0000
0310
0000
0000
0001
0000
0000
,
1000
0010
0100
0001
1000
0100
0010
0001
,
1000
0000
0010
0000
0100
0000
0001
1000
0000
0000
0100
0000
0010
0000
0000
0000
,
0001
0010
0100
1000
0000
0001
0000
0120
,
0000
1000
1000
0030
,
1000
0100
0010
0001
1000
0001
0100
0010
,
0100
0001
0100
0010
1000
0100
1000
0000
,
0010
0100
0001
1000
0000
0001
0000
0210
,
0000
0001
0001
0300
,
0001
0000
0010
0000
0100
0000
1000
0001
,
0100
0010
0100
0020
0030
1000
0001
0000
,
0100
0000
0010
0000
0100
0000
0000
0001
0000
1000
0000
0000
0010
0000
0000
0000
,
0202
0000
0000
0303
,
1000
0000
0100
0000
0010
0000
0001
1000
,
0100
0010
0001
0100
0000
0010
0100
0010
,
0000
1000
0001
0100
0000
0010
0000
2200
,
0000
0000
0000
3300
,
0000
1000
0100
0010
0001
0010
0100
1000
,
0100
0010
0001
0010
0100
1000
0010
1000
,
0001
0010
0001
0020
0000
0200
0030
2000
,
0300
0000
0000
0000
3000
0001
0010
0100
,
2000
0010
0001
3100
,
0020
0000
0000
0000
0030
0001
1000
0100
,
0010
0001
0100
0010
,
2000
0000
0000
0000
3000
0001
0100
0010
,
0100
0000
0001
0000
1000
0002
0000
1000
,
0003
0000
0100
0000
0010
0200
0000
0301
,
0000
0000
1000
0000
0001
0200
0000
0310
,
0000
0002
2000
0000
,
0000
0000
0000
3003
;

//---------------dance-double - ----------------
#NOTES:
     dance-double:
     :
     Easy:
     2:
     0.129,0.181,0.000,0.028,0.000:
00000000
00000000
00000000
00000000
,
00000000
00000000
00000000
00000000
,
00000000
00000000
00000000
00000000
,
00000000
00000000
00000000
00000000
,
01000000
00000000
01000000
00000000
,
00001000
00000000
00010000
00000000
,
00000100
00000000
00000100
00000000
,
00010000
00000000
00001000
00000000
,
00100000
00000000
00010000
00000000
,
00100000
00000000
01000000
00000000
,
10000000
00000000
00000000
00000000
,
00010000
00000000
00000000
00000000
,
00100000
00000000
00000000
00000000
,
00001000
00000000
00000000
00000000
,
00010000
00000000
00000000
00000000
,
00000010
00000000
00000000
00000000
,
00000100
00000000
00000000
00000000
,
00000001
00000000
00000000
00000000
,
00000100
00000000
00000000
00000000
,
00000010
00000000
00000000
00000000
,
00010000
00000000
00000000
00000000
,
00001000
00000000
00000000
00000000
,
00100000
00000000
01000000
00000000
,
00100000
00000000
00010000
00000000
,
00100000
00000000
00001000
00000000
,
00010000
00000000
00000000
00000000
,
00000010
00000000
00001000
00000000
,
00000010
00000000
00000100
00000000
,
00000001
00000000
00001000
00000000
,
00000100
00000000
00000000
00000000
,
00010000
00000000
00001000
00000000
,
00000000
00000000
00100000
00000000
,
00010000
00000000
01000000
00000000
,
00000000
00000000
00010000
00000000
,
00100000
00000000
01000000
00000000
,
00000000
00000000
10000000
00000000
,
00100000
00000000
01000000
00000000
,
00000000
00000000
00001000
00000000
,
00010000
00000000
00000100
00000000
,
00001000
00000000
00000001
00000000
,
00000010
00000000
00000001
00000000
,
00001000
00000000
00000000
00000000
,
00000100
00000000
00010000
00000000
,
00001000
00000000
00100000
00000000
,
01000000
00000000
10000000
00000000
,
00010000
00000000
00000000
00000000
,
10000000
00000000
10000000
00000000
,
00000000
00000000
00000000
00000000
,
01000000
00000000
01000000
00000000
,
00000000
00000000
00000000
00000000
,
00100000
00000000
00100000
00000000
,
00001000
00000000
00010000
00000000
,
00000010
00000000
00000100
00000000
,
00000001
00000000
00000000
00000000
,
00000100
00000000
00000100
00000000
,
00000100
00000000
00000000
00000000
,
00000001
00000000
00000010
00000000
,
00000100
00000000
00000000
00000000
,
00002000
00000000
00000100
00000000
,
00003200
00000000
00000000
00000300
,
00010000
00000000
00001000
00000000
,
00020000
00000000
00000000
00030000
,
00001000
00000000
01000000
00000000
,
00010000
00000000
01000000
00000000
,
00010000
00000000
00010000
00000000
,
10000000
00000000
00000000
00000000
;

//---------------dance-double - ----------------
#NOTES:
     dance-double:
     :
     Medium:
     5:
     0.314,0.332,0.140,0.354,0.000:
00000000
00000000
00000000
00000000
,
00000000
00000000
00000000
00000000
,
00000000
00000000
00000000
00000000
,
00000000
00000000
00000000
00000000
,
10000000
01000000
00100000
00110000
,
01000000
00001000
00010000
00011000
,
00010000
00010000
00010000
00000100
,
00000010
00000100
00000020
00000000
,
00000001
00000001
00000031
00000010
,
00000100
00010000
00002000
00000000
,
00013000
00000000
00001000
00000000
,
00110000
00000000
00000000
00000000
,
10100000
00000000
01000000
00000000
,
00022000
00000000
00033000
00000000
,
00000010
00000100
00000010
00000100
00000000
00000001
00000000
00001000
,
00000000
00000001
00000000
00000000
00000100
00000000
00000000
00000000
,
00000001
00000010
00000100
00001000
00000000
00000001
00000000
00002002
,
00000000
00000000
00000000
00003003
,
00000001
00000010
00000100
00001000
00000000
00000100
00000000
00010000
,
00000000
00001000
00000000
00000000
01000000
00000000
00000000
00000000
,
00010000
00100000
01000000
10000000
00000000
00010000
00000000
20020000
,
00000000
00000000
00000000
30030000
,
00010000
00100000
00010000
00100000
,
00001000
00010000
00000100
00000010
,
00001001
00000010
00000100
00000001
,
00002020
00000000
00000000
00003030
,
00000100
00010000
00001000
00100000
,
00010000
00100000
01000000
00100000
,
10010000
01000000
00100000
00010000
,
00220000
00000000
00000000
00330000
,
00002000
00000000
00023000
00000000
,
00001000
00000000
00031000
00000000
,
00000020
00000000
00002030
00000000
,
00000001
00000000
00003001
00000000
,
00000020
00000000
00020030
00000000
,
00001000
00000000
00031000
00000000
,
00002000
00000000
00203000
00000000
,
01000000
00000000
01300000
00000000
,
10000000
01000000
00100000
00010000
00000000
00100000
00000000
00001000
,
00000000
00010000
00000000
00000000
00000100
00000000
00000000
00000000
,
00001000
00000100
00000010
00000001
00000000
00000100
00000000
00000220
,
00000000
00000000
00000000
00000330
,
00000001
00000010
00000100
00001000
00000000
00000100
00000000
00010000
,
00000000
00001000
00000000
00000000
01000000
00000000
00000000
00000000
,
00010000
00100000
01000000
10000000
00000000
01000000
00000000
02200000
,
00000000
00000000
00000000
03300000
,
00001000
00010000
00000100
00000000
,
00001000
00000010
00001000
00000000
,
00000001
00000000
00000100
00000000
00000001
00000000
00002000
00000002
,
00000000
00003003
00001001
00000000
,
00000100
00010000
00001000
00000000
,
01000000
00100000
01000000
00000000
,
00010000
00000000
10000000
00010000
10000000
00000000
00020000
20000000
,
00000000
30030000
00000000
00000000
00000000
00000000
00000000
00000000
,
00100000
00001000
00010000
00000010
,
00000100
00000010
00002000
00000000
,
00003001
00000010
00000100
00001000
,
00000010
00010000
00002000
00000000
,
00203000
01000000
00000000
00310000
,
02000000
00000000
00000000
03000000
,
00020000
10000000
00100000
00030000
,
02000000
00000000
00000000
03000000
,
10000000
01000000
00200000
00000000
,
00302000
00010000
00003200
00000000
,
00001300
00000000
00000002
00000000
00001000
00001003
00000000
00001001
;

//---------------dance-double - ----------------
#NOTES:
     dance-double:
     :
     Hard:
     8:
     0.456,0.483,0.112,0.270,0.000:
00000000
00000000
00000000
00000000
,
00000000
00000000
00000000
00000000
,
00000000
00000000
00000000
00000000
,
00000000
00000000
00000000
00000000
,
00010000
00000000
00100000
01000000
10000000
00000000
11000000
00000000
,
01010000
00000000
10000000
01000000
00100000
00000000
00110000
00000000
,
10000000
00010000
10000000
00000000
00010000
00100000
00001000
00000000
,
00010000
00000010
00000100
00000010
00001000
00000000
00000000
00000000
,
00000001
00001000
00000001
00000000
00001000
00000100
00010000
00000000
,
00001000
00100000
01000000
00000000
20000000
00000000
00000000
00000000
,
30010000
00000000
00100000
01000000
00000000
10000000
00010000
00000000
,
10000000
00000000
01000000
00100000
00000000
00010000
10000000
00000000
,
01000000
00000000
00100000
00010000
00000000
00100000
00000000
00000000
,
00022000
00000000
00033000
00000000
,
00000100
00000010
00000100
00001000
00000100
00001000
00000010
00000100
,
00000010
00001000
00000100
00000010
00000001
00000100
00000001
00000000
,
00000010
00000100
00010000
00001000
00000000
01000000
00000000
02020000
,
00000000
03000000
10000000
10030000
,
10000000
01000000
00100000
00010000
10000000
00010000
01000000
00100000
,
01000000
00001000
00010000
00000010
00001000
00000100
00001000
00000000
,
00000010
00000100
00000001
00001000
00000000
00000001
00000000
00002002
,
00000000
00000003
00000100
00003100
,
00010000
00000000
00001000
00000000
01000000
00000000
00010000
10000000
,
01000000
00100000
00010000
00100000
00000000
00001000
00010000
00001000
,
00000000
00000010
00001000
00000010
00000000
00001000
00000001
00002002
,
00000000
00000000
00000000
00003003
,
00000100
00000000
00010000
00000000
00001000
00000000
00100000
00010000
,
00100000
01000000
10000000
00010000
00000000
10000000
01000000
10000000
,
00000000
00010000
00100000
01000000
10000000
00010000
10000000
00010000
,
00000000
10000000
01000000
00100000
00010000
01000000
00001000
00000000
,
00000000
00000000
00010000
00000100
00000010
00000001
00000000
00001000
,
00000000
00000001
00000000
00000100
00000000
00000020
00000000
00000000
,
00000000
00000030
00010000
00001000
00100000
01000000
00000000
10000000
,
00020000
02000000
00000000
03030000
,
00000000
00000000
10000000
01000000
00100000
00010000
00000000
00100000
,
00000000
00001000
00000000
00010000
00000000
00000020
00000000
00000000
,
00000000
00000030
00001000
00000100
00000010
00000001
00000000
00001000
,
00000001
00000000
00000200
00000000
00000300
00000001
00001000
00000000
,
00000100
00010000
00001000
00100000
00010000
10000000
00100000
01000000
,
00100000
10000000
01000000
00100000
00010000
01000000
00001000
00000000
,
00010000
00000100
00001000
00000001
00000000
00001000
00000000
00000220
,
00000000
00000300
00001000
00001030
,
00001000
00000100
00000010
00000001
00001000
00000001
00000100
00000010
,
00000100
00000001
00000100
00000010
00001000
00000100
00010000
00000000
,
00001000
01000000
00100000
10000000
00000000
00010000
00000000
02100000
,
00000000
00010000
00010000
03000000
,
00010000
00000000
00100000
00000000
01000000
00000000
10000000
00010000
,
00100000
01000000
10000000
00010000
00000000
10000000
01000000
10000000
,
00000000
00100000
00010000
00100000
00000000
00001000
00010000
00022000
,
00000000
00000000
00000000
00033000
,
00000100
00000000
00001000
00000000
00000100
00000000
00001000
00000001
,
00000010
00000100
00001000
00000100
00000000
00010000
00001000
00010000
,
00000000
00001000
00010000
00001000
00000000
01000000
00010000
02020000
,
00000000
00000000
00000000
03030000
,
00000000
10000000
01000000
00100000
00010000
00100000
01000000
10000000
,
01000000
00100000
00010000
00100000
01000000
10000000
00100000
10000000
,
00010000
00100000
00001000
00020000
00000000
00000200
00030000
00002000
,
00000300
00000000
00000000
00000000
00003000
00000100
00000010
00000001
,
00002000
00000010
00000100
00003001
,
00000200
00000000
00000000
00000000
00000300
00000001
00000010
00000001
,
00000010
00000100
00001000
00000100
,
00020000
00000000
00000000
00000000
00030000
00001000
00010000
00001000
,
00100000
00000000
00010000
00000000
10000000
20000000
00000000
00010000
,
30000000
00000000
01000000
00000000
00100000
00200000
00000000
10000000
,
00300000
00000000
00100000
00000000
00100000
00100000
00000000
10010000
;

//---------------dance-double - ----------------
#NOTES:
     dance-double:
     :
     Challenge:
     9:
     0.582,0.771,0.195,0.316,0.158:
00000000
00000000
00000000
00000000
,
00000000
00000000
00000000
00000000
,
00000000
00000000
00000000
00000000
,
00000000
00000000
00000000
00000000
,
00010000
00000000
00000100
00000010
00001000
00000000
01000000
00100000
00010000
00000000
00000100
00000010
00001000
00000000
01000000
00100000
,
00010000
00000000
00000100
00000010
00001000
00000000
01000000
00100000
00010000
00000000
00000100
00000010
00001000
00000000
01000000
00100000
,
00010000
00000000
00001000
00000000
00000000
00000100
00000001
00000100
00000000
00000010
00000000
00001000
00000001
00000000
00000010
00000000
,
00000001
00000000
00000001
00000000
00000000
00000100
00001000
00000100
00000000
00000010
00000000
00010000
00001000
00000000
00000100
00000010
,
00000001
00000000
00000010
00000000
00000000
00001000
00000100
00001000
00000000
00000010
00000000
00010000
00001000
00000000
00100000
01000000
,
00000000
00000000
10000000
00000000
00010000
00000000
00000000
20000000
00000000
00100000
00000000
00000000
00010000
30000000
01000000
00000000
,
00100000
00010000
00010000
00100000
00001000
00001000
00100000
01000000
,
00100000
00010000
00010000
00100000
00001000
00001000
00012000
00000000
,
01003000
10000000
10000000
01000000
00100000
01000000
00010000
00010000
,
01000000
00001000
00001000
00022000
00000000
00000000
00003000
00030000
,
00000010
00001000
00001000
00000010
00010000
00010000
00000010
00000100
,
00000010
00001000
00001000
00000010
00010000
00010000
00021000
00000000
,
00030100
00000001
00000001
00000100
00000010
00000100
00001000
00001000
,
00000100
00010000
00010000
00022000
00000000
00000000
00000000
00033000
,
00010000
01000000
01000000
10000000
00100000
00100000
00010000
00001000
,
00000100
00000001
00000001
00000010
00000100
00000100
00002001
00000000
,
00003001
00000010
00000010
00001000
00010000
01000000
10000000
10000000
,
00100000
01000000
01000000
20020000
00000000
00000000
00000000
00030000
,
30010000
00000000
01000000
00100000
00000000
00000000
10000000
00000000
,
01000000
00000000
00010000
00001000
00000000
00000000
00021000
00000000
,
00031000
00000000
00000100
00000001
00000000
00000010
00000000
00000000
,
00000001
00000000
00000000
00002002
00000000
00000000
00000000
00003000
,
00001003
00000000
00000001
00000100
00000000
00000000
00001000
00000000
,
00010000
00000000
00000000
00100000
00000000
00000000
10020000
00000000
,
10030000
00000000
01000000
00010000
00000000
10000000
00000000
00000000
,
01000000
00000000
00000000
20020000
00000000
00000000
00000000
30030000
,
00100000
00010000
00100000
00001000
00010000
00000100
00001000
00000010
,
00000100
00001000
00010000
00100000
10000000
01000000
10000000
00100000
,
00010000
00000010
00001000
00000010
00010000
00001000
01000000
00010000
,
00100000
01000000
00010000
00001000
00000010
00000001
00000100
00000000
,
00000001
00000010
00001000
00010000
01000000
00100000
10000000
00100000
,
00010000
10000000
00100000
00010000
00001000
00000100
00000010
00000001
,
00000010
00001000
00000001
00000010
00001000
00010000
01000000
00100000
,
10000000
00100000
00010000
10000000
00100000
01000000
00010000
00000000
,
10000000
00100000
00100000
00010000
00100000
00100000
10000000
01000000
,
00010000
00001000
00001000
00010000
01000000
01000000
02010000
00000000
,
03010000
00001000
00001000
00000100
00000010
00000100
00000001
00000001
,
00000010
00000100
00000100
00000220
00000000
00000000
00000000
00000330
,
00000001
00000100
00000100
00001000
00000100
00000100
00000001
00000010
,
00001000
00010000
00010000
00001000
00000010
00000010
00001020
00000000
,
00001030
00010000
00010000
00100000
01000000
00100000
10000000
10000000
,
01000000
00100000
00100000
00220000
00000000
00000000
00000000
00330000
,
10000000
01000000
00100000
00001000
00010000
01000000
10000000
00000000
,
01000000
00010000
00001000
00000010
00001000
01000000
00010000
00000000
,
01000000
00001000
00010000
00001000
00000100
00000001
00000010
00000000
,
00000001
00000100
00000010
00010000
00001000
00000100
00000001
00000000
,
00000100
00001000
00010000
00100000
00010000
00000100
00001000
00000000
,
00000100
00010000
00001000
00010000
00100000
10000000
01000000
00000000
,
00010000
00001000
00000010
00000001
00000100
00001000
00010000
00000000
,
00022000
00000000
00000000
00000000
00000000
00000000
00000000
00033000
,
00000000
00000100
00000000
00000001
00000010
00000000
00000010
00001000
,
00000000
00001000
00010000
00000000
00010000
01000000
00000000
10000000
,
00100000
00010000
00100000
20000000
00000000
30020000
00000000
00032000
,
00000000
00003002
00000000
00002003
00000000
00000000
00003002
00000000
,
00002000
00000000
00000000
00003003
,
00000000
00000000
00000000
00000001
00000100
00001000
00010000
00001000
00000100
00000001
00000100
00001000
,
00010000
00000000
00001000
00000000
00000100
00000000
00000001
00000000
00000100
00000000
00001000
00000000
00000100
00000000
00000000
00000001
00000000
00000000
00000100
00000000
00000000
00002000
00000000
00000000
,
00000000
00000000
00000000
00000000
00000000
00000000
00000000
00003000
,
00000000
00000000
00010000
00000000
00011000
00000000
00000000
01100000
,
00000000
00000000
10000000
00000000
00110000
00000000
00000000
00011000
,
00000000
00000000
00000010
00000000
00001001
00000000
00000000
00011000
,
00000000
02000000
00200000
00000000
,
00000000
03300000
00000000
00000000
;

//---------------dance-double - ----------------
#NOTES:
     dance-double:
     :
     Edit:
     8:
     0.491,0.706,0.115,0.286,0.124: // measure 1
00000000
00000000
00000000
00000000
,  // measure 2
00000000
00000000
00000000
00000000
,  // measure 3
00000010
00000000
00000100
00000001
00000100
00000000
00000010
00001000
00000010
00000000
00010000
00000100
00010000
00000000
00001000
00010000
,  // measure 4
00001000
00000000
01000000
00010000
01000000
00000000
00100000
10000000
00100000
00000000
10000000
01000000
10000000
00000000
00000000
00000000
,  // measure 5
01000000
00000000
00010000
00000000
00000000
00001000
00010000
00001000
00000000
00100000
00000000
01000000
00010000
00000000
00000000
00000000
,  // measure 6
00001000
00000000
00010000
00000000
00000000
00000100
00001000
00000100
00000000
00000010
00000000
00000001
00001000
00000000
00000010
00000000
,  // measure 7
00000100
00000000
00001000
00000000
00000000
00010000
00001000
00010000
00000000
00000010
00000000
00000100
00001000
00000000
00010000
00001000
,  // measure 8
00000000
00000000
01000000
00000000
00200000
00000000
00000000
20000000
00000000
00000000
00000000
00000000
30300000
00000000
00000000
00000000
,  // measure 9
01000000
00000000
00100000
00010000
00000000
00100000
00001000
00000000
,  // measure 10
00010000
00000000
00000010
00001000
00000000
00000000
00000020
00000000
,  // measure 11
00000130
00000000
00001000
00010000
00000000
00100000
00000000
00000000
,  // measure 12
01000000
00000000
00000000
00200000
00000000
00000000
00000000
00000000
,  // measure 13
10300000
01000000
00010000
00100000
00000000
01010000
00000000
01001000
,  // measure 14
00000000
00011000
00000000
00000000
00000000
00000000
00000000
00000000
,  // measure 15
01000000
00010000
00001000
00000010
00000000
00011000
00000000
00010010
,  // measure 16
00000000
00000000
00000000
00000000
,  // measure 17
00000000
00000001
00000000
00000100
,  // measure 18
00000000
00001000
00000000
01000000
,  // measure 19
00000000
00010000
00000000
10000000
,  // measure 20
00000000
01000000
00000000
00010000
,  // measure 21
00000100
00001000
00000100
00010000
00001000
00100000
00010000
01000000
,  // measure 22
00100000
00010000
00001000
00010000
00000000
00010000
00001000
00000100
,  // measure 23
00000001
00000010
00000001
00000100
00001000
00010000
00000000
00001000
,  // measure 24
00000000
00000000
00000000
00000000
,  // measure 25
01000000
00010000
01000000
00001000
00010000
00000010
00001000
00000100
,  // measure 26
00000010
00001000
00010000
00001000
00000000
00001000
00010000
01000000
,  // measure 27
10000000
00100000
10000000
01000000
00010000
00001000
00000000
00010000
,  // measure 28
00000000
00000000
00000000
00000000
00000000
00000000
00000010
00001000
,  // measure 29
00000100
00000000
00000001
00000100
00001000
00000001
00000100
00000001
,  // measure 30
00000100
00000000
00001000
00010000
00001000
00010000
00100000
00000000
,  // measure 31
01000000
00000000
00100000
10000000
01000000
00010000
01000000
00000000
,  // measure 32
00010000
00001000
00010000
00001000
00000010
00000100
00001000
00000001
,  // measure 33
00000100
00000000
00000001
00000100
00001000
00010000
00001000
00010000
,  // measure 34
01000000
10000000
00100000
00010000
00001000
00010000
00001000
00000000
,  // measure 35
00010000
00001000
00000100
00000010
00000001
00001000
00000000
00010000
,  // measure 36
00001000
00100000
00010000
01000000
00000000
00000000
00100000
00000000
,  // measure 37
10000000
01000000
00100000
00010000
10000000
01000000
00010000
01000000
,  // measure 38
00100000
00001000
00010000
00001000
00100000
01000000
00010000
00000000
,  // measure 39
00001000
00000100
00000010
00001000
00000000
00000001
00000000
00000001
,  // measure 40
00000000
00001001
00000110
00000000
,  // measure 41
00000001
00000100
00000010
00001000
00000001
00000100
00001000
00000100
,  // measure 42
00000010
00010000
00001000
00010000
00000010
00000100
00001000
00000000
,  // measure 43
00010000
01000000
00100000
00010000
00000000
10000000
00000000
10000000
,  // measure 44
00000000
01100000
10010000
00000000
,  // measure 45
00020000
02030000
03200000
00320000
,  // measure 46
00032000
00000000
00003100
00000001
00000000
00001000
00000001
00000010
,  // measure 47
00000200
00000000
00000302
00000000
00000203
00000000
00000310
00000001
,  // measure 48
00000000
00000000
00000000
00000000
,  // measure 49
00002000
00003200
00000320
00002030
,  // measure 50
00023000
00000000
01030000
10000000
00000000
00010000
10000000
00100000
,  // measure 51
02000000
00000000
13000000
00100000
00010000
00001000
00000000
00011000
,  // measure 52
00000000
00000000
00000000
00000000
,  // measure 53
00000000
00000001
00000010
00001000
00000001
00000001
00000100
00000010
,  // measure 54
00000001
00000100
00001000
00001000
00010000
00100000
10000000
00010000
,  // measure 55
00100000
00100000
00010000
00000010
00000000
00001010
00000000
00022000
,  // measure 56
00000000
00000000
00000000
00030000
00003000
00000010
00001000
00010000
,  // measure 57
02000000
00000000
00000000
00000000
00000000
03000000
00000000
00000000
,  // measure 58
00000000
00000000
00000000
00000000
00100000
00010000
00100000
00000000
00001000
00010000
00001000
00000000
00000100
00001000
00000100
00000000
,  // measure 59
00000010
00001000
00000010
00000000
00010000
00001000
00010000
00000000
00001000
00000000
00000000
00000000
00001000
00000000
02000000
00000000
,  // measure 60
00000000
00000000
00000000
03000000
,  // measure 61
00000000
00000000
00010000
00000000
00200000
00000000
00000000
02300000
,  // measure 62
00000000
00000000
03010000
00000000
00000020
00000000
00000000
00000230
,  // measure 63
00000000
00000000
00001300
00000000
00200000
00000000
00000000
02300000
,  // measure 64
00000000
03020000
00000020
00000000
,  // measure 65
00000000
00030030
00000000
00000000
;
