#TITLE:NONSTOP I;
#SUBTITLE:;
#ARTIST:AFRONOVA -- WILD RUSH -- DROP OUT;
#TITLETRANSLIT:;
#SUBTITLETRANSLIT:;
#ARTISTTRANSLIT:;
#CREDIT:;
#BANNER:NONSTOP I.png;
#BACKGROUND:NONSTOP I-bg.png;
#LYRICSPATH:;
#CDTITLE:./CDTITLES/DANCE DANCE REVOLUTION SOLO.PNG;
#MUSIC:NONSTOP I.ogg;
#OFFSET:0.000;
#SAMPLESTART:51.896;
#SAMPLELENGTH:15.000;
#SELECTABLE:YES;
#DISPLAYBPM:80.000:260.000;
#BPMS:0.000=200.017,196.000=80.024,228.000=118.099,229.000=120.020,259.500=114.430,260.000=139.992,291.000=135.255,292.000=260.189,528.000=255.954,532.000=260.093;
#STOPS:;
#BGCHANGES:;

//---------------dance-single - ----------------
#NOTES:
     dance-single:
     :
     Easy:
     5:
     0.306,0.557,0.310,0.000,0.000: // measure 1
0000
0000
0000
0000
,  // measure 2
0000
0000
0000
0000
,  // measure 3
0000
0000
0000
0000
,  // measure 4
0000
0000
0000
0000
,  // measure 5
0000
0000
0000
0000
,  // measure 6
0010
0001
1001
1000
,  // measure 7
0100
1000
1001
0001
,  // measure 8
0010
1000
1001
0001
,  // measure 9
0100
0001
1001
1000
,  // measure 10
1100
1000
0100
1100
,  // measure 11
0110
0010
0100
0110
,  // measure 12
0011
0001
0010
0011
,  // measure 13
1001
0001
1000
1001
,  // measure 14
0000
1000
0000
1000
,  // measure 15
0000
0001
0000
1000
,  // measure 16
0000
0010
0000
0010
,  // measure 17
0000
0100
0000
0010
,  // measure 18
0000
0001
0000
0001
,  // measure 19
0000
1000
0000
0001
,  // measure 20
0000
0100
0000
0100
,  // measure 21
0000
0010
0000
0100
,  // measure 22
1001
1000
1001
0001
,  // measure 23
0110
1001
0110
0000
,  // measure 24
1001
1000
1001
0001
,  // measure 25
0110
1001
0110
0000
,  // measure 26
1001
1000
1001
0001
,  // measure 27
0110
1001
0110
0000
,  // measure 28
1001
1000
1001
0001
,  // measure 29
0110
1001
0110
0000
,  // measure 30
1000
0000
1000
0000
,  // measure 31
0001
0000
0001
0000
,  // measure 32
1000
0100
0001
0100
,  // measure 33
1000
0100
0001
0100
,  // measure 34
1000
0000
1000
0000
,  // measure 35
0001
0000
0001
0000
,  // measure 36
1000
0010
0001
0010
,  // measure 37
1000
0010
0001
0010
,  // measure 38
1000
0000
1000
0000
,  // measure 39
0001
1000
0100
0100
,  // measure 40
0001
0000
0001
0000
,  // measure 41
1000
0001
0100
0100
,  // measure 42
1000
0000
1000
0000
,  // measure 43
0001
1000
0010
0010
,  // measure 44
0000
1000
0000
0001
,  // measure 45
0000
1000
0000
0000
,  // measure 46
0000
1000
0001
0000
,  // measure 47
1000
0000
0001
0000
,  // measure 48
1000
0000
0000
0000
,  // measure 49
0000
0000
0001
0000
,  // measure 50
0000
0000
0000
0000
,  // measure 51
0010
0000
0001
0000
,  // measure 52
1000
0001
0001
0001
,  // measure 53
0010
0000
0001
0000
,  // measure 54
1000
0001
0001
0001
,  // measure 55
0010
0000
0001
0000
,  // measure 56
1000
0001
0001
0001
,  // measure 57
0100
0000
0000
0000
0100
0100
0100
0000
,  // measure 58
1000
0010
1000
0010
,  // measure 59
0100
0001
0100
0001
,  // measure 60
1000
0010
1000
0001
,  // measure 61
1000
0001
0010
0001
,  // measure 62
1000
0001
0010
0001
,  // measure 63
1000
0001
1000
0010
,  // measure 64
1000
0001
0100
0010
,  // measure 65
1000
0000
0001
0000
1000
1000
1000
0000
,  // measure 66
0010
1000
1000
1000
,  // measure 67
0010
0000
0100
0000
,  // measure 68
0001
1000
0010
0100
,  // measure 69
1000
0000
0001
0000
,  // measure 70
0000
0001
0000
0010
,  // measure 71
0010
0010
0100
0100
,  // measure 72
0100
0000
1000
0000
,  // measure 73
0000
0000
0000
0000
0001
0001
0001
0000
,  // measure 74
0000
0000
0000
0000
,  // measure 75
0000
0000
0000
0000
,  // measure 76
0010
0000
0000
0000
,  // measure 77
0000
0000
0000
0000
,  // measure 78
0010
0000
0000
0000
,  // measure 79
0000
0000
0000
0000
,  // measure 80
0010
0000
0000
0000
,  // measure 81
0000
0000
0000
0000
,  // measure 82
1000
0000
0000
0000
,  // measure 83
0000
0000
0000
0000
,  // measure 84
0001
0000
0000
0000
,  // measure 85
0000
0000
0000
0000
,  // measure 86
1000
0000
0000
0000
,  // measure 87
0000
0000
0000
0000
,  // measure 88
0001
0000
0000
0000
,  // measure 89
0000
0000
0000
0000
,  // measure 90
1000
0000
0010
0000
,  // measure 91
1000
0000
0100
0000
,  // measure 92
0010
1000
0100
0000
,  // measure 93
1000
0000
1000
0000
,  // measure 94
0010
0001
0100
0000
,  // measure 95
0001
0000
0001
0000
,  // measure 96
0010
1000
0100
0000
,  // measure 97
1000
0000
1000
0000
,  // measure 98
0010
0001
0100
0000
,  // measure 99
0001
0000
0001
0000
,  // measure 100
0000
1000
0000
0100
,  // measure 101
0000
0001
0000
0100
,  // measure 102
0000
0110
0000
1001
,  // measure 103
0000
0010
0000
0001
,  // measure 104
0010
0001
0000
0100
,  // measure 105
0000
1000
0000
0100
,  // measure 106
0000
0110
0000
1001
,  // measure 107
0000
1000
0000
0001
0100
0000
0000
0000
,  // measure 108
0000
0001
0000
0100
,  // measure 109
0000
1000
0000
0100
,  // measure 110
0000
0110
0000
1001
,  // measure 111
0000
0010
0000
1000
,  // measure 112
0010
1000
0000
0100
,  // measure 113
0000
0001
0000
0100
,  // measure 114
0000
0110
0000
1001
,  // measure 115
0000
0001
0000
1000
0100
0000
0000
0000
,  // measure 116
0010
1000
0100
0000
,  // measure 117
0001
0000
0001
0000
,  // measure 118
1000
0000
1001
0000
,  // measure 119
0010
0000
1001
0000
,  // measure 120
0010
0001
0100
0000
,  // measure 121
1000
0000
1000
0000
,  // measure 122
0001
0000
1001
0000
,  // measure 123
0010
0000
1001
0000
,  // measure 124
0010
0000
0001
0000
,  // measure 125
0100
0000
0000
0010
,  // measure 126
0000
1001
0000
1001
,  // measure 127
0000
0100
0000
0010
,  // measure 128
0000
0100
0000
1001
,  // measure 129
0000
1001
0000
0010
,  // measure 130
0000
1000
0000
0010
,  // measure 131
0000
0100
0000
1001
,  // measure 132
0000
0100
0000
0001
,  // measure 133
0000
0000
0000
0010
,  // measure 134
0000
1001
0000
1001
,  // measure 135
0000
0100
0000
0010
,  // measure 136
0000
0100
0000
1001
,  // measure 137
0000
1001
0000
0010
,  // measure 138
0000
0001
0000
0010
,  // measure 139
0000
0100
0000
1001
,  // measure 140
0000
0100
0000
1000
,  // measure 141
0000
0000
0000
0000
,  // measure 142
0000
0010
0000
0000
0000
1001
0000
0000
,  // measure 143
0000
0010
0000
0000
0000
1001
0000
0000
,  // measure 144
0000
1000
0000
0001
0000
0100
0000
0001
;

//---------------dance-single - ----------------
#NOTES:
     dance-single:
     :
     Medium:
     7:
     0.407,0.637,0.332,0.000,0.017: // measure 1
0000
0000
0000
0000
,  // measure 2
0000
0000
0000
0000
,  // measure 3
0000
0000
0000
0000
,  // measure 4
0000
0000
0000
0000
,  // measure 5
0000
0000
0000
0000
,  // measure 6
0010
0010
1100
0101
,  // measure 7
1001
0100
1000
0100
,  // measure 8
0001
0001
1100
0101
,  // measure 9
1001
0010
0010
0100
,  // measure 10
0001
1000
1100
0101
,  // measure 11
1001
0010
0001
0100
,  // measure 12
0010
1000
1100
0101
,  // measure 13
1001
0100
0100
0100
,  // measure 14
1001
0001
0000
0100
,  // measure 15
0000
1000
0000
0100
,  // measure 16
1100
0100
0000
0001
,  // measure 17
0000
0100
0000
1000
,  // measure 18
1001
1000
0000
0100
,  // measure 19
0000
0001
0000
0100
,  // measure 20
0101
0100
0000
1000
,  // measure 21
0000
0100
0000
0001
,  // measure 22
0110
1001
1100
1001
,  // measure 23
0101
1001
0110
0000
,  // measure 24
0110
1001
1100
1001
,  // measure 25
0101
1001
0110
0000
,  // measure 26
0110
1001
1100
1001
,  // measure 27
0101
1001
0110
0000
,  // measure 28
0110
1001
1100
1001
,  // measure 29
0101
1001
0110
0000
,  // measure 30
0010
1000
0100
1000
,  // measure 31
0001
0010
0001
0100
,  // measure 32
1000
0100
0001
0100
,  // measure 33
0010
1000
0010
0001
,  // measure 34
0010
1000
0100
1000
,  // measure 35
0001
0010
0001
0100
,  // measure 36
1000
0100
0001
0100
,  // measure 37
0010
1000
0010
0001
,  // measure 38
0110
1000
0100
0001
,  // measure 39
1000
0100
0100
0001
,  // measure 40
1100
0001
0010
1000
,  // measure 41
0010
0001
0100
1000
,  // measure 42
1010
0001
0010
0001
,  // measure 43
1000
0000
0001
0000
,  // measure 44
0000
1000
0000
0001
,  // measure 45
0000
0000
0000
1000
0000
0100
0000
0001
0000
0100
0000
1000
,  // measure 46
0000
0100
0010
0000
,  // measure 47
1000
0000
0001
0000
,  // measure 48
1000
0000
0000
0000
0000
0000
1000
0000
0100
0000
0001
0000
,  // measure 49
0100
0000
1000
0000
0000
0000
0001
0000
0000
0000
0000
0000
,  // measure 50
0000
0000
0000
0000
,  // measure 51
0000
0000
0100
0100
,  // measure 52
1000
0001
1000
0000
0010
0001
1000
0000
,  // measure 53
0010
0010
0100
0000
,  // measure 54
0001
1000
0010
0000
0001
1000
0001
0000
,  // measure 55
0100
0100
0010
0000
,  // measure 56
1000
0001
0010
0000
1000
0001
0100
0000
,  // measure 57
0001
0000
0000
0000
,  // measure 58
1001
0100
0100
1000
,  // measure 59
0001
0000
1000
0000
0001
0000
0010
0001
,  // measure 60
1000
0010
1000
0001
,  // measure 61
1000
0001
1000
0001
,  // measure 62
1001
1000
0010
1000
,  // measure 63
0001
0010
0100
0010
,  // measure 64
1001
0100
0100
0100
,  // measure 65
0001
0000
1000
0000
0001
1000
0001
0000
,  // measure 66
1000
0001
1000
0001
,  // measure 67
1000
0010
0100
1001
,  // measure 68
0010
0100
0010
0100
,  // measure 69
0001
0010
0001
0011
,  // measure 70
0001
1000
0001
1000
,  // measure 71
0010
1000
0010
1010
,  // measure 72
0010
0010
0010
0010
,  // measure 73
0001
0000
1000
0000
0000
0001
1000
0000
,  // measure 74
0000
0000
0000
0000
,  // measure 75
0000
0000
0000
0000
,  // measure 76
0010
0000
0000
0000
,  // measure 77
0010
0000
0000
0000
,  // measure 78
0010
0000
0000
0000
,  // measure 79
1000
0000
0000
0000
,  // measure 80
0001
0000
0000
0000
,  // measure 81
0100
0000
0110
0000
,  // measure 82
0010
0000
1001
0000
,  // measure 83
0010
0000
0001
0000
,  // measure 84
0010
0000
1001
0000
,  // measure 85
0010
0000
1000
0000
,  // measure 86
0010
0000
1001
0000
,  // measure 87
0010
0000
0001
0000
,  // measure 88
0010
0000
1001
0000
,  // measure 89
0010
0000
1000
0000
,  // measure 90
0010
0000
1000
0000
,  // measure 91
0100
0000
0001
0000
,  // measure 92
1000
0001
0010
0000
,  // measure 93
0001
0100
0001
0010
,  // measure 94
0001
1000
0010
0000
,  // measure 95
1000
0100
1000
0010
,  // measure 96
1000
0001
0010
0000
,  // measure 97
0001
0100
0001
0010
,  // measure 98
0001
1000
0010
0000
,  // measure 99
1000
0100
1000
0000
,  // measure 100
0010
1000
0010
1000
,  // measure 101
0010
0100
0010
1000
,  // measure 102
0010
1000
0010
1000
,  // measure 103
0000
0100
0000
0001
,  // measure 104
0100
0001
0100
0001
,  // measure 105
0100
0010
0100
0001
,  // measure 106
0100
0001
0000
1000
,  // measure 107
0000
0110
0000
0001
1000
0000
0000
0000
,  // measure 108
0010
0001
0010
0001
,  // measure 109
0010
0100
0010
0001
,  // measure 110
0010
0001
0010
0001
,  // measure 111
0000
0100
0000
1000
,  // measure 112
0100
1000
0100
1000
,  // measure 113
0100
0010
0100
1000
,  // measure 114
0100
1000
0000
0001
,  // measure 115
0000
0110
0000
1000
0001
0000
0000
0000
,  // measure 116
1000
0010
1000
0001
,  // measure 117
0100
0000
0100
0000
,  // measure 118
1000
0100
0001
0100
,  // measure 119
0010
0100
0010
1000
,  // measure 120
0001
0010
0001
1000
,  // measure 121
0100
0000
0100
0000
,  // measure 122
0010
0000
0001
0000
,  // measure 123
0100
0000
0100
0000
,  // measure 124
0010
0000
1000
0000
,  // measure 125
0100
0000
0000
0001
,  // measure 126
1000
0001
1000
0001
,  // measure 127
0100
0001
1000
0001
,  // measure 128
1000
0001
1000
0100
,  // measure 129
1000
0001
1000
0010
,  // measure 130
1000
0001
0010
0001
,  // measure 131
0100
0001
1000
0100
,  // measure 132
1000
0001
0100
0010
,  // measure 133
0000
0000
0000
1000
,  // measure 134
0010
0100
0010
1000
,  // measure 135
0001
0010
0100
0010
,  // measure 136
0001
1000
0010
0100
,  // measure 137
1000
0001
0010
0001
,  // measure 138
0010
0001
1000
0010
,  // measure 139
1000
0010
1000
0001
,  // measure 140
0010
0001
0010
0001
,  // measure 141
1000
0010
1000
0000
,  // measure 142
0000
0100
0000
1000
0000
0001
0000
0100
,  // measure 143
0000
0001
0000
0010
0000
0001
0000
0100
,  // measure 144
0000
0010
0000
1000
0000
0001
0000
1000
;

//---------------dance-single - ----------------
#NOTES:
     dance-single:
     :
     Hard:
     9:
     0.563,0.716,0.481,0.000,0.047: // measure 1
0000
0000
0000
0000
,  // measure 2
0000
0000
0000
0000
,  // measure 3
0000
0000
0000
0000
,  // measure 4
0000
0000
0000
0000
,  // measure 5
0000
0000
0000
0000
,  // measure 6
0010
0000
0100
0000
0100
0001
0001
0000
,  // measure 7
0010
0000
0100
0000
0100
1000
1000
0000
,  // measure 8
0100
0000
0010
0000
0001
0010
0001
0000
,  // measure 9
0100
0000
0010
0000
1000
0010
1000
0000
,  // measure 10
0001
0000
1000
0000
0100
0001
1000
0000
,  // measure 11
1000
0000
0001
0000
0100
1000
0001
0000
,  // measure 12
0010
0000
1000
0000
0010
1000
0010
0000
,  // measure 13
0010
0000
0001
0000
0010
0001
0010
0000
,  // measure 14
1000
0100
1000
0100
0001
0100
0001
0100
,  // measure 15
1000
0010
1000
0010
0001
0010
0001
0010
,  // measure 16
1000
0010
0001
1000
0100
0001
1000
0010
,  // measure 17
0001
1000
0100
0001
1000
0010
0001
0000
,  // measure 18
1000
0100
1000
0100
0001
0100
0001
0100
,  // measure 19
1000
0010
1000
0010
0001
0010
0001
0010
,  // measure 20
1000
0010
0001
1000
0100
0001
1000
0010
,  // measure 21
0001
1000
0100
0001
1000
0010
0001
0000
,  // measure 22
0110
1001
0110
1001
,  // measure 23
1100
0101
1001
0000
,  // measure 24
0110
1001
0110
1001
,  // measure 25
1100
0101
1001
0000
,  // measure 26
0110
1001
0110
1001
,  // measure 27
1100
0101
1001
0000
,  // measure 28
0110
1001
0110
1001
,  // measure 29
1100
0101
1001
0000
,  // measure 30
0010
1000
0010
0000
0100
0001
0100
0000
,  // measure 31
0010
1000
0010
1000
0001
0100
0001
0000
,  // measure 32
0100
0001
0100
0000
0010
1000
0010
0000
,  // measure 33
0100
0001
0100
0001
1000
0010
1000
0000
,  // measure 34
1000
0010
0100
0000
0001
0100
0010
0000
,  // measure 35
1000
0010
0100
0001
0100
0010
1000
0000
,  // measure 36
0001
0010
0100
0000
1000
0100
0010
0000
,  // measure 37
0001
0010
0100
1000
0100
0010
0001
0000
,  // measure 38
1001
0000
0010
0000
0001
0100
1000
0000
,  // measure 39
1010
0000
0001
0000
0010
1000
0001
0000
,  // measure 40
0110
0000
0010
0000
1000
0001
0100
0000
,  // measure 41
1100
0000
0010
0000
0001
0010
1000
0000
,  // measure 42
0011
0000
0100
0000
0001
0010
0100
0000
,  // measure 43
0101
0000
0010
0000
0001
0010
1000
0000
,  // measure 44
0000
1000
0000
0001
,  // measure 45
0000
0000
0000
0010
0000
1000
0000
0001
0000
1000
0000
0100
,  // measure 46
0000
0100
0010
0000
,  // measure 47
1000
0000
0001
0000
,  // measure 48
1000
0000
0000
0000
0000
0000
0010
0000
1000
0000
0001
0000
,  // measure 49
1000
0000
0100
0000
0000
0000
0001
0000
0000
0000
0000
0000
,  // measure 50
0000
0000
0000
0000
,  // measure 51
0000
0000
0000
0000
,  // measure 52
1000
0100
1000
1000
,  // measure 53
1000
0000
0000
0000
1000
0000
0000
0000
0000
1000
0100
0010
0001
1000
0100
0010
,  // measure 54
0000
0010
0000
0000
0000
0000
0000
0000
0000
0000
0000
0000
0000
0000
0000
0000
,  // measure 55
0000
0000
0000
0000
,  // measure 56
0001
0100
0001
0001
,  // measure 57
0001
0000
0000
0000
0001
0000
0000
0000
0000
0001
0100
0010
1000
0001
0100
0010
,  // measure 58
1000
1000
0000
0010
0000
1000
0000
0010
,  // measure 59
0000
0100
0000
0001
0000
0100
0000
0001
,  // measure 60
0000
1000
0000
0010
0000
1000
0000
0001
,  // measure 61
0000
1000
0000
0001
0000
0010
0000
0001
,  // measure 62
0000
1000
0000
0001
0000
0010
0000
0001
,  // measure 63
0000
1000
0000
0001
0000
1000
0000
0010
,  // measure 64
0000
1000
0000
0001
0000
0100
0000
0010
,  // measure 65
0000
1000
0000
0001
0000
0100
0100
0000
,  // measure 66
0001
0001
0000
1000
0000
0001
0000
1000
,  // measure 67
1000
1000
0000
1000
0000
0001
0000
1000
,  // measure 68
0001
0001
0000
0010
0000
0001
0010
0001
,  // measure 69
1000
0010
0000
0001
0000
1000
0001
1000
,  // measure 70
0001
0010
0000
1000
0000
0010
0100
0010
,  // measure 71
0100
0100
0000
0010
0000
1000
0010
1000
,  // measure 72
0010
1000
0000
0001
0000
1000
1000
0001
,  // measure 73
0001
0001
0000
0010
0000
0001
0010
0001
,  // measure 74
0010
0000
0000
0000
,  // measure 75
0000
0000
0000
0000
,  // measure 76
1000
0000
0000
0000
,  // measure 77
0001
0000
0000
0000
,  // measure 78
1000
0000
0000
0000
,  // measure 79
0001
0000
0000
0000
,  // measure 80
1000
0000
0000
0000
,  // measure 81
0100
0000
0110
0000
,  // measure 82
0000
1001
0000
0000
,  // measure 83
0000
0010
0000
1000
0001
0000
0000
0000
,  // measure 84
0000
1001
0000
0000
,  // measure 85
0000
0010
0000
0001
1000
0000
0000
0000
,  // measure 86
0000
1001
0000
0000
,  // measure 87
0000
0010
0000
1000
0001
0000
0000
0000
,  // measure 88
0000
1001
0000
0000
,  // measure 89
0000
0010
0000
0001
1000
0000
0000
0000
,  // measure 90
0001
0100
0001
1000
,  // measure 91
0100
1000
0001
0000
,  // measure 92
1000
0010
0110
0000
,  // measure 93
0010
1000
0001
0010
,  // measure 94
0001
0010
0110
0000
,  // measure 95
0010
0001
1000
0010
,  // measure 96
0100
1000
1001
0000
,  // measure 97
0100
0010
1000
0001
,  // measure 98
0100
0001
1001
0000
,  // measure 99
0010
0001
1000
0000
,  // measure 100
0110
1001
0110
1001
,  // measure 101
1001
1100
1001
0011
,  // measure 102
0110
1001
0110
1001
,  // measure 103
1001
0101
1010
1001
,  // measure 104
1000
0001
1000
0001
,  // measure 105
0100
0010
1000
0001
,  // measure 106
0010
0100
1000
0010
,  // measure 107
0000
1001
0000
0010
0100
0000
0000
0000
,  // measure 108
0110
1100
0110
0101
,  // measure 109
0101
0110
0101
0101
,  // measure 110
0110
0101
0110
1100
,  // measure 111
1100
0110
1100
0110
,  // measure 112
0100
0010
0100
0010
,  // measure 113
0001
0010
0100
0010
,  // measure 114
0100
0010
1000
1000
,  // measure 115
0000
0110
0000
1000
0001
0000
0000
0000
,  // measure 116
0100
0001
1000
0100
,  // measure 117
1000
0001
0100
0001
,  // measure 118
1000
0100
1000
0001
,  // measure 119
0100
0001
1000
0100
,  // measure 120
1000
0001
0100
0001
,  // measure 121
1000
0100
1000
0001
,  // measure 122
0100
0001
1000
0100
,  // measure 123
1000
0001
0100
0001
,  // measure 124
1000
0000
0000
0000
0000
0000
0000
1000
0000
0000
0000
0000
0000
0000
0000
0000
,  // measure 125
0000
1000
0000
0000
0000
0000
0000
0000
0000
0000
0000
0000
0010
0000
0100
0000
,  // measure 126
0010
0100
0001
1000
0001
1000
0001
0010
,  // measure 127
0001
0010
0001
1000
0001
1000
0010
1000
,  // measure 128
0010
1000
0001
1000
0001
1000
0100
0010
,  // measure 129
0100
0010
0001
1000
0001
1000
0010
0100
,  // measure 130
0010
0100
0001
0010
0001
0010
0100
1000
,  // measure 131
0100
1000
0001
0010
0001
0010
0100
1000
,  // measure 132
0100
1000
0100
0001
0100
0001
0100
1000
,  // measure 133
0100
0001
0100
0000
0000
0000
0000
0000
,  // measure 134
0010
0100
0010
0100
1000
0001
1000
0001
,  // measure 135
0010
0100
0010
0100
1000
0001
1000
0001
,  // measure 136
0100
0001
0100
0001
1000
0001
1000
0001
,  // measure 137
1000
0100
1000
0100
0010
0001
0010
0001
,  // measure 138
1000
0001
1000
0001
0100
0010
0100
0010
,  // measure 139
1000
0001
1000
0001
0010
0100
0010
0100
,  // measure 140
1000
0010
1000
0010
0100
0001
0100
0001
,  // measure 141
0010
0100
0010
0100
0010
0000
0000
0000
,  // measure 142
0000
1001
0000
1001
0000
0110
0000
1001
,  // measure 143
0000
0110
0000
1001
0000
0011
0000
1001
,  // measure 144
0000
1010
0000
1001
0000
0010
0000
0100
;

//---------------dance-solo - ----------------
#NOTES:
     dance-solo:
     :
     Easy:
     6:
     0.305,0.557,0.310,0.000,0.000:
000000
000000
000000
000000
,
000000
000000
000000
000000
,
000000
000000
000000
000000
,
000000
000000
000000
000000
,
000000
000000
000000
000000
,
000010
000010
100001
100000
,
001000
100000
100001
000000
,
000100
100000
100001
000001
,
001000
000001
100001
100000
,
101000
100000
001000
101000
,
001100
000100
001000
001100
,
000101
000001
000100
000101
,
100001
000001
100000
010010
,
000000
100000
000000
100000
,
000000
000001
000000
100000
,
000000
000100
000000
000100
,
000000
001000
000000
000100
,
000000
000001
000000
000001
,
000000
100000
000000
000001
,
000000
001000
000000
001000
,
000000
000100
000000
001000
,
010010
100000
100001
000001
,
001100
100001
001100
000000
,
010010
100000
100001
000001
,
001100
100001
001100
000000
,
010010
100000
100001
000001
,
001100
100001
001100
000000
,
010010
100000
100001
000001
,
001100
100001
001100
000000
,
100000
000000
010000
000000
,
000010
000000
000010
000000
,
100000
001000
000001
001000
,
100000
001000
000001
001000
,
100000
000000
010000
000000
,
000010
000000
000010
000000
,
010000
000100
000001
000100
,
100000
000100
000001
000100
,
100000
000000
010000
000000
,
000010
100000
001000
001000
,
000001
000000
000010
000000
,
010000
000001
001000
001000
,
100000
000000
010000
000000
,
000010
100000
000100
000100
,
000000
010000
000000
000010
,
000000
100000
000000
000000
,
000000
100000
000001
000000
,
010000
000000
000010
000000
,
100000
000000
000000
000000
,
000000
000000
000001
000000
,
000000
000000
000000
000000
,
000010
000000
000010
000000
,
010000
000001
000001
000001
,
000010
000000
000010
000000
,
010000
000001
000001
000001
,
000010
000000
000010
000000
,
100000
000001
000001
000001
,
001000
000000
000000
000000
001000
001000
001000
000000
,
100000
010000
100000
010000
,
100000
000100
100000
000100
,
010000
000100
010000
000010
,
010000
000001
000100
000001
,
010000
000010
000100
000001
,
010000
000010
100000
000100
,
100000
000001
001000
000100
,
100000
000000
000001
000000
010000
010000
010000
000000
,
000100
100000
100000
100000
,
010000
000000
000010
000000
,
000001
010000
010000
010000
,
100000
000000
000001
000000
,
000000
000001
000000
000100
,
000100
000100
001000
001000
,
001000
000000
100000
000000
,
000000
000000
000000
000000
000001
000001
000001
000000
,
000000
000000
000000
000000
,
000000
000000
000000
000000
,
000100
000000
000000
000000
,
000000
000000
000000
000000
,
000100
000000
000000
000000
,
000000
000000
000000
000000
,
000100
000000
000000
000000
,
000000
000000
000000
000000
,
010000
000000
000000
000000
,
000000
000000
000000
000000
,
000010
000000
000000
000000
,
000000
000000
000000
000000
,
010000
000000
000000
000000
,
000000
000000
000000
000000
,
000010
000000
000000
000000
,
000000
000000
000000
000000
,
010000
000000
010000
000000
,
010000
000000
010000
000000
,
000100
010000
001000
000000
,
100000
000000
100000
000000
,
000100
000010
001000
000000
,
000001
000000
000001
000000
,
000100
010000
001000
000000
,
100000
000000
100000
000000
,
000100
000010
001000
000000
,
000001
000000
000001
000000
,
000000
100000
000000
001000
,
000000
000001
000000
001000
,
000000
001100
000000
100001
,
000000
010000
000000
000010
,
000100
000001
000000
001000
,
000000
100000
000000
001000
,
000000
001100
000000
100001
,
000000
100000
000000
000001
001000
000000
000000
000000
,
000000
000001
000000
001000
,
000000
100000
000000
001000
,
000000
001100
000000
100001
,
000000
000010
000000
010000
,
000100
100000
000000
001000
,
000000
000001
000000
001000
,
000000
001100
000000
100001
,
000000
000001
000000
100000
001000
000000
000000
000000
,
000100
100000
001000
000000
,
000001
000000
000001
000000
,
010000
000000
010010
000000
,
000010
000000
010010
000000
,
000100
000001
001000
000000
,
100000
000000
100000
000000
,
000010
000000
010010
000000
,
010000
000000
010010
000000
,
000010
000000
000010
000000
,
000010
000000
000000
000100
,
000000
010010
000000
100001
,
000000
001000
000000
000100
,
000000
001000
000000
100001
,
000000
010010
000000
000100
,
000000
010000
000000
000100
,
000000
000010
000000
100001
,
000000
001000
000000
000001
,
000000
000000
000000
000100
,
000000
010010
000000
100001
,
000000
001000
000000
000100
,
000000
001000
000000
100001
,
000000
010010
000000
000100
,
000000
000010
000000
000100
,
000000
010000
000000
100001
,
000000
001000
000000
100000
,
000000
000000
000000
000000
,
000000
010000
000000
000000
000000
010010
000000
000000
,
000000
000010
000000
000000
000000
010010
000000
000000
,
000000
100000
000000
000001
000000
001000
000000
000010
;

//---------------dance-solo - ----------------
#NOTES:
     dance-solo:
     :
     Medium:
     7:
     0.407,0.637,0.332,0.000,0.011:
000000
000000
000000
000000
,
000000
000000
000000
000000
,
000000
000000
000000
000000
,
000000
000000
000000
000000
,
000000
000000
000000
000000
,
000100
000100
101000
001001
,
100001
001000
100000
001000
,
000001
000001
101000
001001
,
100001
000100
000100
001000
,
000001
100000
101000
001001
,
100001
000100
000001
001000
,
000100
100000
101000
001001
,
100001
001000
001000
001000
,
100001
000001
000000
001000
,
000000
100000
000000
000100
,
010100
000100
000000
000001
,
000000
000100
000000
000100
,
000110
000100
000000
000100
,
000000
000001
000000
000010
,
000011
000010
000000
100000
,
000000
001000
000000
000001
,
001100
100001
100100
010010
,
000101
100001
001100
000000
,
001100
100001
100100
010010
,
000101
100001
001100
000000
,
001100
100001
100100
010010
,
000101
100001
001100
000000
,
001100
100001
100100
010010
,
000101
100001
001100
000000
,
000100
100000
001000
100000
,
000001
000100
000001
001000
,
100000
001000
000001
001000
,
000100
100000
000100
000001
,
000100
100000
001000
100000
,
000001
000100
000001
001000
,
100000
001000
000001
001000
,
000100
100000
000100
000001
,
001100
100000
001000
000001
,
100000
001000
001000
000001
,
101000
000001
000100
100000
,
000100
000001
001000
100000
,
100100
000001
000100
000001
,
010000
000000
000010
000000
,
000000
010000
000000
000010
,
000000
000000
000000
000000
100000
000000
000000
001000
000000
000000
000001
000000
000000
001000
000000
000000
,
100000
001000
000100
000000
,
010000
000000
000010
000000
,
100000
000000
000000
000000
000000
000000
000000
000000
100000
000000
000000
001000
000000
000000
000001
000000
,
000000
001000
000000
000000
100000
000000
000000
000000
000001
000000
000000
000000
000000
000000
000000
000000
,
000000
000000
000000
000000
,
000000
000000
001000
001000
,
100000
000001
100000
000000
010000
000010
010000
000000
,
000100
000100
001000
000000
,
000010
010000
000010
000000
000001
100000
000001
000000
,
001000
001000
000100
000000
,
010000
000010
010000
000000
100000
000001
001000
000000
,
000001
000000
000000
000000
,
100001
001000
001000
100000
,
000001
000000
100000
000000
000001
000000
000100
000010
,
010000
000100
010000
000010
,
100000
000010
010000
000001
,
010010
100000
000100
010000
,
000001
000100
001000
000100
,
100001
001000
001000
001000
,
000001
000000
010000
000000
000010
010000
000010
000000
,
100000
000001
100000
000001
,
100000
000100
001000
100001
,
000100
001000
000100
001000
,
000001
000010
000001
000011
,
000001
100000
000001
100000
,
010000
100000
010000
110000
,
000100
000100
000100
000100
,
000001
000000
100000
000000
000000
000010
010000
000000
,
000000
000000
000000
000000
,
000000
000000
000000
000000
,
000100
000000
000000
000000
,
000100
000000
000000
000000
,
000100
000000
000000
000000
,
100000
000000
000000
000000
,
000001
000000
000000
000000
,
001000
000000
001100
000000
,
000100
000000
100010
000000
,
000100
000000
000001
000000
,
000100
000000
010001
000000
,
000100
000000
100000
000000
,
000100
000000
100010
000000
,
000100
000000
000001
000000
,
000100
000000
010001
000000
,
000100
000000
100000
000000
,
000100
000000
100000
000000
,
001000
000000
000001
000000
,
010000
000010
000100
000000
,
000001
001000
000001
000100
,
000010
010000
000100
000000
,
100000
001000
100000
000100
,
010000
000010
000100
000000
,
000001
001000
000001
000100
,
000010
010000
000100
000000
,
100000
001000
100000
000000
,
000100
010000
000100
100000
,
000100
001000
000100
100000
,
000100
010000
000100
100000
,
000000
001000
000000
000001
,
001000
000001
001000
000010
,
001000
000100
001000
000010
,
001000
000001
000000
100000
,
000000
001100
000000
000010
100000
000000
000000
000000
,
000100
000010
000100
000001
,
000100
001000
000100
000001
,
000100
000010
000100
000001
,
000000
001000
000000
100000
,
001000
100000
001000
010000
,
001000
000100
001000
010000
,
001000
100000
000000
000001
,
000000
001100
000000
010000
000001
000000
000000
000000
,
100000
000100
010000
000001
,
001000
000000
001000
000000
,
100000
001000
000001
001000
,
000100
001000
000100
100000
,
000001
000100
000010
100000
,
001000
000000
001000
000000
,
000100
000000
000001
000000
,
001000
000000
001000
000000
,
000100
000000
100000
000000
,
001000
000000
000000
000001
,
010000
000001
100000
000001
,
001000
000001
100000
000010
,
100000
000001
100000
001000
,
100000
000001
100000
000100
,
100000
000001
000100
000001
,
001000
000001
100000
001000
,
100000
000001
001000
000100
,
000000
000000
000000
010000
,
000100
001000
000100
010000
,
000010
000100
001000
000100
,
000010
010000
000100
001000
,
010000
000010
000100
000001
,
000100
000010
010000
000100
,
100000
000100
010000
000010
,
000100
000001
000100
000010
,
010000
000100
100000
000000
,
000000
001000
000000
100000
000000
000001
000000
001000
,
000000
000001
000000
000100
000000
000001
000000
001000
,
000000
000100
000000
100000
000000
000010
000000
010000
;

//---------------dance-solo - ----------------
#NOTES:
     dance-solo:
     :
     Hard:
     8:
     0.563,0.716,0.481,0.000,0.041:
000000
000000
000000
000000
,
000000
000000
000000
000000
,
000000
000000
000000
000000
,
000000
000000
000000
000000
,
000000
000000
000000
000000
,
000001
000000
010000
000000
010000
000010
000010
000000
,
100000
000000
000010
000000
000010
010000
010000
000000
,
000001
000000
100000
000000
000001
000100
000001
000000
,
100000
000000
000001
000000
100000
000100
100000
000000
,
000001
000000
100000
000000
001000
000001
100000
000000
,
100000
000000
000001
000000
001000
100000
000001
000000
,
000100
000000
100000
000000
010000
100000
010000
000000
,
000100
000000
000001
000000
000010
000001
000010
000000
,
000001
000010
000001
000010
000001
000100
000001
000100
,
000001
010000
000001
010000
000001
100000
000001
100000
,
000001
000100
000001
100000
001000
000001
100000
000100
,
000001
100000
001000
000001
100000
000100
000001
000000
,
100000
010000
100000
010000
100000
000100
100000
000100
,
100000
000010
100000
000010
100000
000001
100000
000001
,
100000
000100
100000
000001
001000
100000
000001
000100
,
100000
000001
001000
100000
000001
000100
100000
000000
,
001100
100001
001100
100001
,
101000
001001
100001
000000
,
001100
100001
001100
100001
,
101000
001001
100001
000000
,
001100
100001
001100
100001
,
101000
001001
100001
000000
,
001100
100001
001100
100001
,
101000
001001
100001
000000
,
000100
100000
000100
000000
001000
000001
001000
000000
,
000100
100000
000100
100000
000001
001000
000001
000000
,
001000
000001
001000
000000
000100
100000
000100
000000
,
001000
000001
001000
000001
100000
000100
100000
000000
,
100000
000100
001000
000000
000001
001000
000100
000000
,
100000
000100
001000
000001
001000
000100
100000
000000
,
000001
000100
001000
000000
100000
001000
000100
000000
,
000001
000100
001000
100000
001000
000100
000001
000000
,
010010
000000
000100
000000
000001
001000
100000
000000
,
100100
000000
000001
000000
000100
100000
000001
000000
,
001100
000000
000100
000000
100000
000001
001000
000000
,
101000
000000
000100
000000
000001
000100
100000
000000
,
000101
000000
001000
000000
000001
000100
001000
000000
,
001001
000000
000100
000000
000001
000100
100000
000000
,
000000
100000
000000
000001
,
000000
000000
000000
000000
000100
000000
000000
010000
000000
000000
000010
000000
000000
100000
000000
000000
,
000001
001000
000100
000000
,
100000
000000
000001
000000
,
100000
000000
000000
000000
000000
000000
000000
000000
000100
000000
000000
010000
000000
000000
000010
000000
,
000000
100000
000000
000000
000001
000000
000000
000000
001000
000000
000000
000000
000000
000000
000000
000000
,
000000
000000
000000
000000
,
000000
000000
000000
000000
,
100000
001000
100000
100000
,
100000
000000
000000
000000
100000
000000
000000
000000
000000
100000
001000
000100
000001
100000
001000
000100
,
000000
000100
000000
000000
000000
000000
000000
000000
000000
000000
000000
000000
000000
000000
000000
000000
,
000000
000000
000000
000000
,
000001
001000
000001
000001
,
000001
000000
000000
000000
000001
000000
000000
000000
000000
000001
001000
000100
100000
000001
001000
000100
,
100000
100000
000000
010000
000000
100000
000000
010000
,
000000
100000
000000
000100
000000
100000
000000
000100
,
000000
010000
000000
000100
000000
010000
000000
000010
,
000000
010000
000000
000001
000000
000100
000000
000001
,
000000
010000
000000
000010
000000
000100
000000
000001
,
000000
010000
000000
000010
000000
100000
000000
000100
,
000000
100000
000000
000001
000000
001000
000000
000100
,
000000
100000
000000
000001
000000
001000
001000
000000
,
000001
000001
000000
100000
000000
000001
000000
100000
,
100000
100000
000000
100000
000000
000001
000000
100000
,
000001
000001
000000
000100
000000
000010
000100
000010
,
010000
010000
000000
000001
000000
100000
000010
100000
,
000010
000010
000000
100000
000000
000100
001000
000100
,
001000
001000
000000
000100
000000
100000
010000
100000
,
000100
100000
000000
000010
000000
010000
010000
000001
,
000001
000001
000000
000100
000000
000001
000010
000001
,
000100
000000
000000
000000
,
000000
000000
000000
000000
,
010000
000000
000000
000000
,
000010
000000
000000
000000
,
100000
000000
000000
000000
,
000001
000000
000000
000000
,
100000
000000
000000
000000
,
001000
000000
001100
000000
,
000000
010010
000000
000000
,
000000
000100
000000
100000
000001
000000
000000
000000
,
000000
010010
000000
000000
,
000000
000100
000000
000001
100000
000000
000000
000000
,
000000
010010
000000
000000
,
000000
000100
000000
100000
000001
000000
000000
000000
,
000000
010010
000000
000000
,
000000
000100
000000
000001
100000
000000
000000
000000
,
000010
001000
000001
100000
,
001000
010000
000010
000000
,
010000
000100
001100
000000
,
000100
100000
000001
000100
,
000010
000100
001100
000000
,
000100
000001
100000
000100
,
001000
100000
100001
000000
,
010000
000100
100000
000001
,
001000
000001
100001
000000
,
000100
000010
010000
000000
,
010100
010010
010100
010010
,
100001
010010
100001
010010
,
000110
010010
000110
010010
,
100001
010010
100001
010010
,
100000
000001
010000
000010
,
001000
000100
100000
000001
,
000100
001000
010000
000010
,
000000
100001
000000
000100
001000
000000
000000
000000
,
001100
011000
001100
001010
,
001001
001010
001001
001010
,
001100
001010
001100
011000
,
101000
011000
101000
011000
,
001000
000100
001000
000010
,
000001
000010
001000
000100
,
001000
010000
100000
010000
,
000000
001100
000000
100000
000001
000000
000000
000000
,
001000
000010
010000
001000
,
100000
000001
001000
000010
,
010000
001000
100000
000001
,
001000
000010
010000
001000
,
010000
000010
001000
000001
,
100000
001000
010000
000010
,
001000
000001
100000
001000
,
010000
000010
001000
000001
,
100000
000000
000000
000000
000000
000000
000000
100000
000000
000000
000000
000000
000000
000000
000000
000000
,
000000
100000
000000
000000
000000
000000
000000
000000
000000
000000
000000
000000
000100
000000
001000
000000
,
000100
001000
000010
100000
000010
100000
000001
000100
,
000001
000100
000010
010000
000010
010000
000100
100000
,
000100
100000
000001
010000
000001
010000
001000
000100
,
001000
000100
000001
010000
000001
010000
000010
100000
,
000010
100000
000100
001000
000100
001000
000010
100000
,
000010
100000
000001
000100
000001
000100
001000
000010
,
001000
000010
001000
010000
001000
010000
000001
100000
,
000001
100000
001000
000000
000000
000000
000000
000000
,
000100
001000
000100
001000
010000
000001
010000
000001
,
000100
001000
000100
001000
100000
000001
100000
000001
,
001000
000010
001000
000010
100000
000001
100000
000001
,
010000
001000
010000
001000
000100
000001
000100
000001
,
010000
000010
010000
000010
100000
000100
100000
000100
,
010000
000010
010000
000010
100000
000001
100000
000001
,
000100
001000
000100
001000
010000
000001
010000
000001
,
100000
000010
100000
000010
001000
000000
000000
000000
,
000000
100001
000000
010010
000000
010100
000000
010010
,
000000
000110
000000
010010
000000
010001
000000
100001
,
000000
100010
000000
010010
000000
000100
000000
001000
;

//---------------dance-double - ----------------
#NOTES:
     dance-double:
     :
     Easy:
     6:
     0.296,0.637,0.155,0.000,0.017:
00000000
00000000
00000000
00000000
,
00000000
00000000
00000000
00000000
,
00000000
00000000
00000000
00000000
,
00000000
00000000
00000000
00000000
,
00000000
00000000
00000000
00000000
,
01000000
00010000
00010000
00010000
,
10000000
01000000
00010000
00010000
,
00001000
00000100
00000001
00000001
,
00000100
00001000
00001000
00001000
,
00010000
00010000
01000000
10000000
,
00010000
00001000
00000100
00000001
,
00000100
00001000
00000100
00001000
,
00010000
01000000
01000000
01000000
,
00000000
10000000
00000000
10000000
,
00000000
00010000
00000000
00010000
,
00000000
01000000
00000000
01000000
,
00000000
10000000
00000000
01000000
,
00000000
00010000
00000000
00010000
,
00000000
10000000
00000000
10000000
,
00000000
01000000
00000000
01000000
,
00000000
10000000
00000000
00010000
,
01100000
10010000
10010000
01100000
,
10010000
01100000
01100000
00000000
,
10000000
10000000
00010000
00010000
,
10010000
00011000
00001001
00000000
,
00000110
00001001
00001001
00000110
,
00001001
00000110
00000110
00000000
,
00000001
00000001
00001000
00001000
,
00001001
00011000
10010000
00000000
,
00100000
00100000
10000000
10000000
,
01000000
01000000
00010000
00010000
,
00001000
00001000
00000010
00000010
,
00000001
00000001
00000100
00000100
,
00001000
00001000
00010000
00010000
,
00100000
00100000
10000000
10000000
,
01000000
01000000
00010000
00010000
,
00100000
00100000
10000000
10000000
,
10010000
10000000
10010000
00010000
,
10000000
01000000
00010000
00001000
,
00011000
00001000
00011000
00010000
,
00001000
00000100
00000001
00001000
,
00001001
00000001
00001001
00001000
,
00000010
00001000
00000100
00000001
,
00000000
00000000
00001000
00000100
00000000
00000000
00000001
00000100
,
00000000
00000000
00000000
00001000
00000000
00000100
00000000
00000001
00000000
00000100
00000000
00001000
,
00000000
00010000
01000000
00000000
,
10000000
00000000
00010000
00000000
,
10000000
00000000
00000000
00000000
00000000
00000000
00010000
00000000
01000000
00000000
10000000
00000000
,
01000000
00000000
00010000
00000000
00000000
00000000
00001000
00000000
00000000
00000000
00000000
00000000
,
00000000
00000000
00000000
00000000
,
00000000
00000000
00000000
00000000
,
10000000
01000000
00010000
01000000
,
00001000
00010000
00000010
00000100
,
00000001
00001000
00000100
00000100
,
00010000
00001000
00100000
01000000
,
10000000
10000000
00010000
00010000
,
01000000
00001000
00010000
00000100
,
00010000
01000000
00010000
01000000
,
00001000
00010000
00000010
00000100
,
00000001
00000100
00000010
00000100
,
00001000
00000100
00010000
00001000
,
00010000
01000000
10000000
01000000
,
00010000
01000000
10000000
01000000
,
00010000
00001000
00000100
00000001
,
00001000
00000100
00000001
00001000
,
00000001
00000100
00001000
00000100
,
00010000
00001000
00100000
01000000
,
10000000
10000000
00010000
00010000
,
00100000
01000000
00010000
00001000
,
00000100
00000100
00000001
00000001
,
00001000
00001000
00000100
00010000
,
00001000
00100000
01000000
01000000
,
00010000
00001000
00000100
00000001
,
00000001
00000000
00000000
00000000
,
00000000
00000000
00000000
00000000
,
00000100
00000000
00000000
00000000
,
00000000
00000000
00000000
00000000
,
00000010
00000000
00000000
00000000
,
00000000
00000000
00000000
00000000
,
00000100
00000000
00000000
00000000
,
00000000
00000000
00000000
00000000
,
00010000
00000000
00000000
00000000
,
00000000
00000000
00000000
00000000
,
00001000
00000000
00000000
00000000
,
00000000
00000000
00000000
00000000
,
00100000
00000000
00000000
00000000
,
00000000
00000000
00000000
00000000
,
00000100
00000000
00000000
00000000
,
00000000
00000000
00000000
00000000
,
00100000
00000000
10000000
00000000
,
01000000
00000000
00010000
00000000
,
00001000
00000000
00000100
00000000
,
00000001
00000000
00001000
00000000
,
00000100
00000000
00010000
00000000
,
00001000
00000000
01000000
00000000
,
00100000
00000000
10000000
00000000
,
01000000
00000000
00001000
00000000
,
00000001
00000000
00000001
00000000
,
00000100
00000000
00000100
00000000
,
00001000
00000000
00010000
00000000
,
01000000
00000000
10000000
00000000
,
00010000
00000000
01000000
00000000
,
10000000
00000000
01000000
00000000
,
00010000
00000000
00001000
00000000
,
00000100
00000000
00000001
00000000
,
00001000
00000000
00000010
00000000
,
00010000
00000000
01000000
00000000
,
10000000
00000000
00100000
00000000
,
00001000
00000000
00000100
00000000
,
00000001
00000000
00000010
00000000
,
00010000
00000000
01000000
00000000
,
10000000
00000000
00100000
00000000
,
00001000
00000000
00010000
00000000
,
00000010
00000000
00000100
00000000
,
00001001
00000000
00001001
00000000
,
00010000
00000000
00010000
00000000
,
00000010
00000000
00000100
00000000
,
00000001
00000000
00000001
00000000
,
00000001
00000000
00000001
00000000
,
00000100
00000000
00000100
00000000
,
00001000
00000000
00010000
00000000
,
01000000
00000000
01000000
00000000
,
01000000
00000000
01000000
00000000
,
00000000
00000000
00000000
00000000
,
00000000
00000000
00000000
10000000
,
00000000
00000000
00000000
00010000
,
00000000
00000000
00000000
00001000
,
00000000
00000000
00000000
00000001
,
00000000
00000000
00000000
00001000
,
00000000
00000000
00000000
00010000
,
00000000
00000000
00000000
10000000
,
00000000
00000000
00000000
00001000
,
00000000
00000000
00000000
00001000
,
00000000
00010000
00000000
00000100
,
00000000
00000010
00000000
00010000
,
00000000
00001000
00000000
01000000
,
00000000
00100000
00000000
00010000
,
00000000
10000000
00000000
01000000
,
00000000
00010000
00000000
00001000
,
00000000
00000100
00000000
00000001
,
00000000
00000000
00000000
00000000
,
00000000
00010000
00000000
00000000
00000000
00001000
00000000
00000000
,
00000000
00010000
00000000
00000000
00000000
00001000
00000000
00000000
,
00000000
00010000
00000000
00001000
00000000
00010000
00000000
00001000
;

//---------------dance-double - ----------------
#NOTES:
     dance-double:
     :
     Medium:
     7:
     0.407,0.557,0.238,0.000,0.017:
00000000
00000000
00000000
00000000
,
00000000
00000000
00000000
00000000
,
00000000
00000000
00000000
00000000
,
00000000
00000000
00000000
00000000
,
00000000
00000000
00000000
00000000
,
01001000
01010000
10000000
01000000
,
10010000
01000000
01000000
01000000
,
10100000
01000000
00010000
00001000
,
00000110
00000001
00000001
00000001
,
00001010
00000101
00000100
00000010
,
00000110
00001000
00001000
00001000
,
00000011
00000110
00001000
00010000
,
00011000
00010000
00010000
00010000
,
00000000
01000000
00000000
01000000
,
00000000
00010000
00000000
00010000
,
00000000
00001000
00000000
00001000
,
00000000
00000100
00000000
00000100
,
00000000
00000001
00000000
00000001
,
00000000
00000100
00000000
00000100
,
00000000
00001000
00000000
00001000
,
00000000
00000010
00000000
00000010
,
00000001
00001000
00000000
00000000
00000001
00000000
00001000
00000000
,
00001100
00000101
00001001
00000000
,
00000010
00000100
00000000
00000000
00001000
00000000
00010000
00000000
,
01100000
10010000
01100000
00000000
,
10000000
00010000
00000000
00000000
10000000
00000000
00010000
00000000
,
01010000
11000000
10010000
00000000
,
00100000
01000000
00000000
00000000
00010000
00000000
00001000
00000000
,
00000110
00001001
00000110
00000000
,
00001000
00000100
00001000
00000000
,
00000001
00000010
00000001
00000000
,
00000100
00001000
00000010
00000001
,
00000100
00001000
00010000
01000000
,
00010000
01000000
00010000
00000000
,
10000000
00100000
10000000
00000000
,
01000000
00010000
00100000
10000000
,
01000000
00010000
00001000
00000100
,
00001001
00000001
00000001
00000001
,
00011000
01001000
00011000
00010000
,
10010000
10000000
10000000
10000000
,
00011000
00010100
00011000
00001000
,
01001000
00010000
00010000
00010000
,
00010100
00011000
01001000
00010000
,
00000000
00000000
01000000
00010000
00000000
00000000
01000000
10000000
,
00000000
00000000
00000000
00100000
00000000
10000000
00000000
00010000
00000000
10000000
00000000
01000000
,
00000000
00100000
00010000
00000000
,
10000000
00000000
00010000
00000000
,
00001000
00000000
00000000
00000000
00000000
00000000
00000010
00000000
00001000
00000000
00000001
00000000
,
00001000
00000000
00000100
00000000
00000000
00000000
00000010
00000000
00000000
00000000
00000000
00000000
,
00000000
00000000
00000000
00000000
,
00000000
00000000
10000000
01000000
,
00010000
00010000
01000000
00000000
00001000
00010000
00001000
00010000
,
00000010
00000100
00000100
00000000
00000001
00000000
00001000
00000000
,
00000100
00000100
00000100
00000000
00010000
00010000
00001000
00000000
,
00100000
00100000
01000000
00000000
00010000
00010000
00001000
00000000
,
00001000
00001000
00000100
00000000
00001000
00000000
00010000
00000000
,
00001000
00000010
00000001
00000100
00000000
00000000
00000000
00000000
,
10000000
00000000
01000000
00000000
00010000
00010000
01000000
00000000
,
00001000
00010000
00001000
00010000
00000010
00000100
00000100
00000000
,
00000001
00000100
00001000
00000100
,
00001000
00000000
00000100
00000000
00010000
00001000
00010000
00000000
,
00001000
01000000
00100000
01000000
,
00010000
00000000
01000000
00000000
10000000
01000000
10000000
00000000
,
00100000
00001000
00000100
00000001
,
00001000
00000000
00000100
00000000
00000001
00001000
00000001
00000000
,
00000001
00000000
00000100
00000000
00001000
00001000
00000100
00000000
,
00010000
00001000
00010000
00001000
00100000
01000000
01000000
00000000
,
10000000
11000000
00010000
01010000
,
00001000
00011000
00000010
00001001
,
00000010
00000100
00000010
00000000
00010000
00001000
00010000
00000000
,
00100000
01000000
00100000
00000000
00010000
10000000
00010000
00000000
,
00100000
00100000
01000000
01000000
,
00010000
00001000
00000100
00000001
,
00000001
00000000
00000000
00000000
,
00000000
00000000
00000000
00000000
,
00001000
00000000
00000000
00000000
,
00010000
00000000
00000000
00000000
,
10000000
00000000
00000000
00000000
,
01000000
00000000
00000000
00000000
,
00100000
00000000
00000000
00000000
,
01000000
00000000
00000000
00000000
,
10000000
00000000
01100000
00000000
,
00010000
00000000
00001000
00000000
,
00000010
00000000
00001001
00000000
,
00000100
00000000
00001000
00000000
,
00010000
00000000
10010000
00000000
,
01000000
00000000
10000000
00000000
,
00010000
00000000
01010000
00000000
,
00001000
00000000
00010000
00000000
,
00000001
00000000
00000100
00000000
,
00000010
00000000
00001000
00000000
,
00010000
00001000
00010000
00000000
,
00100000
10000000
01000000
10000000
,
00010000
01000000
00001000
00000000
,
00010000
00001000
00000100
00000001
,
00001000
00000100
00001000
00000000
,
00010000
00100000
10000000
01000000
,
00010000
01000000
00010000
00000000
,
00001000
00000100
00001000
00000000
,
00010000
00001000
00010000
00001000
,
00000100
00000001
00000100
00000001
,
00001000
00000100
00001000
00000100
,
00000000
00010000
00000000
01000000
,
10000000
01000000
10000000
01000000
,
00100000
01000000
00010000
01000000
,
00001000
00010000
00000000
00000100
,
00000000
00000001
00000000
00001000
00000100
00000000
00000000
00000000
,
00000001
00000100
00000001
00000100
,
00001000
00000100
00000010
00000100
,
00010000
00001000
00010000
00001000
,
00000000
00010000
00000000
01000000
,
00100000
01000000
00100000
01000000
,
00010000
00001000
00001000
00000100
,
00000001
00000100
00000000
00000001
,
00000000
00000001
00000000
00001000
00000100
00000000
00000000
00000000
,
00000001
00000100
00000001
00001000
,
00000100
00000000
00010000
00000000
,
00001000
00010000
01000000
00100000
,
00010000
00100000
00010000
10000000
,
00010000
01000000
00100000
00001000
,
00010000
00000000
00010000
00000000
,
00001000
00000000
00000100
00000000
,
00000001
00000000
00000001
00000000
,
00001000
00000000
00000100
00000000
,
00010000
00000000
00000000
00001000
,
00010000
00001000
00010000
00100000
,
01000000
10000000
01000000
00010000
,
01000000
00010000
01000000
00001000
,
00010000
00001000
00000100
00000001
,
00000100
00000001
00000100
00001000
,
00010000
01000000
00100000
00001000
,
00010000
00000100
00001000
00000001
,
00000000
00000000
00000000
00001000
,
00000100
00010000
00001000
00100000
,
01000000
01000000
10000000
00010000
,
01000000
00001000
00010000
00000100
,
00000010
00000010
00000001
00000100
,
00001000
00010000
00001000
00000100
,
00001000
00010000
01000000
10000000
,
00010000
00010000
01000000
00001000
,
00010000
00000100
00000010
00000000
,
00000000
00001000
00000000
00010000
00000000
00001000
00000000
00100000
,
00000000
01000000
00000000
00001000
00000000
00010000
00000000
00000010
,
00000000
00000100
00000000
00000001
00000000
00001000
00000000
00000100
;

//---------------dance-double - ----------------
#NOTES:
     dance-double:
     :
     Hard:
     9:
     0.541,0.677,0.343,0.006,0.061:
00000000
00000000
00000000
00000000
,
00000000
00000000
00000000
00000000
,
00000000
00000000
00000000
00000000
,
00000000
00000000
00000000
00000000
,
00000000
00000000
00000000
00000000
,
01001000
00011000
00010100
00011000
,
01001000
00011000
10010000
01100000
,
10000000
01000000
00100000
00010000
10000000
00000000
00100000
00000000
,
11000000
00000000
00010000
00001000
00000100
00001000
00010000
00000000
,
00010100
00011000
01001000
00011000
,
00010100
00011000
00001001
00000110
,
00000001
00000100
00000010
00001000
00000001
00000000
00000010
00000000
,
00000101
00000000
00001000
00010000
01000000
10000000
10000000
00000000
,
10000000
01000000
10000000
01000000
00010000
01000000
00010000
01000000
,
00010000
00001000
00010000
00001000
00000100
00001000
00000100
00001000
,
00000100
00000001
00000100
00000001
00000010
00000001
00000010
00000001
,
00000010
00001000
00000010
00001000
00010000
00001000
00010000
00001000
,
00010000
00100000
00010000
00100000
10000000
00100000
10000000
00100000
,
10000000
01000000
10000000
01000000
00010000
01000000
00010000
01000000
,
00010000
00001000
00010000
00001000
00000100
00001000
00000100
00001000
,
00000100
00000001
00000100
00000001
00000010
00000001
00000010
00000000
,
00001000
00000001
00000000
00000100
00001000
00000000
00010000
00000000
,
01100000
10010000
01100000
00000000
,
00010000
10000000
00000000
01000000
00010000
00000000
00001000
00000000
,
00000110
00001001
00000110
00000000
,
00001000
00000001
00000000
00000100
00001000
00000000
00010000
00000000
,
01100000
10010000
01100000
00000000
,
00010000
10000000
00000000
01000000
00010000
00000000
00001000
00000000
,
00000110
00001001
00000110
00000000
,
00000001
00000100
00001000
00000000
00001000
00000100
00000001
00000000
,
00000001
00000100
00001000
00000100
00001000
00010000
01000000
00000000
,
10000000
01000000
00010000
00000000
00010000
01000000
10000000
00000000
,
10000000
01000000
00010000
01000000
00010000
00001000
00000100
00000000
,
00000001
00000010
00001000
00000000
00001000
00000010
00000001
00000000
,
00000001
00000010
00001000
00000010
00001000
00010000
00100000
00000000
,
10000000
00100000
00010000
00000000
00010000
00100000
10000000
00000000
,
10000000
00100000
00010000
00100000
00010000
00001000
00000010
00000000
,
00000001
00000000
00000100
00000000
00000001
00000100
00000001
00000000
,
00000100
00000000
00001000
00000000
00000100
00001000
00000100
00000000
,
00001000
00000000
00010000
00000000
00001000
00010000
00001000
00000000
,
00010000
00000000
00001000
00000000
00010000
00001000
00010000
00000000
,
01000000
00000000
00010000
00000000
01000000
00010000
01000000
00000000
,
10000000
00000000
01000000
00000000
10000000
01000000
10000000
00000000
,
00000000
00000000
00010000
01000000
00000000
00000000
00001000
00000100
,
00000000
00000000
00000000
00010000
00000000
01000000
00000000
00010000
00000000
00001000
00000000
00000100
,
00000000
00000010
00000001
00000000
,
00001000
00000000
00010000
00000000
,
00001000
00000000
00000000
00000000
00000000
00000000
00010000
00000000
01000000
00000000
00010000
00000000
,
00001000
00000000
00000100
00000000
00000000
00000000
00000010
00000000
00000000
00000000
00000000
00000000
,
00000001
00000000
00000000
00000000
00000000
00000000
00000000
00000000
00000000
00001000
01000000
00000000
00000000
00000000
00000000
00000000
,
00000000
00000000
00000000
00000000
,
10000000
00000000
00000000
00000000
01000000
00000000
00000000
00000000
00010000
00000000
10000000
00010000
01000000
00000000
00000000
00000000
,
00001000
00010000
00001000
00000000
00010000
00000000
00000000
00000000
00000000
00000010
00001000
00000100
00000010
00000001
00000100
00000001
,
00000000
00000100
00000000
00000000
00001000
00000000
00000000
00000000
00000000
00000001
00000100
00000000
00000000
00000000
00000000
00000000
,
00000000
00000000
00000000
00000000
,
01000000
00000000
00000000
00000000
00000000
00000000
00000000
00000000
00000000
00010000
00000000
00000000
00000000
00000000
00000000
00000000
,
00001000
00000000
00000000
00000000
00010000
00000000
00000000
00000000
00000000
00001000
00000010
00000001
00000100
00000001
00001000
00000100
,
00010000
00000000
01000000
00000000
10000000
01000000
11000000
00000000
,
10000000
00100000
00010000
00001000
00000010
00000001
00000100
00000000
,
00000001
00000000
00000100
00000000
00001000
00000001
00000101
00000000
,
00001000
00000100
00010000
00001000
00100000
00010000
10000000
00000000
,
01000000
00000000
00100000
00000000
00010000
10000000
11000000
00000000
,
00010000
01000000
10000000
01000000
00010000
01000000
00001000
00000000
,
00100000
00000000
00001000
00000000
00000100
00000001
00001000
00000000
,
00001000
00000100
00000001
00000100
00001000
00000100
00010000
00000000
,
00100000
00000000
10000000
00000000
01000000
00010000
00001000
00000000
,
00010000
00001000
00000100
00000001
00000100
00001000
00010000
00000000
,
00100000
11000000
00010000
00011000
,
00000100
00000101
00001000
00011000
,
00100000
10000000
01000000
00000000
00100000
00010000
01000000
00000000
,
00000010
00001000
00000100
00000000
00000010
00000001
00000100
00000000
,
00001000
00001000
00100000
01000000
,
00010000
00000100
00001000
00000020
00000000
00000000
00000000
00000000
,
00000030
00000000
00000000
00000000
,
00000000
00000000
00000000
00000000
,
00000001
00000000
00000000
00000000
,
00000100
00000000
00000000
00000000
,
00010000
00000000
00000000
00000000
,
10000000
00000000
00000000
00000000
,
01000000
00000000
00000000
00000000
,
00010000
00000000
00011000
00000000
,
00000000
00011000
00000000
00000000
,
00000000
00100000
00000000
10000000
00010000
00000000
00000000
00000000
,
00000000
00011000
00000000
00000000
,
00000000
00000010
00000000
00001000
00000001
00000000
00000000
00000000
,
00000000
00000110
00000000
00000000
,
00000000
00001000
00000000
00001000
00010000
00000000
00000000
00000000
,
00000000
01100000
00000000
00000000
,
00000000
00010000
00000000
00010000
00001000
00000000
00000000
00000000
,
00000010
00001000
00000100
00001000
,
00010000
00001000
01000000
00000000
,
00100000
01000000
10010000
00000000
,
00100000
01000000
00010000
00001000
,
00010000
00001000
00011000
00000000
,
00000010
00000100
00001000
00010000
,
00001000
00010000
00011000
00000000
,
00100000
00010000
01000000
10000000
,
01000000
00010000
11000000
00000000
,
00100000
00001000
00010000
00000000
,
00000010
00000100
00000010
00000100
,
00001000
00000001
00001000
00000001
,
00010000
00001000
00010000
00001000
,
01010000
00000000
01010000
00000000
00010000
01000000
00010000
01000000
,
00100000
01000000
00100000
01000000
,
00010000
10000000
00010000
10000000
,
00001000
00010000
00001000
00010000
,
00001100
00001100
00001100
00000000
,
00000001
00000100
00000001
00000100
,
00000010
00000100
00000010
00000100
,
00010000
00001000
00010000
00001000
,
01010000
00000000
01010000
00000000
00010000
01000000
00010000
01000000
,
00010000
10000000
00010000
10000000
,
01000000
10000000
01000000
10000000
,
00010000
01000000
00001000
00010000
,
00001100
00001100
00001100
00000000
,
01000000
00001000
00010000
00000100
,
00000001
00000100
00001000
00010000
,
01000000
00100000
10000000
01000000
,
00010000
00001000
00000100
00000001
,
00001000
00000100
00000010
00000001
,
00000100
00001000
00010000
00001000
,
00000100
00001000
00010000
01000000
,
10000000
00010000
01000000
00001000
,
00010000
00000000
00000000
00000000
00000000
00000000
00000000
00000010
00000000
00000000
00000000
00000000
00000000
00000000
00000000
00000000
,
00000000
00000100
00000000
00000000
00000000
00000000
00000000
00000000
00000000
00000000
00000000
00000000
00001000
00000000
00000000
00000000
,
00001000
01000000
01000000
00100000
,
00100000
10000000
10000000
01000000
,
01000000
00010000
00010000
00000010
,
00000010
00000100
00000100
00000001
,
00000001
00001000
00001000
00000100
,
00000100
00010000
00010000
00001000
,
00001000
01000000
01000000
01000000
,
01000000
01000000
00000000
00000000
,
10000000
01000000
10000000
01000000
10000000
00010000
10000000
00010000
,
01000000
00001000
01000000
00001000
00010000
00000100
00010000
00000100
,
00001000
00000001
00001000
00000001
00000100
00000010
00000100
00000010
,
00001000
00000100
00001000
00000100
00010000
00001000
00010000
00001000
,
00100000
01000000
00100000
01000000
10000000
00010000
10000000
00010000
,
01000000
00010000
01000000
00010000
10000000
01000000
10000000
01000000
,
00100000
00010000
00100000
00010000
01000000
00001000
01000000
00001000
,
00010000
00001000
00010000
00001000
00010000
00000000
00000000
00000000
,
00000000
00011000
00000000
00011000
00000000
10000000
00000000
01000000
,
00000000
01010000
00000000
01010000
00000000
00001000
00000000
00010000
,
00000000
00001100
00000000
00001100
00000000
00000001
00000000
00000100
;

//---------------dance-double - ----------------
#NOTES:
     dance-double:
     :
     Challenge:
     9:
     0.584,0.716,0.338,0.006,0.080:
00000000
00000000
00000000
00000000
,
00000000
00000000
00000000
00000000
,
00000000
00000000
00000000
00000000
,
00000000
00000000
00000000
00000000
,
00000000
00000000
00000000
00000000
,
01001000
00011000
00010100
00011000
,
01001000
00011000
10010000
01100000
,
10000000
01000000
00100000
00010000
10000000
00000000
00100000
00000000
,
11000000
00000000
00010000
00001000
00000100
00001000
00010000
00000000
,
00010100
00011000
01001000
00011000
,
00010100
00011000
00001001
00000110
,
00000001
00000100
00000010
00001000
00000001
00000000
00000010
00000000
,
00000101
00000000
00001000
00010000
01000000
10000000
00010000
00010000
,
10000000
01000000
10000000
01000000
00010000
01000000
00010000
01000000
,
00010000
00001000
00010000
00001000
00000100
00001000
00000100
00001000
,
00000100
00000001
00000100
00000001
00000010
00000001
00000010
00000001
,
00000010
00001000
00000010
00001000
00010000
00001000
00010000
00001000
,
00010000
00100000
00010000
00100000
10000000
00100000
10000000
00100000
,
10000000
01000000
10000000
01000000
00010000
01000000
00010000
01000000
,
00010000
00001000
00010000
00001000
00000100
00001000
00000100
00001000
,
00000100
00000001
00000100
00000001
00000010
00000001
00000010
00000001
,
00001000
00000001
00000000
00000100
00001000
00000000
00010000
00000000
,
01100000
10010000
01100000
00000000
,
00010000
10000000
00000000
01000000
00010000
00000000
00001000
00000000
,
00000100
00000010
00001001
00000000
00000110
00000000
00000000
00000000
,
00001000
00000001
00000000
00000100
00001000
00000000
00010000
00000000
,
01100000
10010000
01100000
00000000
,
00010000
10000000
00000000
01000000
00010000
00000000
00001000
00000000
,
00000110
00001001
00000110
00000000
,
00000001
00000100
00001000
00010000
00001000
00000100
00000001
00000010
,
00000001
00000100
00001000
00000100
00001000
00010000
01000000
00000000
,
10000000
01000000
00010000
00001000
00010000
01000000
10000000
00100000
,
10000000
01000000
00010000
01000000
00010000
00001000
00000100
00000000
,
00000001
00000010
00001000
00010000
00001000
00000010
00000001
00000100
,
00000001
00000010
00001000
00000010
00001000
00010000
00100000
00000000
,
10000000
00100000
00010000
00001000
00010000
00100000
10000000
01000000
,
10000000
00100000
00010000
00100000
00010000
00001000
00000010
00000000
,
00000001
00000000
00000100
00000001
00000100
00000000
00000001
00000000
,
00000100
00000000
00001000
00000100
00001000
00000000
00000100
00000000
,
00001000
00000000
00010000
00001000
00010000
00000000
00001000
00000000
,
00010000
00000000
00001000
00010000
00001000
00000000
00010000
00000000
,
01000000
00000000
00010000
01000000
00010000
00000000
01000000
00000000
,
10000000
00000000
01000000
10000000
01000000
00000000
10000000
01000000
,
00000000
00000000
00010000
01000000
00000000
00000000
00001000
00000100
,
00000000
00000000
00000000
00010000
00000000
01000000
00000000
00010000
00000000
00001000
00000000
00000100
,
00000000
00000010
00000001
00000000
,
00001000
00000000
00010000
00000000
,
00001000
00000000
00000000
00000000
00000000
00000000
00010000
00000000
01000000
00000000
00010000
00000000
,
00001000
00000000
00000100
00000000
00000000
00000000
00000010
00000000
00000000
00000000
00000000
00000000
,
00000001
00000000
00000000
00000000
00000000
00000000
00000000
00000000
00000000
00001000
01000000
00000000
00000000
00000000
00000000
00000000
,
00000000
00000000
01000000
00000000
,
10000000
00000000
00000000
00000000
00000000
00000000
00000000
00000000
01000000
00000000
00000000
00000000
00000000
00000000
00000000
00000000
00010000
00000000
00000000
00010000
00000000
00000000
10000000
00010000
01000000
00000000
00000000
00000000
00000000
00000000
00000000
00000000
,
00001000
00000000
00010000
00000000
00001000
00000000
00000000
00000000
00010000
00000000
00000000
00000000
00000000
00000000
00001000
00010000
00000000
00000000
00000010
00000000
00001000
00000000
00000100
00000000
00000010
00000000
00000001
00000000
00000100
00000000
00000001
00000000
,
00000000
00000100
00000000
00000000
00001000
00000000
00000000
00000000
00000000
00000001
00000100
00000000
00000000
00000000
00000000
00000000
,
00000000
00000000
00000000
00000000
00000000
00000000
00000000
00000000
00000000
01000000
00000000
00000000
00000000
00000000
00000000
00000000
,
01000000
00000000
00000000
00000000
00000000
00000000
00000000
00000000
00000000
00010000
00000000
00000000
00000000
00000000
00000000
00000000
,
00000000
00001000
00001000
00000000
00010000
00000000
00000000
00001000
00000000
00001000
00000010
00000001
00000100
00000001
00001000
00000100
,
00010000
00000000
01000000
00000000
10000000
01000000
11000000
00000000
,
10000000
00100000
00010000
00001000
00000010
00000001
00000100
00000000
,
00000001
00000000
00000100
00000000
00001000
00000001
00000101
00000000
,
00001000
00000100
00010000
00001000
00100000
00010000
10000000
00000000
,
01000000
00000000
00100000
00000000
00010000
10000000
11000000
00000000
,
00010000
01000000
10000000
01000000
00010000
01000000
00001000
00000000
,
00100000
00000000
00001000
00000000
00000100
00000001
00001000
00000000
,
00001000
00000100
00000001
00000100
00001000
00000100
00010000
00000000
,
00100000
00000000
10000000
00000000
01000000
00010000
00001000
00000000
,
00010000
00001000
00000100
00000001
00000100
00001000
00010000
00000000
,
00100000
11000000
00010000
00011000
,
00000100
00000101
00001000
00011000
,
00100000
10000000
01000000
00000000
00100000
00010000
01000000
00000000
,
00000010
00001000
00000100
00000000
00000010
00000001
00000100
00000000
,
00001000
00001000
00100000
01000000
,
00010000
00000100
00001000
00000020
00000000
00000000
00000000
00000000
,
00000030
00000000
00000000
00000000
,
00000000
00000000
00000000
00000001
,
00000001
00000000
00000000
00000100
,
00000100
00000000
00000000
00010000
,
00010000
00000000
00000000
10000000
,
10000000
00000000
00000000
01000000
,
01000000
00000000
00000000
00010000
,
00010000
00000000
00011000
00000000
,
00000000
00011000
00000000
00000000
,
00000000
00100000
00000000
10000000
00010000
00000000
00000000
00000000
,
00000000
00011000
00000000
00000000
,
00000000
00000010
00000000
00001000
00000001
00000000
00000000
00000000
,
00000000
00000110
00000000
00000000
,
00000000
00001000
00000000
00001000
00010000
00000000
00000000
00000000
,
00000000
01100000
00000000
00000000
,
00000000
00010000
00000000
00010000
00001000
00000000
00000000
00000000
,
00000010
00001000
00000100
00001000
,
00010000
00001000
01000000
00000000
,
00100000
01000000
10010000
00000000
,
00100000
01000000
00010000
00001000
,
00010000
00001000
00011000
00000000
,
00000010
00000100
00001000
00010000
,
00001000
00010000
00011000
00000000
,
00100000
00010000
01000000
10000000
,
01000000
00010000
11000000
00000000
,
00100000
00001000
00010000
00000000
,
00000010
00000100
00000010
00000100
,
00001000
00000001
00001000
00000001
,
00010000
00001000
00010000
00001000
,
01010000
00000000
01010000
00000000
00010000
01000000
00010000
01000000
,
00100000
01000000
00100000
01000000
,
00010000
10000000
00010000
10000000
,
00001000
00010000
00001000
00010000
,
00001100
00001100
00001100
00000000
,
00000001
00000100
00000001
00000100
,
00000010
00000100
00000010
00000100
,
00010000
00001000
00010000
00001000
,
01010000
00000000
01010000
00000000
00010000
01000000
00010000
01000000
,
00010000
10000000
00010000
10000000
,
01000000
10000000
01000000
10000000
,
00010000
01000000
00001000
00010000
,
00001100
00001100
00001100
00000000
,
01000000
00001000
00010000
00000100
,
00000001
00000100
00001000
00010000
,
01000000
00100000
10000000
01000000
,
00010000
00001000
00000100
00000001
,
00001000
00000100
00000010
00000001
,
00000100
00001000
00010000
00001000
,
00000100
00001000
00010000
01000000
,
10000000
00010000
01000000
00001000
,
00010000
00000000
00000000
00000000
00000000
00000000
00000000
00000010
00000000
00000000
00000000
00000000
00000000
00000000
00000000
00000000
,
00000000
00000100
00000000
00000000
00000000
00000000
00000000
00000000
00000000
00000000
00000000
00000000
00001000
00000000
00100000
00000000
,
00001000
00100000
01000000
00100000
01000000
00100000
00001000
00010000
,
00001000
00010000
00000010
00001000
00000010
00001000
00000001
00000100
,
00000001
00000100
00000010
00010000
00000010
00010000
00001000
01000000
,
00001000
01000000
00010000
00100000
00010000
00100000
01000000
10000000
,
01000000
10000000
00100000
01000000
00100000
01000000
00001000
00100000
,
00001000
00100000
00010000
10000000
00010000
10000000
00100000
10000000
,
00100000
10000000
01000000
00010000
01000000
00010000
01000000
10000000
,
01000000
00010000
01000000
00000000
00000000
00000000
00000000
00000000
,
10000000
01000000
10000000
01000000
10000000
00010000
10000000
00010000
,
01000000
00001000
01000000
00001000
00010000
00000100
00010000
00000100
,
00001000
00000001
00001000
00000001
00000100
00000010
00000100
00000010
,
00001000
00000100
00001000
00000100
00010000
00001000
00010000
00001000
,
00100000
01000000
00100000
01000000
10000000
00010000
10000000
00010000
,
01000000
00010000
01000000
00010000
10000000
01000000
10000000
01000000
,
00100000
00010000
00100000
00010000
01000000
00001000
01000000
00001000
,
00010000
00001000
00010000
00001000
00010000
00000000
00000000
00000000
,
00000000
00011000
00000000
00011000
00000000
10000000
00000000
01000000
,
00000000
01010000
00000000
01010000
00000000
00001000
00000000
00010000
,
00000000
00001100
00000000
00001100
00000000
00000001
00000000
00000100
;
