#TITLE:NONSTOP F;
#SUBTITLE:;
#ARTIST:Let the beat hit em! -- SUPER STAR -- HYSTERIA;
#TITLETRANSLIT:;
#SUBTITLETRANSLIT:;
#ARTISTTRANSLIT:;
#CREDIT:;
#BANNER:NONSTOP F.png;
#BACKGROUND:NONSTOP F-bg.png;
#LYRICSPATH:;
#CDTITLE:./CDTITLES/DANCE DANCE REVOLUTION SOLO.PNG;
#MUSIC:NONSTOP F.ogg;
#OFFSET:0.000;
#SAMPLESTART:56.703;
#SAMPLELENGTH:15.000;
#SELECTABLE:YES;
#DISPLAYBPM:110.000:190.000;
#BPMS:0.000=110.063,116.000=128.032,228.000=190.167;
#STOPS:;
#BGCHANGES:;

//---------------dance-single - ----------------
#NOTES:
     dance-single:
     :
     Easy:
     5:
     0.325,0.411,0.188,0.000,0.000:
0000
0000
0000
0000
,
0000
0000
0000
0000
,
0000
0000
0000
0000
,
0000
0000
0000
0000
,
0000
0000
0000
0000
,
1000
0010
0001
0010
,
1000
0001
0001
1000
,
0010
0100
0100
0100
,
1001
0110
1001
0100
,
0000
1001
0000
0110
,
0000
1001
0000
0110
,
0000
0001
1000
0100
,
0000
1010
0000
0101
,
0000
1000
0001
0100
,
0000
0011
0000
1100
,
0000
0001
1000
0100
,
0001
1000
0001
1000
,
0001
0001
1000
1000
,
0001
1000
0010
0001
,
0010
0100
0000
0000
,
0110
1001
0100
0000
,
1000
0010
0001
0010
,
1000
0001
0001
1000
,
0010
0100
0100
0100
,
1001
0110
1001
0100
,
0000
1000
0000
0001
,
0000
1000
0000
0001
,
1000
0100
0100
0001
,
1001
0110
1001
0010
,
0010
0010
0010
0010
,
0100
0100
0100
0000
,
0001
0010
0001
0000
,
1000
0001
1000
0000
,
0010
0000
0100
0000
0000
0010
1000
0000
,
0010
0000
0100
0000
0000
0010
0001
0000
,
0010
0000
0100
0000
0000
1000
0010
0000
,
1001
0000
0000
0110
0000
0000
0000
0000
,
0010
0000
0100
0000
0001
0010
0001
0000
,
0010
0000
0100
0000
0001
0010
0001
0000
,
0010
0000
0100
0000
0001
0010
0001
0000
,
0010
0000
0100
0000
0001
0010
0001
0000
,
0010
0000
0100
0000
0000
0010
1000
0000
,
0010
0000
0100
0000
0000
0010
1000
0000
,
0010
0000
0100
0000
0000
0010
1000
0000
,
0010
0000
0100
0000
1000
0010
1000
0000
,
0010
1000
0010
1000
0010
1000
0010
0000
,
0000
0001
0000
0010
0001
0010
0001
0000
,
0010
1000
0010
1000
0010
1000
0100
0000
,
0010
0000
0010
0000
0010
1000
0001
1000
,
0010
0000
0001
1000
0001
0000
1001
0000
,
0010
0000
1000
0001
1000
0000
1001
0000
,
0010
0000
0001
1000
0001
0000
1001
0000
,
0010
0000
1000
0001
0010
1000
0001
0000
,
1001
0000
0010
1000
0001
0000
1001
0000
,
0010
0000
1000
0001
1000
0000
1001
0000
,
0010
0000
0001
1000
0001
0000
1001
0000
,
1000
0000
1000
0001
0000
0001
0001
0001
,
1001
0000
0000
0000
,
0000
0000
0000
0000
,
0010
0010
1000
0001
,
1000
0100
0001
0000
1000
0000
0001
0000
,
1000
0001
0100
1000
,
0100
0010
0010
0010
,
1000
1000
0100
0100
,
1000
0001
0100
0000
1000
0000
0000
0000
,
1001
0010
0010
0010
,
0100
1000
0010
0001
,
1000
0010
0001
0010
,
1000
0010
0001
0000
1000
0000
0010
0000
,
0100
0001
0000
1000
,
0000
0001
0001
0000
,
0000
1000
1000
0000
,
0001
0100
1000
0000
,
0010
0001
0010
0100
,
1001
0110
1001
0000
,
0010
0001
1000
0000
,
0010
1000
0001
0000
,
0010
0100
1000
0100
,
0001
0010
1000
0000
,
0001
0100
1000
0100
,
0010
0001
1000
0000
,
0001
1000
0000
0000
0000
0000
0001
0000
,
0000
1000
0000
0001
,
0010
0001
1000
0000
,
0010
1000
0001
0000
,
0010
0100
1000
0100
,
0001
0010
1000
0000
,
0001
0100
1000
0100
,
0010
0001
1000
0000
,
0000
0010
1000
0000
,
0100
0001
1000
0001
,
0000
0010
0001
0000
,
0100
1000
0001
0000
,
0000
0010
1000
0100
,
0010
0100
1000
0000
0001
0000
1000
0000
,
0000
0010
0001
0100
,
0010
0100
0001
0000
1000
0000
0000
0000
,
0000
0010
1000
0000
,
0100
0001
1000
0001
,
0000
0010
0001
0100
,
0010
0100
0001
0000
1000
0000
0000
0000
,
0000
0010
1000
0100
,
0010
0100
1000
0000
0001
0000
1000
0000
,
0000
0010
0001
0100
,
0010
0100
0001
0000
1000
0000
0010
0100
,
1000
0000
0001
0000
0010
0100
0001
0000
,
1001
0000
0000
0000
;

//---------------dance-single - ----------------
#NOTES:
     dance-single:
     :
     Medium:
     6:
     0.382,0.470,0.333,0.000,0.000:
0000
0000
0000
0000
,
0000
0000
0000
0000
,
0000
0000
0000
0000
,
0000
0000
0000
0000
,
0000
0000
0000
0000
,
1000
0010
0001
0010
,
1000
0001
0001
1000
,
0010
0100
0100
0100
,
1001
0110
1001
0100
,
0000
1000
1100
0101
,
0001
1001
0000
1001
,
0000
0000
0010
1000
0001
1000
0100
1000
,
0000
0001
1010
1001
,
0000
0000
0010
0001
1000
0001
0100
0001
,
0000
1000
0011
1001
,
0000
0000
0001
0001
1000
1000
0100
0100
,
0001
1000
0001
1000
,
0101
0001
1000
1000
,
0001
1000
1000
0001
,
0010
0100
0000
0000
,
0110
1001
0100
0001
,
0010
1000
0010
0001
,
1000
0001
0001
1000
,
0010
0100
0100
0100
,
1001
0110
1001
0100
,
0001
1000
1000
0001
,
1000
0001
0001
1000
,
0010
1000
0001
0000
1000
0000
0001
0000
,
0110
0000
1001
0000
0100
1000
0001
0000
,
0100
0100
0100
0000
0100
0000
0000
0000
,
0001
0001
0001
0000
1000
0000
0000
0000
,
0010
1000
0010
0000
0001
0000
0000
0000
,
1000
0001
0100
0000
1001
0000
0000
0000
,
0010
0001
0100
0000
0000
0010
1000
0000
,
0010
1000
0100
0000
0000
0010
0001
0000
,
0010
0001
0100
0000
0010
1000
0010
0000
,
1001
0000
0000
0110
0000
0000
0000
0000
,
0010
0001
0100
0000
0001
0010
0001
0000
,
0010
0001
0100
0000
0001
0010
0001
0000
,
0010
0001
0100
0000
0001
0010
0001
0000
,
0010
0001
0100
0000
0001
0010
0001
0000
,
0010
1000
1100
0000
0000
0010
1000
0000
,
0010
1000
1100
0000
0000
0010
1000
0000
,
0010
1000
1100
0000
0000
0010
1000
0000
,
0010
1000
0100
0010
1000
0010
1000
0000
,
0010
1000
0010
1000
0010
1000
0100
0000
,
0000
0001
0000
0010
0001
0010
0100
0000
,
0010
1000
0010
1000
0010
1000
0100
0000
,
0010
0000
0010
0000
0010
1000
0001
1000
,
0010
0100
0001
1000
0001
0000
1001
0000
,
0010
0100
1000
0001
1000
0000
1001
0000
,
0010
0100
0001
1000
0001
0000
1001
0000
,
0010
0100
1000
0001
0010
1000
0001
1000
,
1001
0000
0010
1000
0001
1000
1000
0000
,
0010
0100
1000
0001
1000
0001
0001
0000
,
0010
0100
0001
1000
0001
1000
1000
0000
,
1000
0000
1000
0001
0000
0001
1000
0100
,
1001
0000
0000
0000
,
0000
0000
0000
0000
,
1000
0100
0100
0100
,
1001
1000
0010
0000
0001
0000
1000
0000
,
0001
1000
0100
0001
,
0100
1000
0010
0001
,
0010
1000
0001
0100
,
1000
1000
0001
0000
1000
0000
0000
0000
,
1001
0010
0010
0010
,
1001
0001
0001
0001
,
1000
0010
0001
0010
,
1100
0101
1001
0010
,
0100
0000
0001
1000
0000
0000
0000
0000
,
0000
0001
0000
0001
0000
0000
0000
0000
,
1000
1000
0000
1000
0000
0000
0000
0000
,
0000
0001
0000
0000
1000
0000
0000
0000
,
0010
0001
0010
0100
,
1001
0110
1001
0000
,
0001
0001
0001
0000
,
1000
1000
1000
0000
,
0010
0100
1000
0100
,
0001
0010
1000
0000
,
0001
0100
1000
0100
,
0010
0001
1000
0000
,
0001
1000
0001
0000
0000
0000
1000
0000
,
0000
1000
0000
1000
,
0010
0100
0001
0000
,
0010
0100
0010
0000
,
1000
0001
1000
0001
,
1010
0101
1001
0000
,
0001
1000
0001
1000
,
0011
1100
1001
0000
,
0000
0010
0001
0000
,
1100
0101
1000
0001
,
0000
1010
0011
0000
,
1001
0001
0010
0000
1000
0000
0000
0000
,
0000
0000
1000
0100
0001
0000
0000
0000
,
1001
1000
0010
0000
0001
0000
1000
0000
,
0000
0000
0001
0100
1000
0000
0000
0000
,
1001
0001
0010
0000
1000
0000
0000
0000
,
0000
0010
0001
0000
,
1100
0101
1000
0001
,
0000
0000
1000
0100
0001
0000
0000
0000
,
1001
0001
0010
0000
1000
0000
0000
0000
,
0000
0000
0001
0100
1000
0000
0000
0000
,
1001
1000
0010
0000
0001
0000
1000
0000
,
0000
0000
1000
0100
0001
0000
0000
0000
,
1001
0001
0010
0000
1000
0000
1001
1000
,
0010
0000
0001
0000
1001
0001
0010
0000
,
1001
0000
0000
0000
;

//---------------dance-single - ----------------
#NOTES:
     dance-single:
     :
     Hard:
     8:
     0.488,0.676,0.416,0.000,0.042:
0000
0000
0000
0000
,
0000
0000
0000
0000
,
0000
0000
0000
0000
,
0000
0000
0000
0000
,
0000
0000
0000
0000
,
0010
1000
0010
0001
,
1000
0100
0001
0000
0001
0100
1000
0000
,
0010
0100
1001
0000
0100
0000
0100
0000
,
1001
0000
0110
0000
1001
0010
0100
0000
,
0000
1000
0010
0100
1100
0001
0101
0010
,
0001
0000
1001
0010
0100
0000
1001
0000
,
0000
0000
0010
1000
0001
1000
0100
1000
,
0000
0000
0001
1000
1001
0010
1001
0000
,
0000
1000
0010
0001
1000
0001
0100
0001
,
0000
0000
1000
0001
1001
0010
1001
0000
,
0000
0001
0001
0001
1000
1000
0100
0100
,
0001
1000
0011
1001
,
0101
0000
0001
0000
1100
0100
1000
0001
,
1000
1000
1000
0001
,
0100
0010
0100
0000
0000
0000
0001
0100
,
0101
1100
1001
0001
,
0010
1000
0010
0001
,
1000
0100
0001
0000
0001
0100
1000
0000
,
0010
0100
1001
0000
0100
0000
0100
0000
,
1001
0000
0110
0000
1001
0010
0100
0000
,
0100
0001
1000
0000
0010
0001
0100
0000
,
1010
0011
0101
1100
,
0010
0001
1000
0100
0001
1000
0010
0000
,
1001
0000
0110
0000
1001
0010
0100
0000
,
1000
0100
0001
0000
0001
0100
1000
0000
,
1000
0100
0001
0000
0010
0100
0001
0000
,
1000
0100
0001
0000
1000
0010
1000
0000
,
1000
0100
0001
0000
1001
0000
0000
0000
,
0010
1000
0100
0000
1000
0010
1000
0000
,
0010
0001
0100
0000
0001
0010
0001
0000
,
0010
1000
0001
0010
1000
0010
0100
0000
,
1001
0100
0010
0001
0100
0010
0001
0100
,
0010
0001
0100
0010
0001
0010
0001
0100
,
0010
0001
0100
0010
0001
0010
0001
0100
,
0010
0001
0100
0010
0001
0010
0001
0100
,
0010
0001
0100
0010
0001
0010
0001
0100
,
0010
1000
0100
1000
0100
0010
1000
0100
,
0010
1000
0100
1000
0100
0010
1000
0100
,
0010
1000
0100
1000
0100
0010
1000
0100
,
0010
1000
0100
0010
1000
0010
1000
0100
,
0010
1000
0010
1000
0010
1000
0100
0000
,
0000
0001
0000
0010
0001
0010
0100
0000
,
0010
1000
0010
1000
0010
1000
0100
0000
,
0010
0001
0010
0001
0010
0001
0010
0001
0010
0001
0010
0001
0010
0001
0010
0001
,
0010
0001
0000
0000
0000
0000
0000
0000
0001
0000
0100
0000
1000
0000
0001
0000
,
0010
0100
1000
0001
1000
0100
0001
1000
,
0010
0100
0001
1000
0001
0100
1000
0001
,
0010
0100
0000
0000
0000
1000
0001
0010
,
1001
0100
0001
1000
0001
1000
1000
0100
,
0010
0100
1000
0001
1000
0001
0001
0100
,
0010
0100
0001
1000
0001
1000
1000
0000
,
1000
0010
1000
0010
1000
0000
0010
1000
0010
1000
0010
0000
1000
0001
1000
0001
,
1000
0000
0000
0000
,
0010
0000
0000
0001
0000
0000
1000
0010
,
0001
0010
1000
0100
,
1001
1100
0101
1000
,
0001
0000
0010
1000
0100
0000
0001
0000
,
0010
0000
0100
0010
1000
0000
0001
0000
,
0010
0000
0100
0001
0100
0000
0100
0000
,
1000
0100
0001
0000
1000
0000
0000
0000
,
0110
0011
1001
0010
,
1001
1100
0101
0011
,
1010
1100
0101
0011
,
0101
1010
1001
0010
,
0100
0010
0001
1000
0000
0000
1000
0000
,
0000
0001
0000
0010
0000
0000
1000
0000
,
0001
0010
0000
0001
0000
0000
1000
0000
,
0000
0001
0000
0000
1000
0000
0000
0000
,
0010
1000
0010
0000
0001
0001
1000
0000
,
0011
1100
1001
0000
,
0001
0100
1000
0000
0001
0000
0000
0000
,
1000
0100
0001
0000
1000
0000
0000
0000
,
0010
0100
1000
0100
,
0001
1000
0001
0000
1000
0000
0000
0000
,
0001
0001
0100
0000
1000
0000
0100
0000
,
0010
0100
0001
0000
1000
0000
0000
0000
,
0001
0010
1000
0000
0001
0000
0010
0000
,
0001
0010
1000
0010
,
1000
0010
0001
0010
1000
0000
0000
0000
,
0001
0010
1000
0010
0001
0000
0000
0000
,
1000
0001
1000
0010
0001
1000
0001
0000
,
1100
0110
1001
0000
,
0100
0010
0100
1000
0001
1000
0001
0000
,
1100
0110
1001
0000
,
0000
0000
0010
1000
0010
0000
0000
0000
,
1000
0000
0001
0000
0010
0001
0010
0000
,
0000
1000
0001
0000
,
1001
0010
0001
0000
1001
0000
0000
0000
,
0000
0000
0100
0010
0100
0000
0000
0000
,
1001
0010
1000
0000
1001
0000
1001
0000
,
0000
0000
1000
0100
0001
0000
0000
0000
,
1001
0100
0001
0000
1001
0000
0000
0000
,
0000
0000
1000
0010
1000
0000
0000
0000
,
1000
0000
0001
0000
0001
0010
0001
0000
,
0000
0000
1000
0100
0001
0000
0000
0000
,
1001
0100
0001
0000
1001
0000
0000
0000
,
0000
0000
0010
0100
0010
0000
0000
0000
,
1001
0100
0001
0000
1001
0000
1001
0000
,
0000
0000
0001
0100
0001
0000
0000
0000
,
1001
0100
1000
0000
1000
0000
1001
0010
,
0001
0000
0010
0000
1001
0010
0100
0000
,
1001
0000
0000
0000
;

//---------------dance-solo - ----------------
#NOTES:
     dance-solo:
     :
     Easy:
     6:
     0.329,0.411,0.205,0.000,0.000:
000000
000000
000000
000000
,
000000
000000
000000
000000
,
000000
000000
000000
000000
,
000000
000000
000000
000000
,
000000
000000
000000
000000
,
010000
010000
000010
000010
,
100000
000001
000001
100000
,
000100
001000
001000
001000
,
100001
001100
100001
001000
,
000000
100001
000000
001100
,
000000
100001
000000
001100
,
000000
000010
100000
001000
,
000000
100010
000000
010001
,
000000
010000
000001
001000
,
000000
010001
000000
100010
,
000000
000001
100000
001000
,
000001
100000
000010
010000
,
000001
000001
100000
100000
,
000001
100000
010000
000010
,
000100
001000
000000
000000
,
001100
100001
001000
000000
,
010000
010000
000010
000010
,
100000
000001
000001
100000
,
000100
001000
001000
001000
,
100001
001100
100001
001000
,
000000
010000
000000
000010
,
000000
100000
000000
000001
,
100000
001000
001000
000001
,
100001
001100
100001
000100
,
000100
000100
000100
000100
,
001000
001000
001000
000000
,
000010
000010
000010
000000
,
010000
000010
010000
000000
,
000100
000000
001000
000000
000000
000100
010000
000000
,
000100
000000
001000
000000
000000
000100
000010
000000
,
000100
000000
001000
000000
000000
010000
000010
000000
,
100001
000000
000000
001100
000000
000000
000000
000000
,
000100
000000
001000
000000
000001
000010
000001
000000
,
000100
000000
001000
000000
000001
000010
000001
000000
,
000100
000000
001000
000000
000001
000010
000001
000000
,
000100
000000
001000
000000
000001
000010
000001
000000
,
000100
000000
001000
000000
000000
010000
110000
000000
,
000100
000000
001000
000000
000000
010000
110000
000000
,
000100
000000
001000
000000
000000
010000
110000
000000
,
000100
000000
001000
000000
100000
010000
100000
000000
,
010000
100000
010000
100000
010000
100000
010000
000000
,
000000
000010
000000
000010
000001
000010
000001
000000
,
010000
100000
010000
100000
010000
100000
010000
000000
,
000100
000000
000100
000000
000100
100000
000001
100000
,
000100
000000
000010
010000
000001
000000
100001
000000
,
000100
000000
010000
000010
100000
000000
100001
000000
,
000100
000000
000010
010000
000001
000000
100001
000000
,
000100
000000
010000
000010
000100
100000
000001
000000
,
100001
000000
000010
010000
000001
000000
100001
000000
,
000100
000000
010000
000010
100000
000000
100001
000000
,
000100
000000
000010
010000
000001
000000
100001
000000
,
100000
000000
100000
000001
000000
000001
000001
000001
,
100001
000000
000000
000000
,
010000
000000
000000
000010
000000
000000
000000
000000
,
000100
000100
100000
000001
,
100000
001000
000001
000000
100000
000000
000010
000000
,
010000
000001
001000
100000
,
001000
000100
000100
000100
,
100000
100000
001000
001000
,
100000
000001
001000
000000
100000
000000
000000
000000
,
100001
000100
000100
000100
,
010000
100000
000010
000001
,
010000
000100
000010
000100
,
100000
000100
000001
000000
100000
000000
000100
000000
,
001000
000001
000000
100000
,
000000
000001
000001
000000
,
000000
100000
100000
000000
,
000001
001000
100000
000000
,
010000
000010
000100
001000
,
100001
001100
100001
000000
,
000010
000001
010000
000000
,
010000
100000
000010
000000
,
000100
010000
100000
001000
,
000001
000010
010000
000000
,
000001
001000
100000
010000
,
000100
000010
010000
000000
,
000001
100000
000000
000000
000000
000000
000001
000000
,
000000
100000
000000
000001
,
000010
000001
010000
000000
,
010000
100000
000010
000000
,
000100
010000
100000
001000
,
000001
000010
010000
000000
,
000001
001000
100000
010000
,
000100
000010
010000
000000
,
000000
000100
100000
000000
,
001000
000001
010000
000010
,
000000
000100
000001
000000
,
001000
100000
000001
000000
,
000000
000100
100000
001000
,
000100
001000
100000
000000
000001
000000
100000
000000
,
000000
000100
000001
001000
,
000100
001000
000001
000000
100000
000000
000000
000000
,
000000
000100
100000
000000
,
001000
000001
010000
000010
,
000000
000100
000001
001000
,
000100
001000
000001
000000
100000
000000
000000
000000
,
000000
000100
100000
001000
,
000100
001000
100000
000000
000001
000000
100000
000000
,
000000
000100
000001
001000
,
000100
001000
000001
000000
100000
000000
000100
001000
,
100000
000000
000001
000000
000100
001000
000001
000000
,
010010
000000
000000
000000
;

//---------------dance-solo - ----------------
#NOTES:
     dance-solo:
     :
     Medium:
     7:
     0.397,0.499,0.427,0.000,0.000:
000000
000000
000000
000000
,
000000
000000
000000
000000
,
000000
000000
000000
000000
,
000000
000000
000000
000000
,
000000
000000
000000
000000
,
010000
010000
000010
000010
,
100000
000001
000001
100000
,
000100
001000
001000
001000
,
010001
001100
100010
001000
,
000000
110000
101000
001001
,
000011
010010
000000
100001
,
000000
000000
000010
100000
000001
100000
001000
100000
,
000000
000011
100010
010010
,
000000
000000
010000
000001
100000
000001
001000
000001
,
000000
110000
010001
010010
,
000000
000000
000001
000001
100000
100000
001000
001000
,
000001
100000
000010
010000
,
001001
000001
100000
100000
,
000001
100000
110000
000010
,
000100
001000
000000
000000
,
001100
100001
001000
000001
,
010000
110000
000010
000011
,
100000
000001
000001
100000
,
000100
001000
001000
001000
,
010001
001100
100010
001000
,
000001
100000
100000
000001
,
100000
000001
000001
100000
,
000100
100000
000001
000000
110000
000000
000011
000000
,
001100
000000
100001
000000
001000
100000
000001
000000
,
001000
001000
001000
000000
001000
000000
000000
000000
,
000001
000001
000001
000000
100000
000000
000000
000000
,
010000
010000
010000
000000
000010
000000
000000
000000
,
100000
000001
001000
000000
100001
000000
000000
000000
,
000100
000001
001000
000000
000000
000100
010000
000000
,
000100
100000
001000
000000
000000
000100
000010
000000
,
000100
000001
001000
000000
000100
010000
000010
000000
,
100001
000000
000000
001100
000000
000000
000000
000000
,
000100
000001
001000
000000
000001
000010
000001
000000
,
000100
000001
001000
000000
000001
000010
000001
000000
,
000100
000001
001000
000000
000001
000010
000001
000000
,
000100
000001
001000
000000
000001
000010
000001
000000
,
000100
100000
101000
000000
000000
010000
110000
000000
,
000100
100000
101000
000000
000000
010000
110000
000000
,
000100
100000
101000
000000
000000
010000
110000
000000
,
000100
100000
001000
000100
100000
010000
100000
000000
,
010000
100000
010000
100000
010000
100000
001000
000000
,
000000
000010
000000
000010
000001
000010
001000
000000
,
010000
100000
010000
100000
010000
100000
001000
000000
,
000100
000000
000100
000000
000100
100000
000001
100000
,
000100
001000
000010
010000
000001
000000
100001
000000
,
000100
001000
010000
000010
100000
000000
100001
000000
,
000100
001000
000010
010000
000001
000000
100001
000000
,
000100
001000
010000
000010
000100
100000
000001
100000
,
100001
000000
000010
010000
000001
100000
110000
000000
,
000100
001000
010000
000010
100000
000001
000011
000000
,
000100
001000
000010
010000
000001
100000
110000
000000
,
100000
000000
100000
000001
000000
000001
100000
001000
,
100001
000000
000000
000000
,
010000
000000
000000
000010
000000
000000
000000
000000
,
100000
001000
001000
001000
,
100001
100000
010000
000000
000001
000000
010000
000000
,
000010
100000
001000
000001
,
001000
010000
000100
000010
,
000100
100000
000010
001000
,
100000
100000
000001
000000
100000
000000
000000
000000
,
100001
000100
000100
000100
,
010010
000001
000001
000001
,
010000
000100
000010
000100
,
101000
001001
100001
000100
,
001000
000000
000001
100000
000000
000000
000000
000000
,
000000
000001
000000
000001
000000
000000
000000
000000
,
100000
100000
000000
100000
000000
000000
000000
000000
,
000000
000010
000000
000000
010000
000000
000000
000000
,
010000
000010
000100
001000
,
100001
001100
100001
000000
,
000001
000001
000011
000000
,
100000
100000
110000
000000
,
000100
010000
100000
001000
,
000001
000010
010000
000000
,
000001
001000
100000
010000
,
000100
000010
010000
000000
,
000001
100000
000001
000000
000000
000000
100000
000000
,
000000
100000
000000
100000
,
010000
001000
000010
000000
,
000010
001000
010000
000000
,
100000
000001
010000
000010
,
100010
010001
100001
000000
,
000001
100000
000010
010000
,
010001
100010
100001
000000
,
000000
010000
000010
000000
,
101000
001001
010000
000010
,
000000
100100
000101
000000
,
100001
000001
000010
000000
100000
000000
000000
000000
,
000000
000000
100000
001000
000001
000000
000000
000000
,
100001
100000
010000
000000
000001
000000
100000
000000
,
000000
000000
000001
001000
100000
000000
000000
000000
,
100001
000001
000010
000000
100000
000000
000000
000000
,
000000
010000
000010
000000
,
101000
001001
010000
000010
,
000000
000000
100000
001000
000001
000000
000000
000000
,
100001
000001
000010
000000
100000
000000
000000
000000
,
000000
000000
000001
001000
100000
000000
000000
000000
,
100001
100000
010000
000000
000001
000000
100000
000000
,
000000
000000
100000
001000
000001
000000
000000
000000
,
100001
000001
000010
000000
100000
000000
100001
100000
,
010000
000000
000001
000000
100001
000001
000010
000000
,
010010
000000
000000
000000
;

//---------------dance-solo - ----------------
#NOTES:
     dance-solo:
     :
     Hard:
     8:
     0.509,0.676,0.554,0.000,0.042:
000000
000000
000000
000000
,
000000
000000
000000
000000
,
000000
000000
000000
000000
,
000000
000000
000000
000000
,
000000
000000
000000
000000
,
010000
110000
000010
000011
,
100000
001000
000001
000000
000001
001000
100000
000000
,
000100
001000
100001
000000
001000
000000
001000
000000
,
010001
000000
001100
000000
100010
000100
001000
000000
,
000000
110000
010000
001000
101000
000001
001001
000010
,
000011
000000
010010
000100
000010
000000
100001
000000
,
000000
000000
000010
100000
000001
100000
001000
100000
,
000000
000000
000011
100000
100010
010000
010010
000000
,
000000
110000
010000
000001
100000
000001
001000
000001
,
000000
000000
110000
000001
010001
000010
010010
000000
,
000000
000001
000001
000001
100000
100000
001000
001000
,
000001
100000
010001
100010
,
001001
000000
000001
000000
101000
001000
010000
000010
,
110000
100000
110000
000010
,
001000
000100
001000
000000
000000
000000
000010
001000
,
001001
101000
100001
000001
,
010000
110000
000010
000011
,
100000
001000
000001
000000
000001
001000
100000
000000
,
000100
001000
100001
000000
001000
000000
001000
000000
,
010001
000000
001100
000000
100010
000100
001000
000000
,
001000
000001
100000
000000
000100
000010
001000
000000
,
100100
000101
001001
101000
,
000100
000001
100000
001000
000001
010000
000010
000000
,
010001
000000
001100
000000
100010
000100
001000
000000
,
100000
001000
000001
000000
000001
001000
100000
000000
,
100000
001000
000001
000000
000100
001000
000001
000000
,
100000
001000
000001
000000
100000
010000
100000
000000
,
100000
001000
000001
000000
010010
000000
000000
000000
,
000100
100000
001000
000000
100000
000100
010000
000000
,
000100
000001
001000
000000
000001
000100
000010
000000
,
000100
010000
000010
000100
010000
000100
000010
000000
,
100001
001000
000100
000010
001000
000100
000001
001000
,
000100
000010
001000
000100
000001
000010
000001
001000
,
000100
000010
001000
000100
000001
000010
000001
001000
,
000100
000010
001000
000100
000001
000010
000001
001000
,
000100
000010
001000
000100
000001
000010
000001
001000
,
000100
100000
001000
100000
001000
010000
110000
001000
,
000100
100000
001000
100000
001000
010000
110000
001000
,
000100
100000
001000
100000
001000
010000
110000
001000
,
000100
100000
001000
000100
100000
010000
100000
001000
,
010000
100000
010000
100000
010000
100000
001000
000000
,
000000
000010
000000
000010
000001
000010
001000
000000
,
010000
100000
010000
100000
010000
100000
001000
000000
,
000100
000001
000100
000001
000100
000001
000100
000001
000100
000001
000100
000001
000100
000001
000100
000001
,
000100
000001
000000
000000
000000
000000
000000
000000
000001
000000
001000
000000
100000
000000
000001
000000
,
000100
001000
010000
000010
100000
001000
000001
100000
,
000100
001000
000010
010000
000001
001000
100000
000001
,
000100
001000
000000
000000
000000
010000
000010
010000
,
100001
001000
000010
010000
000001
100000
110000
001000
,
000100
001000
010000
000010
100000
000001
000011
001000
,
000100
001000
000010
010000
000001
100000
110000
000000
,
100000
010000
100000
010000
100000
000000
000100
100000
000100
100000
000100
000000
100000
000001
100000
000001
,
100000
000000
000000
000000
,
010000
000000
000000
000010
000000
000000
100000
000100
,
000001
000100
100000
001000
,
100001
101000
001001
010000
,
000010
000000
010000
100000
001000
000000
000001
000000
,
000100
000000
001000
010000
100000
000000
000010
000000
,
000100
000000
000010
000001
001000
000000
001000
000000
,
100000
001000
000001
000000
100000
000000
000000
000000
,
010100
000110
010010
000100
,
010010
101000
001001
000101
,
100100
101000
001001
000101
,
010001
100010
010010
000100
,
001000
000100
000001
100000
000000
000000
100000
000000
,
000000
000010
000000
000010
000000
000000
100000
000000
,
000010
000010
000000
000010
000000
000000
100000
000000
,
000000
000010
000000
000000
010000
000000
000000
000000
,
010000
010000
000010
000000
000001
000001
100000
000000
,
010001
100010
010010
000000
,
000001
001000
100000
000000
000011
000000
000000
000000
,
100000
001000
000001
000000
110000
000000
000000
000000
,
000100
010000
100000
001000
,
000001
100000
000010
000000
010000
000000
000000
000000
,
000001
000001
001000
000000
100000
000000
010000
000000
,
000100
001000
000010
000000
010000
000000
000000
000000
,
000001
000100
010000
000000
000010
000000
000010
000000
,
000010
000010
010000
010000
,
010000
000100
000010
000100
100000
000000
000000
000000
,
000010
000100
010000
000100
000001
000000
000000
000000
,
100000
000001
100000
010000
000010
010000
000010
000000
,
011000
001010
100001
000000
,
001000
000100
001000
010000
000010
010000
000010
000000
,
011000
001010
100001
000000
,
000000
000000
010000
100000
010000
000000
000000
000000
,
110000
000000
000011
000000
000010
000001
000010
000000
,
000000
110000
000011
000000
,
100001
000100
000010
000000
010010
000000
000000
000000
,
000000
000000
010000
000100
000010
000000
000000
000000
,
100001
000100
010000
000000
010010
000000
100001
000000
,
000000
000000
100000
001000
000001
000000
000000
000000
,
100001
001000
000010
000000
010010
000000
000000
000000
,
000000
000000
100000
010000
100000
000000
000000
000000
,
110000
000000
000011
000000
000001
000010
000001
000000
,
000000
000000
100000
001000
000001
000000
000000
000000
,
100001
001000
000010
000000
010010
000000
000000
000000
,
000000
000000
000100
001000
000100
000000
000000
000000
,
100001
001000
000010
000000
010010
000000
100001
000000
,
000000
000000
000001
001000
000001
000000
000000
000000
,
100001
001000
100000
000000
100000
000000
100001
000100
,
000010
000000
000010
000000
100001
000100
001000
000000
,
110011
000000
000000
000000
;

//---------------dance-double - ----------------
#NOTES:
     dance-double:
     :
     Easy:
     4:
     0.246,0.323,0.055,0.000,0.000:
00000000
00000000
00000000
00000000
,
00000000
00000000
00000000
00000000
,
00000000
00000000
00000000
00000000
,
00000000
00000000
00000000
00000000
,
00000000
00000000
00000000
00000000
,
00000100
00000001
00001000
00000000
,
00000100
00010000
00001000
00000000
,
00100000
10000000
01000000
00000000
,
00010000
00010000
00001000
00001000
,
00000100
00000000
00000001
00000010
,
00001000
00000000
01000000
00100000
,
10000000
00000000
00010000
00100000
,
00001000
00000000
00000001
00000010
,
00010000
00000000
10000000
00100000
,
00001000
00000000
00000001
00000010
,
00000100
00000000
00010000
00001000
,
01000000
00100000
10000000
00010000
,
10000000
10000000
00100000
00000000
,
00010000
00010000
00000010
00000000
,
00000100
00000001
00000010
00000000
,
00001000
00010000
00010000
00000000
,
00100000
10000000
00010000
00000000
,
00100000
00001000
00010000
00000000
,
00000100
00000001
00000010
00000000
,
00001000
00001000
00010000
00010000
,
00011000
01000000
00100000
10000000
,
00010000
00010000
00100000
00100000
,
00011000
00000100
00000010
00000001
,
00001000
00000010
00001000
00000010
,
00000100
00000001
00000010
00000000
,
00001000
00000010
00010000
00000000
,
00001000
00100000
01000000
00000000
,
10000000
00100000
00010000
00000000
,
00011000
00100000
10000000
01000000
,
10000000
01000000
00010000
00001000
,
00000001
00000100
00001000
00010000
,
10000000
01000000
00010000
00001000
,
00011000
00000010
00000001
00000100
,
00000001
00000100
00001000
00010000
,
10000000
01000000
00010000
00001000
,
00000001
00001000
00000001
00001000
,
00001001
00000010
00001000
00000100
,
00010000
00001000
00100000
01000000
,
00001000
00010000
00000010
00000100
,
00010000
01000000
00001000
00000100
,
00001001
00001000
00000001
00000100
,
00000110
00001000
00000100
00010000
,
00011000
00100000
01000000
10000000
,
00010000
10000000
00010000
11000000
,
00100000
10000000
01000000
00010000
,
00001000
00000100
00000001
00000010
,
00000010
00000001
00000100
00001000
,
00010000
01000000
10000000
00100000
,
10010000
01000000
00010000
01000000
,
00001000
00010000
00001000
00000100
,
00000001
00001000
00000001
00000100
,
00001000
00010000
01000000
10000000
,
00010000
00000000
01000000
00000000
,
00100000
00000000
00010000
00000000
,
00001000
00000000
00000100
00000000
,
00000001
00000000
00000001
00000000
,
00000100
00000000
00000001
00000000
,
00001000
00000000
00000100
00000000
,
00010000
00000000
00001000
00000000
,
00100000
00000000
01000000
00000000
,
01000000
00000000
10000000
00000000
,
00010000
00000000
00010000
00000000
,
00001000
00000000
00001000
00000000
,
00000001
00000000
00000001
00000000
,
00000100
00000000
00001000
00000000
,
00100000
00000000
01000000
00000000
,
10000000
00000000
01000000
00000000
,
00010000
00000000
01000000
00000000
,
10000000
00000000
10000000
00000000
,
01000000
00000000
01000000
00000000
,
00010000
00000000
00001000
00000000
,
00000100
00000000
00000001
00000000
,
00000001
00000000
00001000
00000000
,
00000100
00000000
00000100
00000000
,
00010000
00000000
00001000
00000000
,
00100000
00000000
01000000
00000000
,
10000000
00000000
01000000
00000000
,
00010000
00000000
01000000
00000000
,
00001000
00000000
00010000
00000000
,
00000001
00000000
00000100
00000000
,
00001000
00000000
00000100
00000000
,
00010000
00000000
01000000
00000000
,
10000000
00000000
00010000
00000000
,
10000000
00000000
01000000
00000000
,
00001000
00000000
00010000
00000000
,
00000010
00000010
00000100
00000100
,
00010000
00000000
00001000
00000000
,
00100000
00100000
01000000
00000000
,
00001000
00000000
00010000
00000000
,
00000010
00000010
00000100
00000100
,
00010000
00000000
00001000
00000000
,
00100000
00100000
01000000
00000000
,
00001000
00000000
00010000
00000000
,
00000010
00000010
00000100
00000100
,
00010000
00000000
00001000
00000000
,
00100000
00100000
01000000
00000000
,
00001000
00000000
00010000
00000000
,
00000010
00000010
00000100
00000100
,
00010000
00000000
00001000
00000000
,
00100000
00100000
01000000
00010000
,
00010000
00001000
00000100
00000100
,
00000001
00000000
00000000
00000000
;

//---------------dance-double - ----------------
#NOTES:
     dance-double:
     :
     Medium:
     6:
     0.359,0.441,0.105,0.000,0.000: // measure 1
00000000
00000000
00000000
00000000
,  // measure 2
00000000
00000000
00000000
00000000
,  // measure 3
00000000
00000000
00000000
00000000
,  // measure 4
00000000
00000000
00000000
00000000
,  // measure 5
00000000
00000000
00000000
00000000
,  // measure 6
00000001
00000000
00000001
00000000
00001000
00001000
00000100
00000000
,  // measure 7
00000100
00000000
00010000
00000000
00001000
00001000
01000000
00000000
,  // measure 8
00100000
00000000
10000000
00000000
01000000
01000000
00100000
00000000
,  // measure 9
00001000
00000000
00010000
00000000
00001000
00000100
00000100
00000001
,  // measure 10
00000001
00000000
00000000
00000000
00000000
00000000
00000000
00010000
,  // measure 11
00001000
00000000
00000000
00000000
10000000
00000000
00100000
10000000
,  // measure 12
00100000
00000000
00000000
00000000
00000000
00000000
00000000
00001000
,  // measure 13
00010000
00000000
00000000
00000000
00000001
00000000
00000010
00010000
,  // measure 14
00001000
00000000
00000000
00000000
00000000
00000000
00000000
10000000
,  // measure 15
00010000
00000000
00000000
00000000
00001000
00000000
00010000
00000100
,  // measure 16
00000010
00000000
00000000
00000000
00000000
00000000
00000000
00010000
,  // measure 17
00100000
00000000
00100000
00000000
10000000
10000000
00010000
00000000
,  // measure 18
10000000
00000000
00100000
00000000
00010000
00010000
00100000
00000000
,  // measure 19
00001000
00000000
00010000
00000000
00000100
00000100
00000010
00000000
,  // measure 20
00000100
00000000
00000001
00000000
00000010
00000010
00001000
00000000
,  // measure 21
00001000
00000000
00010000
00000000
00010000
00100000
00100000
00000000
,  // measure 22
10000000
00000000
10000000
00000000
00010000
00010000
00100000
00000000
,  // measure 23
00100000
00000000
00001000
00000000
00010000
00010000
00000010
00000000
,  // measure 24
00000100
00000000
00000001
00000000
00000010
00000010
00000100
00000000
,  // measure 25
00010000
00000000
00001000
00000000
00010000
00100000
00100000
10000000
,  // measure 26
10010000
00000000
01000000
00000000
00100000
00100000
10000000
00000000
,  // measure 27
00010000
00000000
00010000
00000000
00100000
00001000
00010000
00000000
,  // measure 28
00011000
00000000
00000100
00000000
00000010
00000010
00000001
00000000
,  // measure 29
00001000
00000000
00000010
00000000
00010000
00100000
10000000
00000000
,  // measure 30
01000000
01000000
01000000
00000000
01000000
00000000
00000000
00000000
,  // measure 31
00010000
00010000
00010000
00000000
00001000
00000000
00000000
00000000
,  // measure 32
00000010
00000001
00000010
00000000
00000001
00000000
00000000
00000000
,  // measure 33
00000100
00001000
00010000
00000000
00011000
00000000
00000000
00000000
,  // measure 34
00010000
00000000
00100000
00000000
00000000
10000000
01000000
00000000
,  // measure 35
10000000
00000000
01000000
00000000
00000000
00010000
01000000
00000000
,  // measure 36
00001000
00000000
00010000
00000000
00000000
00000100
00001000
00000000
,  // measure 37
00001001
00000000
00000000
00000101
00000000
00000000
00000000
00000000
,  // measure 38
00011000
00000000
01000000
00000000
00001000
00000100
00000001
00000000
,  // measure 39
00000001
00000000
00000100
00000000
00010000
00001000
01000000
00000000
,  // measure 40
10000000
00000000
01000000
00000000
00001000
00010000
00000100
00000000
,  // measure 41
00000001
00000000
00001000
00000000
00000001
00001000
00000100
00000000
,  // measure 42
00001001
00000000
00000010
00000000
00000000
00001000
00010100
00000000
,  // measure 43
00010000
00000000
00001000
00000000
00000000
00010000
01001000
00000000
,  // measure 44
00001000
00000000
00010000
00000000
00000000
00001000
00010010
00000000
,  // measure 45
00010000
00000000
00001000
00000000
00000000
00010000
00101000
00000000
,  // measure 46
00100000
10000000
01000000
10000000
00100000
10000000
00000000
00000000
,  // measure 47
00000000
01000000
00000000
01000000
00001000
00010000
00000100
00000000
,  // measure 48
00000010
00001000
00000100
00001000
00000010
00001000
00000100
00000000
,  // measure 49
00000001
00000000
00000001
00000000
00000001
00001000
00000100
00010000
,  // measure 50
00001000
00100000
01000000
10000000
00000000
00010000
01000000
00000000
,  // measure 51
00001000
00010000
00000100
00000000
00000000
00000001
00000100
00000000
,  // measure 52
00000010
00000001
00000100
00000000
00000000
00001000
00000100
00000000
,  // measure 53
00010000
00001000
01000000
00000000
00010000
10000000
01000000
00000000
,  // measure 54
10010000
00000000
01000000
00000000
00001000
00010000
00001000
00000000
,  // measure 55
00000010
00010000
00001000
00000000
00000100
00001000
00000010
00000000
,  // measure 56
00000001
00001000
00000100
00000000
00010000
00001000
01000000
00000000
,  // measure 57
00001000
00000000
00010000
00000000
00100000
10000000
01000000
00000000
,  // measure 58
01010000
00000000
00000000
00000000
,  // measure 59
00000000
00000000
00000000
00000000
,  // measure 60
00001000
00010000
00100000
00100000
,  // measure 61
00010000
01000000
10000000
10000000
,  // measure 62
10000000
01000000
00010000
01000000
,  // measure 63
01000000
00010000
00010000
00010000
,  // measure 64
00001000
00010000
00000010
00000100
,  // measure 65
00000001
00000001
00000001
00000000
,  // measure 66
00000001
00000100
00001000
00000100
,  // measure 67
00000001
00000100
00000100
00000000
,  // measure 68
00010000
00001000
00100000
01000000
,  // measure 69
10000000
01000000
01000000
00000000
,  // measure 70
00010000
01000000
10000000
01000000
,  // measure 71
00010000
00001000
00000100
00000001
,  // measure 72
00001000
00000100
00000001
00000100
,  // measure 73
00010000
00001000
01000000
00000000
,  // measure 74
10000000
01000000
00010000
01000000
,  // measure 75
00001000
00010000
00000100
00001000
,  // measure 76
00000001
00000100
00010000
00001000
,  // measure 77
00100000
01000000
00010000
00001000
,  // measure 78
00000100
00000010
00001000
00000100
,  // measure 79
00000001
00000100
00010000
00100000
,  // measure 80
00010000
01000000
10000000
01000000
,  // measure 81
00100000
00001000
01000000
00010000
,  // measure 82
10000000
10000000
10000000
10000000
,  // measure 83
00010000
10000000
01000000
00010000
,  // measure 84
00001000
00000100
00000001
00001000
,  // measure 85
00000001
00000001
00000001
00000001
,  // measure 86
00001000
00000100
00000001
00000100
,  // measure 87
00000010
00001000
00000100
00010000
,  // measure 88
00001000
00100000
01000000
00010000
,  // measure 89
10000000
01000000
00010000
01000000
,  // measure 90
00000000
00000000
00010000
00001000
00010000
00000000
00000000
00000000
,  // measure 91
00000010
00001000
00000100
00000000
00000001
00000000
00000100
00000000
,  // measure 92
00000000
00000000
00001000
00010000
00001000
00000000
00000000
00000000
,  // measure 93
00100000
00010000
01000000
00000000
10010000
00000000
00000000
00000000
,  // measure 94
00000000
00000000
00010000
00001000
00010000
00000000
00000000
00000000
,  // measure 95
00000010
00001000
00000100
00000000
00000001
00000000
00000100
00000000
,  // measure 96
00000000
00000000
00001000
00010000
00001000
00000000
00000000
00000000
,  // measure 97
00100000
00010000
01000000
00000000
10010000
00000000
00000000
00000000
,  // measure 98
00100000
00000000
00100000
10000000
01000000
00000000
00010000
00000000
,  // measure 99
00001000
00000100
00000001
00000000
00001000
00000000
00001000
00000000
,  // measure 100
00000010
00000000
00000010
00000001
00000100
00000000
00001000
00000000
,  // measure 101
00010000
01000000
10000000
00000000
10010000
00000000
00000000
00000000
,  // measure 102
00100000
00000000
00100000
10000000
01000000
00000000
00010000
00000000
,  // measure 103
00001000
00000100
00000001
00000000
00001000
00000000
00001000
00000000
,  // measure 104
00000010
00000000
00000010
00000001
00000100
00000000
00001000
00000000
,  // measure 105
00010000
01000000
10000000
00000000
10010000
00000000
00100000
00010000
,  // measure 106
01000000
00000000
00011000
00000000
00001000
00000100
00000001
00000000
,  // measure 107
00001001
00000000
00000000
00000000
;

//---------------dance-double - ----------------
#NOTES:
     dance-double:
     :
     Hard:
     8:
     0.445,0.499,0.200,0.011,0.058: // measure 1
00000000
00000000
00000000
00000000
,  // measure 2
00000000
00000000
00000000
00000000
,  // measure 3
00000000
00000000
00000000
00000000
,  // measure 4
00000000
00000000
00000000
00000000
,  // measure 5
00000000
00000000
00000000
00000000
,  // measure 6
00000001
00000001
00000100
00000000
00001000
00001000
00000100
00000000
,  // measure 7
00000010
00000100
00001000
00010000
00001000
00001000
01000000
00000000
,  // measure 8
00100000
10000000
01000000
00000000
01000000
01000000
00100000
00000000
,  // measure 9
00001000
00010000
00001000
00010000
00001000
00000100
00000100
00000001
,  // measure 10
00000011
00000000
00000010
00000000
00000100
00001000
00000010
00010000
,  // measure 11
00001000
00000000
00001000
00000000
01000000
00010000
00100000
00100000
,  // measure 12
10000000
00000000
00100000
00000000
00010000
00001000
00010000
00001000
,  // measure 13
00000010
00000000
00000001
00000000
00001001
00001001
00001010
00010000
,  // measure 14
00001000
00000000
00100000
00000000
10000000
00100000
01000000
10000000
,  // measure 15
00010000
00000000
00100000
00000000
00001000
00010000
00000100
00000010
,  // measure 16
00000001
00000000
00000001
00000000
00001000
00000010
00010000
00010000
,  // measure 17
00100000
00000000
00100000
00000000
10000000
10000000
00100000
00010000
,  // measure 18
00011000
00001000
00100000
00000000
00110000
00010000
10000000
00000000
,  // measure 19
10100000
00100000
01000000
00000000
01010000
00010000
00100000
00000000
,  // measure 20
00101000
00001000
00010000
00000000
00010010
00000010
00001000
00000000
,  // measure 21
00001000
00001000
00000001
00000001
00000010
00010000
00100000
00000000
,  // measure 22
10000000
10000000
00100000
00000000
00010000
00010000
00100000
00000000
,  // measure 23
01000000
00100000
00010000
00001000
00010000
00010000
00000010
00000000
,  // measure 24
00000100
00000001
00000010
00000000
00000010
00000010
00000100
00000000
,  // measure 25
00010000
00001000
00010000
00001000
00010000
00100000
00100000
10000000
,  // measure 26
10100000
00000000
01000000
00000000
00100000
00100000
10000000
00010000
,  // measure 27
00100000
00001000
00010000
00001000
00000100
00001000
00010000
00000010
,  // measure 28
00000101
00000000
00000100
00000000
00000010
00000010
00000001
00000000
,  // measure 29
00001010
00000000
00000011
00000000
00001100
00011000
00000000
00000000
,  // measure 30
10000000
01000000
00010000
00000000
00010000
01000000
10000000
00000000
,  // measure 31
10000000
01000000
00010000
00000000
00000010
00000100
00000001
00000000
,  // measure 32
00000001
00000100
00001000
00000000
00001000
00000100
00000001
00000000
,  // measure 33
00000001
00000100
00001000
00000000
00011000
00000000
00000000
00000000
,  // measure 34
10010000
00000000
00000000
00000000
00100000
00000000
00000000
00000000
10000000
01000000
10000000
00000000
01000000
00000000
00000000
00000000
,  // measure 35
00010000
00000000
01000000
00000000
00001000
00000000
00000000
00000000
00001000
00010000
00001000
00000000
00010000
00000000
00000000
00000000
,  // measure 36
00000100
00000000
00001000
00000000
00000001
00000000
00000000
00000000
00000100
00000001
00000100
00000000
00000001
00000000
00000000
00000000
,  // measure 37
00001000
00000010
00010000
00001000
00100000
00010000
00000100
00000000
,  // measure 38
00001001
00000000
00000000
00000000
00000010
00000000
00000000
00000000
00000001
00000100
00000001
00000000
00000100
00000000
00000000
00000000
,  // measure 39
00001000
00000000
00000100
00000000
00010000
00000000
00000000
00000000
00010000
00001000
00010000
00000000
00001000
00000000
00000000
00000000
,  // measure 40
01000000
00000000
00010000
00000000
10000000
00000000
00000000
00000000
01000000
10000000
01000000
00000000
10000000
00000000
00000000
00000000
,  // measure 41
00010000
00100000
00001000
00010000
00000010
00001000
01000000
00000000
,  // measure 42
10010000
00000000
00000000
00000000
00100000
00000000
00000000
00000000
10000000
01000000
10000000
00000000
01000000
00000000
00000000
00000000
,  // measure 43
00010000
00000000
01000000
00000000
00001000
00000000
00000000
00000000
00001000
00010000
00001000
00000000
00010000
00000000
00000000
00000000
,  // measure 44
00000100
00000000
00001000
00000000
00000001
00000000
00000000
00000000
00000100
00000001
00000100
00000000
00000001
00000000
00000000
00000000
,  // measure 45
00001000
00000010
00010000
00001000
00100000
00010000
00001000
00000000
,  // measure 46
00010000
00001000
00010000
00001000
00000100
00000001
00000000
00000000
,  // measure 47
00000000
00001000
00000000
00000100
00001000
00010000
00001000
00000000
,  // measure 48
00100000
00010000
10000000
01000000
10000000
00010000
01000000
00000000
,  // measure 49
00010000
00000000
00000000
00000000
,  // measure 50
00001001
00000000
00000000
00000000
00000010
00000000
00000000
00000000
00000001
00000100
00000001
00000100
00000001
00000000
00000000
00000000
,  // measure 51
00001000
00000000
00000100
00000000
00010000
00000000
00000000
00000000
00010000
00001000
00010000
00001000
00010000
00000000
00000000
00000000
,  // measure 52
01000000
00000000
00010000
00000000
10000000
00000000
00000000
00000000
01000000
10000000
01000000
10000000
01000000
00000000
00000000
00000000
,  // measure 53
00010000
00100000
00001000
00010000
00000010
00001000
01000000
00000000
,  // measure 54
10010000
00000000
00000000
00000000
00100000
00000000
00000000
00000000
10000000
01000000
10000000
01000000
10000000
00000000
00000000
00000000
,  // measure 55
00010000
00000000
01000000
00000000
00001000
00000000
00000000
00000000
00001000
00010000
00001000
00010000
00001000
00000000
00000000
00000000
,  // measure 56
00000100
00000000
00001000
00000000
00000001
00000000
00000000
00000000
00000100
00000001
00000100
00000001
00000100
00000000
00000000
00000000
,  // measure 57
00001000
00010000
00000100
00001000
00010000
00100000
01000000
00000000
,  // measure 58
20020000
00000000
00000000
00000000
,  // measure 59
00000000
30030000
00000000
00000000
,  // measure 60
00001000
00000000
00010000
00000000
00100000
01000000
00100000
00000000
,  // measure 61
10000000
00000000
00010000
00000000
10000000
01000000
10000000
00000000
,  // measure 62
00010000
00000000
01000000
00000000
00010000
01000000
00010000
00000000
,  // measure 63
10000000
00000000
01000000
00000000
10000000
01000000
10000000
00000000
,  // measure 64
00001000
00010000
00000010
00000100
,  // measure 65
00000001
00001000
00000001
00001000
00000001
00001000
00000100
00000000
,  // measure 66
00000001
00000100
00001000
00000100
,  // measure 67
00000001
00000100
00000001
00000000
00001000
00000000
00000000
00000000
,  // measure 68
00010000
00001000
00010000
00000000
00100000
00000000
01000000
00000000
,  // measure 69
10000000
01000000
10000000
00000000
00010000
00000000
00000000
00000000
,  // measure 70
00010000
01000000
10000000
01000000
,  // measure 71
00010000
00001000
00000100
00000000
00000001
00000000
00000000
00000000
,  // measure 72
00001000
00000100
00000001
00000100
,  // measure 73
00010000
00001000
00010000
00000000
01000000
00000000
00000000
00000000
,  // measure 74
10000000
01000000
10000000
00000000
00010000
00000000
01000000
00000000
,  // measure 75
00001000
00010000
00000100
00000000
00000100
00000000
00000000
00000000
,  // measure 76
00000001
00000100
00010000
00001000
,  // measure 77
00100000
01000000
00100000
00000000
00010000
00000000
00000000
00000000
,  // measure 78
00000100
00000010
00001000
00000100
,  // measure 79
00000001
00000100
00000001
00000000
00001000
00000000
00000000
00000000
,  // measure 80
00010000
00100000
00010000
00000000
10000000
00000000
01000000
00000000
,  // measure 81
00100000
00001000
00010000
00000000
01000000
00000000
00000000
00000000
,  // measure 82
00000000
01000000
00000000
10010000
,  // measure 83
00000000
00001000
00000000
00001010
,  // measure 84
00000000
00000001
00000000
00001100
,  // measure 85
00000000
00000000
00000000
00000110
,  // measure 86
00000000
00001000
00001000
00000000
00000000
00000000
01010000
00000000
,  // measure 87
00000000
00001000
00000000
00010010
,  // measure 88
00000000
00000000
00000000
01001000
,  // measure 89
00000000
00100000
01000000
01000000
,  // measure 90
01000000
00000000
00100000
10000000
01000000
00000000
00010000
00000000
,  // measure 91
00000010
00001000
00000100
00000000
00000001
00000000
00000100
00000000
,  // measure 92
00000000
00000000
00000010
00000001
00000100
00000000
00001000
00000000
,  // measure 93
00100000
00010000
01000000
00000000
10010000
00000000
00000000
00000000
,  // measure 94
00000000
00000000
00100000
10000000
01000000
00000000
00010000
00000000
,  // measure 95
00000010
00001000
00000100
00000000
00000001
00000000
00000100
00000000
,  // measure 96
00000000
00000000
00000010
00000001
00000100
00000000
00001000
00000000
,  // measure 97
00100000
00010000
01000000
00000000
10010000
00000000
00000000
00000000
,  // measure 98
00000000
00000000
00010000
00100000
00010000
00000000
00001000
00000000
,  // measure 99
00001000
00000100
00001000
00000000
00000010
00000000
00000010
00000000
,  // measure 100
00000000
00000000
00001000
00000010
00001000
00000000
00010000
00000000
,  // measure 101
00010000
01000000
00010000
00000000
10010000
00000000
00000000
00000000
,  // measure 102
00000000
00000000
00010000
01000000
00010000
00000000
00001000
00000000
,  // measure 103
00001000
00000010
00001000
00000000
00000100
00000000
00000100
00000000
,  // measure 104
00000000
00000000
00001000
00000001
00001000
00000000
00010000
00000000
,  // measure 105
00010000
10000000
00010000
00000000
10010000
00000000
00001000
00010000
,  // measure 106
00001000
00000000
00011000
00000000
00000001
00001000
00000001
00000000
,  // measure 107
00001001
00000000
00000000
00000000
;
