#TITLE:LUV TO ME;
#SUBTITLE:(AMD MIX);
#ARTIST:DJ KAZU feat. tiger YAMATO;
#TITLETRANSLIT:;
#SUBTITLETRANSLIT:;
#ARTISTTRANSLIT:;
#CREDIT:;
#BANNER:LUV TO ME (AMD MIX).png;
#BACKGROUND:LUV TO ME (AMD MIX)-bg.png;
#LYRICSPATH:;
#CDTITLE:Dance Dance Revolution 3rd Mix.png;
#MUSIC:LUV TO ME (AMD MIX).ogg;
#OFFSET:0.000;
#SAMPLESTART:43.642;
#SAMPLELENGTH:15.000;
#SELECTABLE:YES;
#DISPLAYBPM:154.000;
#BPMS:0.000=153.980;
#STOPS:;
#BGCHANGES:;

//---------------dance-single - ----------------
#NOTES:
     dance-single:
     :
     Beginner:
     1:
     0.148,0.218,0.000,0.000,0.000:
0000
0000
0000
0000
,
0000
0000
0000
0000
,
0000
0000
0000
0000
,
0000
0000
0000
0000
,
0000
0000
0000
0000
,
0000
0000
0000
0000
,
0001
0001
0000
0000
,
0001
0001
0000
0000
,
1000
1000
0000
0000
,
1000
1000
1000
1000
,
1000
0000
0000
0000
,
0010
0000
0000
0000
,
0001
0000
0000
0000
,
0010
0000
0000
0000
,
1000
0000
0000
0000
,
0010
0000
0000
0000
,
0001
0000
0000
0000
,
0010
0000
0000
0000
,
1000
0000
0000
0000
,
0001
0000
0001
0000
,
0001
0000
0001
0000
,
1000
0000
1000
0000
,
1000
0000
1000
0000
,
0010
0000
0010
0000
,
0010
0000
0010
0000
,
0100
0000
0100
0000
,
0100
0000
0100
0000
,
0001
0001
0001
0001
,
0000
0000
1000
1000
,
0000
0000
0001
0001
,
0000
0000
0100
0100
,
0000
0000
0100
0100
,
0000
0000
0001
0001
,
0000
0000
1000
1000
,
0000
0000
0010
0010
,
0000
0000
0100
0100
,
0100
0000
0000
0000
,
0001
0000
0000
0000
,
0001
0000
0000
0000
,
0001
0000
0000
0000
,
1000
0000
0001
0000
,
1000
0000
0001
0000
,
1000
0000
0001
0000
,
1000
0000
0001
0000
,
1000
0000
1000
0000
,
0010
0000
0000
0000
,
0001
0000
0001
0000
,
0100
0000
0000
0000
,
0100
0000
0100
0000
,
1000
0000
0000
0000
,
0010
0000
0010
0000
,
0001
0000
0000
0000
,
1000
1000
1000
1000
,
1000
0000
0001
0001
,
0000
0000
0100
0100
,
0000
0000
1000
1000
,
0000
0000
0010
0010
,
0000
0000
0100
0100
,
0000
0000
0001
0001
,
0000
0000
0100
0100
,
0000
0000
0001
0001
,
0000
0000
1000
1000
,
1000
0000
0000
0000
,
0000
0000
0000
0000
;

//---------------dance-single - ----------------
#NOTES:
     dance-single:
     :
     Easy:
     4:
     0.325,0.404,0.241,0.000,0.000:
0000
0000
0000
0000
,
0000
0000
0000
0000
,
0000
0000
0000
0000
,
0000
0000
0000
0000
,
0000
0000
0000
0000
,
0000
0000
0000
0000
,
1000
1000
0001
0001
,
1000
1000
0001
0001
,
1000
1000
0001
0001
,
1000
1000
0001
0001
,
0001
0000
0000
0000
,
1001
0100
0010
0001
,
1000
0100
0001
0100
,
1000
0100
0100
0100
,
0001
0100
0100
0100
,
1001
0100
0010
1000
,
0001
0100
1000
0100
,
0001
0100
0100
0100
,
1000
0100
0100
0100
,
1000
0100
0010
0001
,
0100
0010
1000
0100
,
0010
0001
1000
0100
,
0001
0001
1000
1000
,
0001
0100
0010
1000
,
0100
0010
0001
0100
,
0010
1000
0001
0100
,
1000
0100
0001
0100
,
1001
1001
1001
1001
,
0010
0000
0100
0100
,
0010
0000
0100
0100
,
0001
0100
1000
0100
,
1001
0010
0100
0000
,
0010
0000
0100
0100
,
0010
0000
0100
0100
,
1000
0100
0001
0100
,
0010
0100
1001
0000
,
1000
1000
0001
0001
,
1000
0100
1001
1001
,
0010
0010
0100
0100
,
1000
0001
1000
0110
,
0001
0001
1000
1000
,
0001
0001
1000
1000
,
0001
0100
0010
1000
,
1001
1001
1001
1001
,
0010
0000
0100
0000
,
0001
1000
0001
1000
,
0010
0000
0100
0000
,
1001
0100
0010
0000
,
0010
0000
0100
0000
,
0001
1000
0001
1000
,
0010
0010
0100
0100
,
1001
0010
0100
0010
,
1000
1000
1000
1000
,
1001
0000
0010
0100
,
1001
0000
0010
0100
,
1001
0000
0010
0100
,
1000
0100
0001
0100
,
1001
0000
0100
0010
,
1001
0000
0100
0010
,
1001
0000
0100
0010
,
0001
1000
0010
0100
,
0001
0001
1000
1000
,
0110
0000
0000
0000
,
0000
0000
0000
0000
;

//---------------dance-single - ----------------
#NOTES:
     dance-single:
     :
     Medium:
     7:
     0.398,0.404,0.080,0.000,0.015:
0000
0000
0000
0000
,
0000
0000
0000
0000
,
0000
0000
0000
0000
,
0000
0000
0000
0000
,
0000
0000
0000
0000
,
0000
0000
0000
0000
,
1000
0000
1000
0000
0001
0001
0001
0000
,
0010
0000
1000
0000
0001
0001
0001
0000
,
0010
0000
0100
0000
0001
0001
0001
0000
,
1000
0000
0100
0000
0001
0001
0001
0001
,
0000
0000
0000
0000
,
1000
0001
1000
0010
0100
0010
0100
0000
,
1000
0100
0001
0100
0000
0010
0001
1000
,
0100
0000
0000
0100
0000
0000
0000
0000
,
0100
0000
0000
0100
0000
0000
0000
0000
,
0001
1000
0001
0010
0100
0010
0100
0000
,
0001
0100
1000
0100
0000
0010
1000
0001
,
0100
0000
0000
0010
0000
0000
0000
0000
,
1000
0000
1000
0001
0000
1000
0000
0000
,
1000
0000
1000
0100
0010
0000
0000
0000
,
0001
0100
0010
1000
0000
1000
0000
0000
,
0010
0000
0100
0001
0100
0000
0000
0000
,
1010
1001
1010
0000
,
0001
0000
0100
0010
0100
0000
0000
0000
,
0100
0010
1000
0100
0000
0100
0000
0000
,
1000
0001
0100
0001
1000
0100
1000
0000
,
1000
0001
0000
0001
1000
0000
0000
0000
,
1000
0000
1000
0000
1000
0100
0010
0001
,
0100
0010
0100
0010
0000
0100
0000
0000
,
0010
0100
0010
0100
0000
0100
0000
0000
,
0001
0010
0100
1000
0000
0100
0000
1000
,
0000
0100
0010
0001
0100
0010
0000
0000
,
0100
0010
0100
0001
0000
1000
0000
0000
,
0100
0010
0100
1000
0000
0001
0000
0000
,
1000
0100
0010
0001
0000
0100
0000
0010
,
0000
1000
0100
0010
0001
0100
0000
0000
,
0001
1000
0001
0000
0100
0000
0100
0000
,
0010
1000
0100
0001
,
1000
1000
0001
0001
,
1000
0001
0100
0010
1000
0100
0010
0000
,
0001
0000
0000
0000
0001
0000
0000
0000
1000
0000
0000
1000
0000
0000
1000
0000
,
0001
0000
0000
0000
0001
0000
0000
0000
1000
0000
0000
1000
0000
0000
1000
0000
,
0001
0100
0010
1000
,
0100
0100
0100
0100
,
0010
0000
1000
0100
1000
0000
0000
0000
,
0001
0010
0100
1000
0000
0001
0000
0000
,
0100
0000
0010
0010
0010
0000
0000
0000
,
1001
0000
0000
1100
0000
0000
1001
0000
0000
0000
0000
0000
0000
0000
0000
0000
,
0010
0000
0100
0010
0100
0000
0000
0000
,
0001
1000
0010
0100
0000
0001
0000
0000
,
0010
0000
0100
1000
0010
0100
0001
0000
,
1001
0101
0010
0000
,
1000
0000
1000
0000
1000
0001
0010
0100
,
1000
0010
0100
0001
0000
1000
0000
0000
,
1000
0100
0010
0001
0000
0100
0000
0000
,
0001
0010
0100
1000
0000
0010
0000
0000
,
1000
0010
0100
0001
0010
0100
0000
0000
,
0001
0100
0010
1000
0000
0100
0000
0000
,
1000
0001
0100
0010
0000
1000
0000
0000
,
1000
0100
0010
0001
0000
0100
0000
0010
,
0000
1000
0100
0010
0001
0100
0000
0000
,
0001
0000
0001
0000
1000
0100
1000
0001
,
0100
0000
0000
0000
;

//---------------dance-single - ----------------
#NOTES:
     dance-single:
     :
     Hard:
     8:
     0.529,0.591,0.161,0.000,0.276:
0000
0000
0000
0000
,
0000
0000
0000
0000
,
0000
0000
0000
0000
,
0000
0000
0000
0000
,
0000
0000
0000
0000
,
0000
0000
0000
0000
,
0000
1000
0100
1000
0010
0100
0001
0010
,
0000
0001
0100
0001
0010
0100
1000
0010
,
0000
1000
0100
1000
0010
0100
0001
0010
,
0000
0100
0010
0100
1000
1000
1000
1000
,
0000
0000
0000
0000
,
1000
0000
1000
0000
0001
0100
0010
0000
,
1000
0000
0001
0000
1000
0100
0010
0000
,
0000
0001
0010
0001
0010
0001
0001
0010
,
0001
0001
0010
0001
0000
0001
0001
0000
,
1000
0000
1000
0000
0010
1000
0100
0000
,
0010
0000
0001
0000
0100
0010
1000
0000
,
0000
0001
0010
0001
0010
0001
0001
0010
,
0100
0100
0010
0001
0000
0100
0100
0000
,
0000
0000
1000
0100
0000
0000
0010
0001
0000
0000
0100
0010
0000
0000
1000
0100
,
0000
0000
0010
0001
0000
0000
0100
0010
0000
0000
1000
0001
0000
0000
0100
0010
,
0000
0000
1000
0100
0000
0000
0010
0001
0000
0000
0100
0010
0000
0000
1000
0100
,
0000
0000
0010
0001
0000
0000
0100
0010
0000
0000
1000
0001
0000
0000
0100
0010
,
0000
0000
1000
0100
0000
0000
0010
0001
0000
0000
1000
0001
0000
0000
0100
1000
,
0000
0000
0100
0001
0000
0000
0010
0100
0000
0000
1000
0010
0000
0000
0100
0001
,
0000
0000
1000
0100
0000
0000
0010
0001
0000
0000
1000
0010
0000
0000
0100
1000
,
0000
0000
0001
0010
0000
0000
0100
1000
0000
0000
0010
0100
0000
0000
0001
0000
,
1000
0000
0100
0000
0010
0010
0010
0010
,
0001
0000
0000
0000
1000
0000
0000
0000
0001
0100
0001
0100
0001
0000
1000
0000
,
0001
0100
1000
0100
,
1000
0000
0000
0000
0001
0000
0000
0000
1000
0100
1000
0100
1000
0000
0001
0000
,
0100
0010
1000
0100
,
0010
0000
0000
0000
0001
0000
0000
0000
1000
0100
1000
0100
1000
0000
0001
0000
,
0100
0010
1000
0001
,
0100
0000
0000
0000
0010
0000
0000
0000
1000
0001
1000
0001
1000
0000
0001
0000
,
1000
0100
0010
0001
,
1000
0000
0000
0000
0001
0000
0000
0000
1000
0100
1000
0100
1000
0000
0001
0000
,
1000
0000
0010
0000
0100
0000
0001
0000
0010
0001
0010
0001
0010
0000
0001
0000
,
1000
0100
0000
0010
0000
0000
0100
0000
1000
0100
0000
0010
0000
0000
0100
0000
,
1000
0001
0100
0010
1000
0001
0100
0010
,
1000
0000
0001
0000
0001
0000
0000
0000
0010
0000
0000
0001
0000
0000
0001
0000
,
1000
0100
0010
0001
1000
0100
0100
0000
,
1000
0000
0100
0000
0010
0000
0001
0000
1000
0100
1000
0100
1000
0000
0001
0000
,
1000
0100
0000
0010
0000
0000
0001
0000
,
1000
0000
1000
0000
0010
0100
0001
0000
,
1000
0100
0010
0011
0000
0011
0000
0000
,
1000
0010
0100
0001
0010
0100
0100
0000
,
1100
0000
0000
0011
0000
0000
1100
0000
0000
0000
0000
0000
0000
0000
0000
0000
,
1000
0000
0001
0100
1010
1100
1100
0000
,
1000
0010
0100
0101
0000
0110
0000
0000
,
1000
0100
0100
0000
0010
0010
0001
0000
,
0001
0000
0000
0000
0000
0000
0000
0000
0000
0000
0000
0100
0000
0000
0000
0000
0000
0000
0000
0000
0000
0000
0010
0000
0000
0000
0000
0000
0000
0000
0000
0000
0100
0000
0000
0000
0000
0000
0000
0000
0000
0000
0000
0000
0000
0000
0000
0000
0000
0000
0000
0000
0000
0000
0000
0000
0000
0000
0000
0000
0000
0000
0000
0000
,
0001
0010
0100
1000
1001
1001
0101
0101
,
1001
0000
0000
0000
0000
0000
0000
1000
,
0001
0000
0000
0000
0000
0000
0000
1000
,
0001
0000
0000
0000
0000
0000
0000
1000
,
0001
0000
0000
0000
0000
0000
1000
0001
1000
0000
0000
0100
0000
0000
0010
0000
,
0001
0100
0001
1000
0100
0010
0100
1000
,
0001
0100
0010
1000
0100
0010
0001
0100
,
0010
1000
0010
0001
0010
1000
0100
0010
,
0001
0100
0010
1000
0100
0010
0001
0000
,
1000
0001
1000
0001
1000
0001
0100
0010
,
1001
0000
0000
0000
;

//---------------dance-double - ----------------
#NOTES:
     dance-double:
     :
     Easy:
     5:
     0.341,0.373,0.211,0.000,0.000:
00000000
00000000
00000000
00000000
,
00000000
00000000
00000000
00000000
,
00000000
00000000
00000000
00000000
,
00000000
00000000
00000000
00000000
,
00000000
00000000
00000000
00000000
,
00000000
00000000
00000000
00000000
,
10000000
00100000
00010000
00010000
,
01000000
00010000
00010000
00100000
,
00010000
00001000
01000000
00001000
,
00000100
00010000
00000100
00000001
,
00001000
00001000
00001000
00001000
,
00000000
00000001
00000000
00000001
,
00000000
00000100
00000000
00000001
,
00000100
00001000
00010000
01000000
,
00010000
00001000
00000100
00000001
,
00000000
00001000
00000000
00001000
,
00000000
00000100
00000000
00001000
,
00000010
00000001
00000100
00001000
,
00010000
01000000
10000000
10000000
,
00110000
00101000
00110000
01000000
,
00100000
00010000
01000000
10000000
,
00010000
00010000
01000000
10000000
,
00100000
00010000
00001000
01000000
,
00001000
00000100
00000001
00001000
,
00001100
00000001
00000101
00001000
,
00000010
00000001
00000100
00001000
,
00000100
00000001
00000100
00001000
,
00000110
00001000
00010000
01000000
,
11000000
00010000
01000000
10000000
,
10100000
00010000
01000000
10000000
,
01010000
10000000
01000000
00010000
,
00001000
00000100
00000001
00001000
,
00000101
00001000
00000100
00000001
,
00000011
00001000
00000100
00000001
,
00001100
00000001
00000100
00001000
,
00010000
01000000
00001000
01000000
,
00100000
00100000
10000000
10000000
,
00100000
10000000
01000000
00010000
,
00010000
00010000
01000000
01000000
,
00010000
00001000
00000100
00000001
,
00000010
00000010
00000001
00000001
,
00000010
00000001
00000100
00001000
,
00001000
00001000
00000100
00000100
,
00001000
00010000
01000000
10000000
,
00010000
00100000
10000000
10000000
,
00100000
10000000
01000000
01000000
,
10000000
00100000
00010000
00010000
,
00100000
00010000
01000000
01000000
,
10000000
01000000
00010000
00001000
,
00000100
00000100
00000100
00000100
,
00000110
00000001
00000110
00001000
,
00000001
00000001
00000001
00000001
,
00000100
00001001
00000100
00000001
,
00000110
00000001
00001000
00000100
,
00000110
00001000
00010000
01000000
,
01100000
10000000
00100000
00010000
,
01100000
00010000
00001000
00000100
,
00000001
00001000
00001000
00001000
,
00001001
00000001
00000001
00000001
,
00000010
00001000
00010000
00000100
,
00001000
00010000
01000000
10000000
,
01100000
10000000
00010000
01000000
,
01000000
00000000
00000000
00000000
;

//---------------dance-double - ----------------
#NOTES:
     dance-double:
     :
     Medium:
     6:
     0.408,0.467,0.572,0.000,0.000:
00000000
00000000
00000000
00000000
,
00000000
00000000
00000000
00000000
,
00000000
00000000
00000000
00000000
,
00000000
00000000
00000000
00000000
,
00000000
00000000
00000000
00000000
,
00000000
00000000
00000000
00000000
,
00010100
00001000
01000000
10000000
,
10010000
01100000
00010000
00001000
,
00000100
00000001
00001010
00000100
,
00000101
00001000
00000100
00000100
,
00000001
00000001
00000001
00000001
,
00000100
00010100
00001100
00000001
,
00000010
00001000
00000100
00000001
,
00000100
00001000
00010000
00100000
,
00001000
01000000
10000000
00010000
,
01000000
10100000
10010000
01000000
,
00100000
00010000
00001000
00000010
,
00010000
00000100
00000001
00000001
,
00001010
00000001
00000100
00001000
,
00001100
00000101
00001000
00000010
,
00000001
00000100
00001000
00010000
,
00000010
00010000
00000100
00000001
,
00001000
00001100
00010100
01000000
,
01010000
11000000
00010000
00100000
,
10000000
01000000
00010000
00001000
,
00100000
00001000
01000000
10000000
,
00010000
01010000
01001000
00000100
,
00000101
00000000
00000011
00000000
00001000
00000010
00000001
00000000
,
00001010
00000001
00000101
00001000
,
01000000
10000000
00010000
00001000
,
00000110
00000001
00000110
00001000
,
01000000
10000000
00100000
01000000
,
00110000
10000000
11000000
00010000
,
00000100
00000001
00001000
00010000
,
01100000
10000000
01100000
00010000
,
00000100
00000001
00000010
00000100
,
00001000
00000010
00000100
00000100
,
00001000
00000001
00000000
00000110
00000000
00001000
00000001
00000000
,
00000100
00001000
00010000
01000000
,
11000000
00100000
01000000
00010000
,
01001000
00011000
00010100
00011000
,
00000100
00000001
00000010
00000100
,
00001100
00000001
00000101
00001000
,
00001100
00000001
00000001
00000001
,
00001100
00010100
01000000
10000000
,
00100000
01000000
10000000
01000000
,
00010000
00001000
00000100
00000001
,
00001000
00010000
01000000
10000000
,
10010000
11000000
00100000
00010000
,
00001000
01000000
00001000
00000100
,
00001001
00000100
00000110
00001000
,
00000110
00000001
00000001
00000001
,
00001001
00000000
00001100
00000000
00001000
00000001
00000100
00000000
,
00001010
00000001
00000010
00001000
,
01000000
00010000
00001000
00000100
,
00000101
00001001
00000100
00000100
,
00010100
00001000
01000000
10000000
,
00110000
00101000
00010000
01000000
,
00001000
00000100
00001001
00000110
,
00001000
00000101
00000010
00001100
,
00000001
00001000
00000001
00000001
,
00000110
00001000
01000000
00010000
,
00100000
00000000
00000000
00000000
;

//---------------dance-double - ----------------
#NOTES:
     dance-double:
     :
     Hard:
     8:
     0.539,0.529,0.241,0.000,0.015:
00000000
00000000
00000000
00000000
,
00000000
00000000
00000000
00000000
,
00000000
00000000
00000000
00000000
,
00000000
00000000
00000000
00000000
,
00000000
00000000
00000000
00000000
,
00000000
00000000
00000000
00000000
,
00010000
00100000
01000000
00010000
00100000
01000000
00010000
00000000
,
00001000
00000010
00000100
00001000
00000010
00000100
00001000
00000000
,
00010000
00100000
01000000
00010000
00100000
01000000
00010000
00000000
,
00001000
00000010
00000100
00001000
00000010
00000100
00001000
00000000
,
00010000
00100000
10000000
10000000
,
10100000
00000000
00010000
00000000
01000000
00100000
00010000
00000000
,
10000000
00100000
01000000
00000000
10000000
00000000
01000000
00000000
,
00010000
00001000
00000100
00000010
00000100
00000001
00000100
00000000
,
00001000
00010000
01000000
00100000
01000000
10000000
01000000
00000000
,
10000000
00100000
00010000
00000000
00001000
00000000
00010010
00000000
,
00001000
00000100
00000001
00000000
00001100
00000000
00000011
00000000
,
00001000
00000001
00000010
00000100
00000001
00000100
00001000
00000000
,
00000001
00000010
00001000
00010000
01000000
10000000
00010000
00000000
,
00100000
01000000
00000000
00010000
00000000
10100000
00000000
00010000
,
00000000
00000000
00001000
00000000
00000000
00000000
00000110
00000000
00000000
00000000
00000001
00000000
00000000
00000000
00001000
00000100
,
00000000
00000001
00000000
00001010
00000000
00000101
00000000
00001000
,
00000000
00000000
00010000
00000000
00000000
00000000
01000000
10000000
00000000
00000000
00010000
00000000
00000000
00000000
01000000
00000000
,
00000000
01001000
00000000
00010000
00000000
00000100
00000000
00000110
,
00000000
00000000
00001000
00000000
00000000
00000000
00010010
00000000
00000000
00000000
00010100
00000000
00000000
00000000
01000000
10000000
,
00000000
00010000
00000000
00001000
00000000
00000100
00000000
00000110
,
00000000
00001010
00000000
00000001
00000000
00000100
00000000
00001000
,
00001000
00000000
00001000
00000000
00000001
00000100
00000100
00000010
,
00000010
00000100
00000001
00001000
00000100
00000010
00001000
00010000
,
00001000
00000100
00000010
00010000
00001000
00010000
01000000
10000000
,
00100000
01000000
00010000
10000000
01000000
00010000
00001000
00000100
,
00001000
00010000
00100000
00010000
00001000
00000100
00000001
00000000
,
00001000
00000010
00000100
00001000
00010000
01000000
00010000
00001000
,
00010000
00100000
01000000
00010000
10000000
01000000
00010000
00001000
,
00000010
00000100
00001000
00000001
00000100
00000010
00001000
00000100
,
00000010
00000001
00000100
00001000
00010000
01000000
00100000
00000000
,
00100000
00010000
01000000
00100000
10000000
01000000
00100000
00000000
,
00100000
00010000
01000000
10000000
01000000
00100000
00010000
00000000
,
00100000
01000000
00010000
00001000
00000100
00000010
00000001
00000000
,
00000010
00000100
00000001
00001000
00000100
00000010
00000001
00000000
,
00000001
00000010
00000100
00001000
00000010
00000100
00001000
00010000
,
01000000
00010000
00001000
00010000
01000000
10000000
00100000
00000000
,
00100000
01000000
10000000
01000000
00010000
01000000
10000000
00000000
,
00100000
10000000
01000000
00010000
01000000
10000000
00010000
00000000
,
00100000
10000000
01000000
01100000
00100000
00010000
01000000
00000000
,
00100000
00010000
00001000
00000010
,
00000001
00000010
00001000
00000110
00001000
00000010
00000001
00000000
,
00000100
00001000
00010000
01000000
,
00010000
10000000
01000000
10010000
10000000
00010000
01000000
00000000
,
01001000
00011000
00010100
00001100
,
00000001
00000010
00000100
00000110
00001000
00000010
00000100
00000000
,
00000001
00000010
00001000
00000100
,
00000001
00000000
00000001
00000000
00000001
00000100
00001000
00000100
,
00000100
00000001
00001000
00000100
00001000
00000010
00000001
00000000
,
00000100
00001000
00010000
01000000
00010000
00001000
00000100
00000000
,
00000001
00001000
00000001
00000100
00001000
00010000
01000000
00000000
,
00100000
01000000
10000000
00010000
00100000
01000000
00010000
00000000
,
00001000
00000100
00000010
00001000
00000100
00000010
00000001
00000000
,
00000100
00001000
00000100
00001000
00000100
00000001
00000100
00000000
,
00000010
00000001
00001000
00000010
00001000
00000001
00000010
00000000
,
00001000
00010000
01000000
10000000
00100000
01000000
00010000
00000000
,
01001000
00011000
00000100
00000001
,
00000001
00000000
00000000
00000000
;

//---------------dance-couple - ----------------
#NOTES:
     dance-couple:
     :
     Medium:
     8:
     0.616,0.746,1.000,0.000,0.000:
00000000
00000000
00000000
00000000
,
00000000
00000000
00000000
00000000
,
00000000
00000000
00000000
00000000
,
00000000
00000000
00000000
00000000
,
00000000
00000000
00000000
00000000
,
00000000
00000000
00000000
00000000
,
10000000
00000000
00000100
00000000
01000100
10001000
01000100
00000000
,
00000010
00000000
10000000
00000000
00010001
01000100
00010001
00000000
,
00100000
00000000
00000100
00000000
00010001
01000100
00010001
00000000
,
00001000
00000000
00010000
00000000
10001000
01000100
10001000
01000100
,
00000000
00000000
00000000
00000000
,
10010000
01000001
00100000
00010001
,
10000000
01000001
00010000
01000001
,
10000000
01000001
01000000
01000001
,
00010000
01000001
01000000
01000001
,
00001001
10000100
00000010
10000001
,
00001000
10000100
00000001
10000100
,
00001000
10000100
00000100
10000100
,
00000001
10000100
00000100
10000100
,
10000000
00000000
10000001
01000000
00100000
00000000
00100001
00000000
,
00010000
01000000
00100001
10000000
00000000
10000000
00000001
00000000
,
00100000
00000000
01000001
00010000
01000000
00000000
01000001
00000000
,
10100000
10010001
10100000
00000000
,
00000001
00000000
10000001
00000100
00000010
00000000
10000010
00000000
,
00001000
00000100
10000010
00000001
00000000
00000001
10000000
00000000
,
00000010
00000000
10000100
00001000
00000100
00000000
10000100
00000000
,
00000011
10001001
00000011
00000000
,
10011001
00000000
10011001
00000000
10001000
01000100
00100010
00010001
,
10000000
00000000
01000001
00000000
00010000
01000000
00010001
00000000
,
00100000
00000000
10000001
00000000
00010000
01000000
00010001
00000000
,
10000000
00000000
00010001
00000000
00100000
01000000
00100001
00000000
,
10000000
00000000
00100001
00000000
10000000
01000000
10000001
00000000
,
00001000
00000000
10000100
00000000
00000001
00000100
10000001
00000000
,
00000010
00000000
10001000
00000000
00000001
00000100
10000001
00000000
,
00001000
00000000
10000001
00000000
00000010
00000100
10000010
00000000
,
00001000
00000000
10000010
00000000
00001000
00000100
10001000
00000000
,
00010000
01000000
00010000
01000000
,
00000001
00000100
00000001
00000100
,
10000000
01000000
10000000
01000000
,
00001000
00000100
00001000
00000100
,
00010001
00000000
00010001
00000000
10001000
01000100
10001000
00000000
,
10001000
00000000
10001000
00000000
00010001
01000100
00010001
00000000
,
00010001
01000100
00100010
10001000
,
10011001
10011001
01000100
01000100
,
10010000
00000000
10000001
01000000
10000000
00000001
00000001
00000000
,
00010000
00100000
01000001
10000000
00000000
00010001
00000001
00000000
,
00100000
10000000
01000001
10000000
00100000
01000001
00010001
00000000
,
10010000
00000000
01010001
00000000
00100000
00000001
00000001
00000000
,
00001001
00000000
10001000
00000100
00001000
10000000
10000000
00000000
,
00000001
00000010
10000100
00001000
00000000
10000001
10000000
00000000
,
00000010
00001000
10000100
00001000
00000010
10000100
10000001
00000000
,
00001001
00000000
10000101
00000000
00000010
10000000
10000000
00000000
,
10001000
00000000
10001000
00000000
10001000
00010001
00100010
01000100
,
10011001
00000000
01000001
00000000
00100000
10000000
01000001
00000000
,
00110000
00000000
10000001
00000000
00100000
10000000
01000001
00000000
,
01010000
00000000
00100001
00000000
00100000
10000000
01000001
00000000
,
10100000
00000000
01000001
00000000
00100000
10000000
01000001
00000000
,
10011001
00000000
10000100
00000000
00000010
00001000
10000100
00000000
,
00000011
00000000
10001000
00000000
00000010
00001000
10000100
00000000
,
00000101
00000000
10000010
00000000
00000010
00001000
10000100
00000000
,
00001010
00000000
10000100
00000000
00000010
00001000
10000100
00000000
,
00010001
00000000
00010001
00000000
10001000
01000100
10001000
00010001
,
01000100
00000000
00000000
00000000
;

//---------------dance-solo - ----------------
#NOTES:
     dance-solo:
     :
     Easy:
     4:
     0.278,0.404,0.191,0.000,0.000:
000000
000000
000000
000000
,
000000
000000
000000
000000
,
000000
000000
000000
000000
,
000000
000000
000000
000000
,
000000
000000
000000
000000
,
000000
000000
000000
000000
,
000010
000010
000010
000010
,
000010
000010
000010
000010
,
001000
001000
001000
001000
,
001000
001000
001000
001000
,
000001
000000
000000
000000
,
010000
000000
000001
000000
,
000100
000000
000010
000000
,
100000
010000
010000
010000
,
000001
000010
000010
000010
,
000100
000000
001000
000000
,
010000
000000
000001
000000
,
000010
001000
001000
001000
,
000100
100000
000001
001000
,
100001
001100
100001
100001
,
010000
010000
000010
001000
,
000100
000100
100000
000001
,
001000
000000
000100
000000
,
010010
001100
100001
001000
,
000010
000010
010000
000100
,
100000
000000
000001
000000
,
001000
000000
000100
000000
,
100000
100000
000001
100001
,
001000
000000
000010
000010
,
100000
000000
000100
000100
,
010000
010000
000010
000010
,
001000
001000
001000
001000
,
000100
000000
010000
010000
,
000001
000000
100000
100000
,
000010
000000
100000
000000
,
000001
000000
010000
000000
,
000000
000001
000000
000001
,
000000
000001
000000
000001
,
000000
100000
000000
100000
,
000000
100000
000000
100000
,
000100
000100
001000
001000
,
000010
000010
010000
010000
,
001000
000000
000000
000000
,
000100
000100
100001
100001
,
001000
000000
100001
100001
,
000100
000100
001000
000010
,
010000
000000
001000
000000
,
100000
000000
000001
000000
,
000100
000000
100001
100001
,
010000
010000
000010
001000
,
000001
000000
000010
000000
,
000100
000000
010000
000000
,
100000
100000
000001
100000
,
000010
010000
000100
001100
,
100000
000001
000100
010010
,
000001
100000
000100
001000
,
000010
000010
010000
010000
,
000001
100000
001100
001100
,
010000
000010
100000
001100
,
000010
010000
000000
000000
,
000100
000000
001000
000000
,
000001
000001
000001
000001
,
100000
000000
000000
000000
;

//---------------dance-solo - ----------------
#NOTES:
     dance-solo:
     :
     Medium:
     6:
     0.353,0.435,0.321,0.000,0.000:
000000
000000
000000
000000
,
000000
000000
000000
000000
,
000000
000000
000000
000000
,
000000
000000
000000
000000
,
000000
000000
000000
000000
,
000000
000000
000000
000000
,
000010
100000
000010
100000
,
000100
100000
000100
100000
,
000001
010000
000001
010000
,
000001
100000
000100
001000
,
000010
000000
000000
000000
010000
010000
010000
000000
,
001000
001000
100000
100010
,
000001
000001
000100
000110
,
010000
000100
001000
000010
,
001000
100001
000010
001100
,
010000
010000
000001
000101
,
001000
001000
100000
100100
,
010000
000000
000001
000000
001000
000000
000010
000010
,
100000
000000
000000
000000
000001
000000
100000
100000
,
110000
010100
000110
000011
,
100000
000100
010000
000001
,
001000
001000
001000
001000
,
000100
000000
000001
000000
100000
100000
100000
000000
,
000011
000110
010100
110000
,
000010
001000
000001
000100
,
001000
000000
100000
000000
,
000001
000000
010000
010000
,
000010
000000
000010
000000
000100
000100
000100
000100
,
100000
000000
000000
000000
000001
000010
001000
000000
,
000001
000000
000000
000000
100000
010000
001000
000000
,
000010
000010
100000
000001
,
001000
100001
000100
010010
,
001000
000000
000000
000000
000010
000100
000001
000000
,
100000
000000
000000
000000
000100
010000
001000
000000
,
100000
100000
000010
010000
,
000001
000000
100000
000000
,
000000
000001
000000
000010
,
000000
000100
000000
010000
,
000000
100000
000000
010000
,
000000
000100
000000
000001
,
100000
100000
000001
000001
,
010000
010000
001000
001000
,
000100
000000
000000
000000
,
000100
001000
100001
100001
,
001100
100010
001100
010001
,
001000
001000
000001
100000
,
000010
000000
000010
000010
100000
000000
100000
000000
,
000100
010000
001000
001000
,
100001
001100
100010
010001
,
001000
000000
001000
000000
100000
000000
000001
000001
,
001000
000010
100000
000100
,
010000
000000
010000
000000
000010
000010
000010
000000
,
001000
001000
100001
100001
,
100000
000000
000000
000000
000001
000010
000100
000000
,
000001
000000
000000
000000
100000
010000
001000
000000
,
000011
000011
010000
010000
,
101000
101000
000010
000010
,
010000
000000
000000
000000
000001
000100
001000
000000
,
100000
000000
000000
000000
000100
010000
000001
000000
,
100000
000000
000001
000000
,
010000
000000
000010
000000
,
001000
000000
001000
000000
001000
001000
001000
001000
,
000001
000000
000000
000000
;

//---------------dance-solo - ----------------
#NOTES:
     dance-solo:
     :
     Hard:
     8:
     0.510,0.591,0.050,0.000,0.276:
000000
000000
000000
000000
,
000000
000000
000000
000000
,
000000
000000
000000
000000
,
000000
000000
000000
000000
,
000000
000000
000000
000000
,
000000
000000
000000
000000
,
000000
010000
100000
010000
001000
000100
001000
000001
,
000000
000010
001000
000010
100000
001000
100000
000100
,
000000
010000
000010
010000
001000
100000
000001
001000
,
000000
001000
000100
001000
000001
000001
000001
000001
,
000000
000000
000000
000000
,
100000
000000
100000
000000
000001
001000
000100
000000
,
010000
000000
000010
000000
010000
000100
001000
000000
,
000000
000010
000001
000010
000001
000010
000010
000001
,
000010
000010
000001
000010
000000
000010
000010
000000
,
000001
000000
100000
000000
000001
000100
001000
000000
,
010000
000000
000001
000000
001000
000100
100000
000000
,
000000
001000
010000
001000
010000
001000
001000
100000
,
000010
000010
000100
000001
000000
001000
001000
000000
,
000000
000000
100000
001000
000000
000000
000100
000001
000000
000000
001000
000100
000000
000000
100000
001000
,
000000
000000
000100
000001
000000
000000
001000
000100
000000
000000
010000
000001
000000
000000
001000
000100
,
000000
000000
100000
001000
000000
000000
000100
000001
000000
000000
001000
000100
000000
000000
010000
000010
,
000000
000000
000100
000001
000000
000000
001000
000100
000000
000000
010000
000001
000000
000000
100000
000010
,
000000
000000
000100
001000
000000
000000
100000
000010
000000
000000
010000
000001
000000
000000
100000
001000
,
000000
000000
000100
000010
000000
000000
010000
000001
000000
000000
100000
000100
000000
000000
001000
000001
,
000000
000000
010000
000100
000000
000000
100000
000010
000000
000000
000100
000001
000000
000000
010000
000001
,
000000
000000
100000
000100
000000
000000
001000
000001
000000
000000
000100
001000
000000
000000
100000
000000
,
000001
000000
000100
000000
001000
001000
001000
001000
,
010000
000000
000000
000000
000000
000000
000000
000000
000001
000000
000000
000000
000100
001000
000100
001000
,
000100
100000
100000
000000
001000
000000
000100
000000
,
000010
000000
000000
000000
010000
000000
000000
000000
000001
100000
000001
100000
000001
000000
000100
000000
,
001000
000010
001000
010000
,
100000
000000
000000
000000
000001
000000
000000
000000
001000
000100
001000
000100
001000
000000
100000
000000
,
000001
010000
000010
001000
,
000100
000000
000000
000000
001000
000000
000000
000000
000001
100000
000001
100000
000001
000000
100000
000000
,
000001
001000
000100
100000
,
000010
000000
000000
000000
000010
000000
000000
000000
100000
000010
100000
000010
100000
000000
000001
000000
,
010000
000000
000100
000000
001000
000000
000001
000000
010000
000001
010000
000001
010000
000000
000001
000000
,
001000
000100
000000
001000
000000
000000
000010
000000
001000
000010
000000
100000
000000
000000
000100
000000
,
100000
000001
001000
000100
100001
000000
001000
000100
,
100000
000000
000001
000000
000001
000000
000000
000000
000100
000000
000000
000001
000000
000000
000001
000000
,
001000
000100
100000
001000
010000
000001
000001
000000
,
001000
000000
000100
000000
100000
000000
001000
000000
010000
000001
010000
000001
010000
000000
000100
000000
,
001000
000100
000000
100000
000000
000000
000001
000000
,
001000
000000
001000
000000
000100
001000
000010
000000
,
100000
001000
000100
000010
000000
010100
000000
000000
,
000001
001000
000100
100000
001000
010000
010000
000000
,
000010
000000
000000
010000
000000
000000
100000
000000
000000
000000
000000
000000
000000
000000
000000
000000
,
001000
000000
000100
001000
000001
000100
000010
000000
,
100000
000100
001000
000010
000000
100001
000000
000000
,
001000
000100
000100
000000
100000
100000
000001
000000
,
000001
000000
000000
000000
000000
000000
000000
000000
000000
000000
000000
001000
000000
000000
000000
000000
000000
000000
000000
000000
000000
000000
000100
000000
000000
000000
000000
000000
000000
000000
000000
000000
100000
000000
000000
000000
000000
000000
000000
000000
000000
000000
000000
000000
000000
000000
000000
000000
000000
000000
000000
000000
000000
000000
000000
000000
000000
000000
000000
000000
000000
000000
000000
000000
,
000100
010000
000010
100000
000001
100000
000010
010000
,
100001
000000
000000
000000
000000
000000
000000
000010
,
100000
000000
000000
000000
000000
000000
000000
000010
,
100000
000000
000000
000000
000000
000000
000000
000010
,
100000
000000
000000
000000
000000
000000
000001
010000
000001
000000
000000
001000
000000
000000
000100
000000
,
001000
000010
001000
000001
100000
000100
100000
000001
,
010000
000010
100000
000100
001000
000010
001000
000001
,
100000
000100
100000
000001
010000
000010
100000
000100
,
001000
000010
001000
000001
100000
000100
100000
000000
,
000001
001000
000001
001000
000001
001000
000010
001000
,
100001
000000
000000
000000
;

//---------------dance-double - ----------------
#NOTES:
     dance-double:
     :
     Challenge:
     9:
     0.601,0.652,0.231,0.100,0.095:
00000000
00000000
00000000
00000000
,
00000000
00000000
00000000
00000000
,
00000000
00000000
00000000
00000000
,
00000000
00000000
00000000
00000000
,
00000000
00000000
00000000
00000000
,
00000000
00000000
00000000
00000000
,
00010000
00100000
01000000
00010000
00100000
01000000
00010000
00000000
,
00001000
00000010
00000100
00001000
00000010
00000100
00001000
00000000
,
00010000
00100000
01000000
00010000
00100000
01000000
00010000
00000000
,
00001000
00000010
00000100
00001000
00000010
00000100
00001000
00000000
,
00010000
00100000
10000000
10000000
,
10100000
00000000
00010000
00000000
01000000
00100000
00010000
00000000
,
10000000
00100000
01000000
00000000
10000000
00000000
01000000
00000000
,
00010000
00001000
00000100
00000010
00000100
00000001
00000100
00001000
,
00010000
01000000
00100000
01000000
10000000
01000000
10000000
00000000
,
10000000
00100000
00010000
00000000
00001000
00000000
00010010
00000000
,
00001000
00000100
00000001
00000000
00001100
00000000
00000011
00000000
,
00001000
00000001
00000010
00000100
00000001
00000100
00001000
00000001
,
00000010
00001000
00000010
00000000
00001000
00010000
00001000
00000000
01000000
00010000
01000000
00010000
01000000
00010000
01000000
00010000
,
00100000
01000000
00000000
00010000
00000000
10100000
00000000
00010000
,
00000000
00000000
00001000
00000000
00000000
00000000
00000110
00000000
00000000
00000000
00000001
00000000
00000000
00000000
00001000
00000100
,
00000000
00000001
00000000
00001010
00000000
00000101
00000000
00001000
,
00000000
00000000
00010000
00000000
00000000
00000000
01000000
10000000
00000000
00000000
00010000
00000000
00000000
00000000
01000000
00000000
,
00000000
01001000
00000000
00010000
00000000
00000100
00000000
00000110
,
00000000
00000000
00001000
00000000
00000000
00000000
00010010
00000000
00000000
00000000
00010100
00000000
00000000
00000000
01000000
10000000
,
00000000
00010000
00000000
00001000
00000000
00000100
00000000
00000110
,
00000000
00001010
00000000
00000001
00000000
00000100
00000000
00001000
,
00000001
00001000
00000001
00001000
00000001
00001000
00000001
00001000
00000001
00000000
00000100
00000000
00000100
00000000
00000010
00000000
,
00000010
00000100
00000001
00001000
00000100
00000010
00001000
00010000
,
00001000
00000100
00000010
00010000
00001000
00010000
01000000
10000000
,
00100000
01000000
00010000
10000000
01000000
00010000
00001000
00000100
,
00001000
00010000
00100000
00010000
00001000
00000100
00000001
00001000
,
00000010
00000100
00001000
00010000
01000000
00010000
00001000
00010000
,
00100000
01000000
00010000
10000000
01000000
00010000
00001000
00000010
,
00000100
00001000
00000001
00000100
00000010
00001000
00000100
00000010
,
00000001
00000100
00001000
00010000
01000000
00100000
00000000
00000000
,
00100000
00010000
01000000
00100000
10000000
01000000
00100000
10000000
,
00100000
00010000
01000000
10000000
01000000
00100000
00010000
00000000
,
00100000
01000000
00010000
00001000
00000100
00000010
00000001
00001000
,
00000010
00000000
00000100
00000000
00000001
00000000
00001000
00000000
00000100
00000000
00000010
00000001
00000010
00000000
00000000
00000000
,
00000001
00000010
00000100
00001000
00000010
00000100
00001000
00010000
,
01000000
00010000
00001000
00010000
01000000
10000000
00100000
00001000
,
00100000
01000000
10000000
01000000
00010000
01000000
10000000
01000000
,
00100000
10000000
01000000
00010000
01000000
10000000
00010000
01000000
,
00100000
10000000
01000000
01100000
00100000
00010000
01000000
00000000
,
00100000
00020000
00032000
00003020
,
00000031
00000010
00001000
00000110
00001000
00000010
00000001
00000000
,
00000200
00000000
00000000
00000000
00002300
00000000
00000000
00000000
00013000
00000000
01000000
00100000
01000000
00000000
00000000
00000000
,
00010000
10000000
01000000
10010000
10000000
00010000
01000000
00000000
,
01001000
00011000
00010100
00001100
,
00000001
00000010
00000100
00000110
00001000
00000010
00000100
00000000
,
00000002
00000023
00002030
00003200
,
00000301
00001000
00000001
00001000
00000001
00001000
00000001
00001000
00000001
00000000
00000100
00000000
00001000
00000000
00000100
00000000
,
00000100
00000001
00001000
00000100
00001000
00000010
00000001
00000010
,
00000100
00001000
00010000
01000000
00010000
00001000
00000100
00000001
,
00001000
00000001
00000100
00001000
00010000
01000000
00100000
01000000
,
10000000
00010000
00100000
01000000
00010000
00001000
00000100
00000010
,
00001000
00000100
00000010
00000001
00000100
00001000
00000100
00000010
,
00000100
00001000
00010000
00100000
01000000
00010000
00100000
01000000
,
00010000
00001000
00000010
00000001
00001000
00000010
00001000
00000001
,
00000010
00001000
00010000
01000000
10000000
00200000
00000000
00000000
,
01000000
01000000
00000000
00000000
00000000
01300000
00000000
01100000
;

//---------------dance-single - ----------------
#NOTES:
     dance-single:
     :
     Challenge:
     9:
     0.671,0.751,0.451,0.060,0.406: // measure 1
0000
0000
0000
0000
,  // measure 2
0000
0000
0000
0000
,  // measure 3
0000
0000
0000
0000
,  // measure 4
0000
0000
0000
0000
,  // measure 5
0000
0000
0000
0000
,  // measure 6
0000
0000
0000
0000
,  // measure 7
0000
0001
0010
0100
0001
0010
0100
0001
,  // measure 8
0000
1000
0010
0100
1000
0010
0100
1000
,  // measure 9
0000
0001
0010
0100
0001
0010
0100
0001
,  // measure 10
2000
0000
3020
0000
0130
1000
0010
0100
,  // measure 11
2000
0000
0000
3000
,  // measure 12
0000
0001
0000
1000
0000
0100
0010
0001
,  // measure 13
0000
0100
0000
0010
0000
1000
0100
0010
,  // measure 14
0000
0001
0100
1000
1000
0100
0001
0001
,  // measure 15
0100
1000
1000
0200
0001
0301
0010
0100
,  // measure 16
0000
1000
0000
0001
0000
0010
0100
1000
,  // measure 17
0000
0010
0000
0100
0000
0001
0010
0100
,  // measure 18
0000
1000
0010
0001
0001
0010
1000
1000
,  // measure 19
0010
0001
0010
0000
1000
0001
1000
0000
0100
0010
0100
0010
0100
0010
0100
0010
,  // measure 20
0001
1100
0000
0011
0000
0110
0000
1100
,  // measure 21
0000
0000
0011
0000
0000
0000
0110
0000
0000
0000
1001
0000
0000
0000
0100
0010
,  // measure 22
0000
1100
0000
0011
0000
0110
0000
1100
,  // measure 23
0000
0000
0011
0000
0000
0000
0110
0000
0000
0000
1000
0001
0100
0000
0010
0000
,  // measure 24
0000
1100
0000
0011
0000
1001
0000
1100
,  // measure 25
0000
0000
0101
0000
0000
0000
0110
0000
0000
0000
1010
0000
0000
0000
0100
0001
,  // measure 26
0000
1100
0000
0011
0000
1010
0000
1100
,  // measure 27
0000
0011
0000
1100
0000
0110
0000
1001
,  // measure 28
0100
0010
0100
0010
0100
0010
0100
0010
0100
0000
1001
0000
1001
0000
0110
0000
,  // measure 29
0001
0000
0010
0000
0100
0000
1000
0000
0100
0001
0000
0001
0100
0000
1000
0000
,  // measure 30
0100
0000
0010
0000
0001
0000
0100
1000
0000
1000
0100
0000
0010
0000
1000
0000
,  // measure 31
0001
0000
0100
0000
0001
0000
0010
0000
1000
0010
0000
0010
0100
0000
1000
0000
,  // measure 32
0001
0000
0100
0000
1000
0000
0001
0010
0000
0010
1000
0000
0100
0000
0010
0000
,  // measure 33
0001
0000
0100
0000
0010
0000
1000
0000
0010
0100
0000
0100
1000
0000
0100
0000
,  // measure 34
0010
0000
0100
0000
0001
0000
0010
1000
0000
1000
0001
0000
0100
0000
1000
0000
,  // measure 35
0010
0100
1000
0100
0010
0100
0001
0010
,  // measure 36
0001
0010
0001
0010
0100
1000
0100
1000
0001
0100
0001
0100
0010
1000
0010
1000
,  // measure 37
0000
1001
0000
1001
,  // measure 38
0000
0010
1001
0010
0000
0110
0110
0000
,  // measure 39
0000
1001
0000
1001
,  // measure 40
0000
0000
0000
0000
0110
0000
0000
0010
0000
0000
1000
0100
0001
0000
0000
0000
,  // measure 41
0001
0000
0100
0000
1000
0000
0010
0001
0010
0000
1000
0000
0100
0000
0001
0100
,  // measure 42
1000
0000
0010
0000
0001
0000
0010
1000
0100
0000
0001
0000
0100
0000
1000
0000
,  // measure 43
0010
0001
0010
1000
0100
0001
0100
1000
,  // measure 44
0001
1000
0001
0000
1000
0001
1000
0000
0010
0100
0010
0100
0010
0100
0010
0000
,  // measure 45
1000
0000
0000
1000
0100
0000
0000
0100
0001
0000
0000
0001
0010
0000
0000
0010
,  // measure 46
1000
0000
0000
1000
0100
0000
0000
0100
0001
0000
0000
0001
0010
0000
0000
0010
,  // measure 47
1000
0000
0000
1000
0100
0000
0000
0100
0001
0000
0000
0001
0010
0000
0000
0010
,  // measure 48
1000
0000
0000
1000
0100
0000
0000
0100
0001
0000
0100
0010
0100
0000
0010
0000
,  // measure 49
0001
0000
0000
0001
0100
0000
0000
0100
1000
0000
0000
1000
0010
0000
0000
0010
,  // measure 50
0001
0000
0000
0001
0100
0000
0000
0100
1000
0000
0000
1000
0010
0000
0000
0010
,  // measure 51
0001
0000
0000
0001
0100
0000
0000
0100
1000
0000
0000
1000
0010
0000
0000
0010
,  // measure 52
0001
0000
0000
0001
0100
0000
0000
0100
1000
0000
0000
1000
0010
0000
0000
0010
,  // measure 53
0001
1000
0001
1000
0001
1000
0001
1000
0100
0000
1001
0000
0110
0000
1001
0000
,  // measure 54
1000
0010
0001
0010
0100
0001
0010
0100
,  // measure 55
0001
1000
0010
0100
1000
0010
0100
1000
,  // measure 56
0001
0010
0100
0001
0010
0100
0001
1000
,  // measure 57
0010
0000
0100
0000
1000
0000
0010
0000
0100
1000
0000
0000
0001
0000
0010
0000
,  // measure 58
0110
0100
0001
0010
0100
0001
0100
1000
,  // measure 59
0010
0001
0010
0100
0001
0010
1000
0001
,  // measure 60
0100
1000
0100
0010
0001
0100
0010
1000
,  // measure 61
0001
0100
1000
0001
0010
0100
0010
1000
,  // measure 62
0001
0000
0001
0000
1000
0100
1000
0000
0001
0010
0001
0000
0100
0000
0110
0000
,  // measure 63
2002
0000
0000
3003
0000
0000
0000
0000
;
