#TITLE:JET WORLD;
#SUBTITLE:;
#ARTIST:Mutsuhiko Izumi;
#TITLETRANSLIT:;
#SUBTITLETRANSLIT:;
#ARTISTTRANSLIT:;
#CREDIT:;
#BANNER:JET WORLD.png;
#BACKGROUND:JET WORLD-bg.png;
#LYRICSPATH:;
#CDTITLE:./CDTITLES/GUITARFREAKS & drummania.PNG;
#MUSIC:JET WORLD.mp3;
#OFFSET:-0.051;
#SAMPLESTART:10.440;
#SAMPLELENGTH:15.000;
#SELECTABLE:YES;
#DISPLAYBPM:138.000;
#BPMS:0.000=138.010;
#STOPS:;
#BGCHANGES:;

//---------------dance-single - ----------------
#NOTES:
     dance-single:
     :
     Easy:
     3:
     0.312,0.283,0.114,0.205,0.000:
0000
0000
0000
0000
,
0000
0000
0000
0000
,
1000
1000
1000
1000
,
0001
0001
0001
0001
,
1000
1000
1000
1000
,
0001
0001
0001
1001
,
0001
0100
1000
0100
,
0001
0010
1000
0100
,
0001
0100
1000
0100
,
0001
0010
1000
0100
,
0010
0010
0010
0010
,
0100
0100
0100
0100
,
0010
0010
0010
0010
,
0100
0100
0100
1001
,
0001
0100
1000
0100
,
0001
0010
1000
0100
,
0001
0100
1000
0100
,
0001
0010
1000
0100
,
2002
0000
0000
3003
,
0010
0010
0100
0100
,
2002
0000
0000
3003
,
0010
0100
0010
0100
,
0001
0010
1000
0100
,
0001
0010
1000
0100
,
0001
0010
1000
0100
,
0001
0010
1000
0100
,
2002
0000
0000
3003
,
0220
0000
0000
0330
,
1000
1000
1000
0100
,
0001
0001
0001
0100
,
1000
1000
1000
0100
,
0001
0002
0000
0003
,
0001
0010
1000
0100
,
0001
0010
1000
0100
,
0001
0010
1000
0100
,
0001
0010
1000
0100
,
2002
0000
0000
3003
,
0010
0010
0100
0100
,
2002
0000
0000
3003
,
0010
0100
0010
0100
,
0001
0100
0001
0100
,
0001
0100
0001
0100
,
1000
0100
1000
0100
,
1000
0100
1000
0100
,
2002
0000
0000
3003
,
0220
0000
0000
0330
,
1000
0100
0001
0100
,
1000
0100
0001
0100
,
1000
0100
0001
0100
,
1000
2000
0000
3000
;

//---------------dance-single - ----------------
#NOTES:
     dance-single:
     :
     Medium:
     5:
     0.394,0.422,0.102,0.046,0.000:
0000
0000
0000
0000
,
0000
0000
0000
0000
,
0010
1000
0100
0000
0010
0000
0100
0000
,
0010
0001
0100
0000
0010
0000
0100
0000
,
0010
1000
0100
0000
0010
0000
0100
0000
,
0010
0001
0100
0000
0010
0001
1000
0000
,
0001
0100
1000
0000
1000
0100
0001
0000
,
0010
0001
0010
0000
0100
1000
0001
0000
,
0001
0100
1000
0000
1000
0100
0001
0000
,
0010
0001
0010
0000
0100
1000
0001
0000
,
0100
1000
0001
0000
0100
0000
0100
0000
,
0100
0001
1000
0000
0100
0000
0100
0000
,
0100
1000
0001
0000
0100
0000
0100
0000
,
0100
0001
1000
0000
0100
0000
0100
0000
,
1000
0100
0001
0000
0001
0100
1000
0000
,
0010
0100
0001
0000
0001
0100
0010
0000
,
1000
0100
0001
0000
0001
0100
1000
0000
,
0010
0100
0001
0000
1000
0000
1100
0000
,
0002
0000
0100
0103
,
0010
0100
0001
0000
0001
0100
0010
0000
,
2000
0000
0100
3100
,
0001
0100
0001
0100
,
0001
0100
1000
0000
1000
0000
1000
0000
,
1000
0100
0001
0000
0001
0000
0001
0000
,
0001
0100
1000
0000
1000
0000
1000
0000
,
1000
0100
0001
0000
0001
0000
0001
0000
,
0110
0000
1001
0000
0100
1000
0001
0000
,
0101
0000
1100
0000
0010
0100
0001
0000
,
0100
1000
0100
1000
,
0100
0001
0100
0001
,
0100
1000
0100
1000
,
0100
0001
0100
1000
0000
0000
0000
0000
,
0100
0010
0100
0010
,
0100
0010
0100
0010
,
1000
0100
0001
0100
,
1000
0100
0001
0100
,
2000
0000
0100
3100
,
0010
0100
1000
0000
1000
0100
0010
0000
,
0002
0000
0100
0103
,
1000
0100
1000
0100
,
0001
1000
0100
0000
0100
0000
0100
0000
,
1000
0001
0100
0000
0100
0000
0100
0000
,
0001
1000
0100
0000
0100
0000
0100
0000
,
1000
0001
0100
0000
0001
1000
0100
0000
,
0110
0000
1001
0000
0100
1000
0001
0000
,
0101
0000
1100
0000
0010
0100
0001
0000
,
0010
0100
0010
0100
,
0010
0100
0010
0100
,
1000
0100
0001
0100
,
1000
0100
0001
0100
0000
0000
0000
0000
;

//---------------dance-single - ----------------
#NOTES:
     dance-single:
     :
     Hard:
     8:
     0.568,0.538,0.148,0.125,0.159: // measure 1
0000
0000
0000
0000
,  // measure 2
0000
0000
0000
0000
,  // measure 3
0010
1000
0100
0000
0010
0001
1000
0010
,  // measure 4
0100
0001
0010
0000
0100
1000
0001
0100
,  // measure 5
0010
1000
0100
0000
0010
0001
1000
0010
,  // measure 6
0100
0001
0010
0000
0100
1000
0001
0100
,  // measure 7
0001
0100
0100
0000
1000
0100
0100
0000
,  // measure 8
0010
1000
0100
1000
0001
0100
0010
0000
,  // measure 9
0210
0000
0010
0310
,  // measure 10
0001
0010
0100
1000
0010
0100
1000
0000
,  // measure 11
0100
0001
0010
0000
0100
0001
0100
1000
,  // measure 12
0010
1000
0100
0000
0010
1000
0010
0001
,  // measure 13
0100
0001
0010
0000
0100
0001
0100
1000
,  // measure 14
0010
1000
0100
0000
0010
1000
0010
0001
,  // measure 15
0100
0001
0100
0000
0010
1000
0010
0000
,  // measure 16
0100
0001
0100
0001
1000
0010
1000
0000
,  // measure 17
0210
0000
0010
0310
,  // measure 18
1000
0100
0010
0001
0010
0100
1000
0000
,  // measure 19
0210
0000
0010
0310
,  // measure 20
0100
0000
0001
0000
1000
0000
0100
1000
0000
0001
0100
0000
0010
0000
0100
0000
,  // measure 21
0210
0000
0010
0310
,  // measure 22
0001
0100
0001
0100
0000
0001
0100
0000
1000
0100
1000
0100
0000
1000
0100
0000
,  // measure 23
0001
0100
0001
0100
0001
0100
0001
0100
,  // measure 24
1000
0100
1000
0100
1000
0100
1000
0100
,  // measure 25
0001
0100
1000
0100
0001
0100
1000
0100
,  // measure 26
0001
0100
1000
0100
0001
0100
1000
0100
,  // measure 27
0210
0000
0010
0310
,  // measure 28
1010
0000
0101
0000
1000
0100
0001
0000
,  // measure 29
0001
0000
0100
0000
0001
0000
0100
0001
0000
0100
0001
0000
0100
0000
0001
0000
,  // measure 30
1000
0000
0100
0000
1000
0000
0100
1000
0000
0100
1000
0000
0100
0000
1000
0000
,  // measure 31
0100
0000
0010
0000
0100
0000
0010
0100
0000
0010
0100
0000
0010
0000
0100
0000
,  // measure 32
1000
0100
0001
0200
0000
0000
0300
0000
,  // measure 33
0010
1000
0010
1000
0010
1000
0010
1000
,  // measure 34
0001
0100
0001
0100
0001
0100
0001
0100
,  // measure 35
0010
1000
0001
0100
0010
1000
0001
0100
,  // measure 36
0210
0000
0010
0310
,  // measure 37
0210
0000
0010
0310
,  // measure 38
1000
0000
0001
0000
1000
0000
0001
0100
0000
1000
0100
0000
0010
0000
0100
0000
,  // measure 39
0210
0000
0010
0310
,  // measure 40
0001
0100
0001
0100
0000
0001
0100
0000
1000
0100
1000
0100
0000
1000
0100
0000
,  // measure 41
0001
1000
0001
1000
0001
1000
0001
1000
,  // measure 42
0010
0100
0010
0100
0010
0100
0010
0100
,  // measure 43
0001
1000
0001
1000
0010
0100
0010
0100
,  // measure 44
0001
1000
0010
0100
0001
1000
0010
0100
,  // measure 45
0210
0000
0010
0310
,  // measure 46
0101
0000
1100
0000
0001
0100
1000
0000
,  // measure 47
0001
0000
0100
0000
0001
0000
0100
0001
0000
0100
0001
0000
0100
0000
0001
0000
,  // measure 48
1000
0000
0100
0000
1000
0000
0100
1000
0000
0100
1000
0000
0100
0000
1000
0000
,  // measure 49
0100
0000
0010
0000
0100
0000
0010
0100
0000
0010
0100
0000
0010
0000
0100
0000
,  // measure 50
1000
0100
0001
0200
0000
0000
0300
0000
;

//---------------dance-double - ----------------
#NOTES:
     dance-double:
     :
     Easy:
     4:
     0.278,0.283,0.046,0.159,0.000:
00000000
00000000
00000000
00000000
,
00000000
00000000
00000000
00000000
,
00000010
00000100
00001000
00001000
,
00010000
00010000
01000000
00100000
,
00100000
01000000
00010000
00010000
,
00001000
00001000
00000100
00000010
,
00000000
00000001
00000000
00000100
,
00000000
00001000
00000000
00000100
,
00000000
00001000
00000000
00010000
,
00000000
01000000
00000000
10000000
,
10000000
00100000
01000000
00100000
,
00010000
00100000
01000000
00100000
,
01000000
00010000
00001000
00000100
,
00000100
00001000
00010000
01000000
,
00000000
10000000
00000000
01000000
,
00000000
00010000
00000000
01000000
,
00000000
00010000
00000000
00001000
,
00000000
00000100
00000000
00000100
,
00002000
00000000
00000100
00000100
,
00010000
00000000
00000100
00003000
,
00020000
00000000
01000000
01000000
,
00001000
00001000
00001000
00030000
,
01000000
10000000
01000000
00010000
,
00001000
00000100
00000001
00000100
,
00001000
00000100
00000001
00000100
,
00001000
00010000
01000000
10000000
,
02200000
00000000
00000000
03300000
,
20020000
00000000
00000000
30030000
,
10000000
10000000
01000000
01000000
,
00100000
00100000
00010000
00010000
,
00001000
00001000
00000100
00000100
,
00000010
00000020
00000000
00000030
,
00000001
00000100
00001000
00010000
,
01000000
10000000
01000000
00010000
,
01000000
10000000
01000000
00010000
,
00001000
00000100
00000001
00000100
,
00000200
00000000
00000010
00000310
,
00001000
00001000
00010000
00010000
,
02000000
00000000
00100000
03100000
,
00010000
00001000
00000100
00000001
,
00000001
00000100
00001000
00000100
,
00000100
00001000
00010000
00001000
,
00001000
00010000
01000000
00010000
,
00010000
01000000
10000000
01000000
,
02200000
00000000
00000000
03300000
,
20020000
00000000
00000000
30030000
,
10000000
10000000
01000000
01000000
,
00100000
00100000
00010000
00010000
,
00001000
00001000
00000100
00000100
,
00000010
00000020
00000000
00000030
;

//---------------dance-double - ----------------
#NOTES:
     dance-double:
     :
     Medium:
     6:
     0.425,0.422,0.342,0.057,0.000:
00000000
00000000
00000000
00000000
,
00000000
00000000
00000000
00000000
,
00100000
00001000
00010000
00000000
00000100
00000000
00000100
00000000
,
00000010
00010000
00001000
00000000
01000000
00000000
01000000
00000000
,
00100000
00001000
00010000
00000000
00000100
00000000
00000100
00000000
,
00000010
00010000
00001000
00000000
00100000
00001000
00010000
00000000
,
00001000
00000100
00000000
00000100
00000000
00000100
00000000
00000100
,
00000001
00000100
00001000
00000000
00010000
01000000
00010000
00000000
,
10000000
00010000
00000000
00010000
00000000
00010000
00000000
00010000
,
00100000
00001000
00010000
00000000
01000000
10000000
01000000
00000000
,
01100000
00000000
10000000
00000000
00010000
00001000
00000100
00000000
,
00000110
00000000
00000001
00000000
00001000
00010000
01000000
00000000
,
01100000
00000000
10000000
00000000
00010000
00001000
00000100
00000000
,
00000110
00000000
00000001
00000000
00000100
00001000
00010000
00000000
,
01000000
10000000
00000000
10000000
00000000
10000000
00000000
10000000
,
00100000
10000000
01000000
00000000
00100000
00010000
01000000
00000000
,
00100000
00010000
00000000
00010000
00000000
00010000
00000000
00010000
,
00001000
00000100
00001000
00000000
00000001
00000100
00000001
00000000
,
00000102
00000000
00001000
00001003
,
00000110
00000000
00001000
00000000
00010000
01000000
01100000
00000000
,
21000000
00000000
00010000
30010000
,
00100000
10000000
00100000
00000000
01000000
00010000
01000000
00000000
,
10000000
01000000
00010000
01000000
,
00010000
00000000
00001000
00000000
00000100
00000001
00000100
00000000
,
00001000
00000100
00000001
00000100
,
00000010
00000010
00000010
00000010
,
00000110
00001000
00010000
01100000
,
11000000
00000000
00010000
00000000
00001000
00000100
00000001
00000000
,
00000010
00001001
00000100
00001001
,
00000100
00000000
00001000
00000000
00010000
01000000
10000000
00000000
,
01000000
00010000
00001000
00000000
00000100
00001000
00010000
00000000
,
01000000
00010000
00001000
00000200
00000000
00000000
00000300
00000000
,
00000001
00000010
00000100
00000010
,
00001100
00010100
00001100
00000101
,
00001000
00000010
00000100
00000010
,
00000001
00000100
00001000
00010000
,
02000000
00000000
00100000
03100000
,
10000000
01000000
00010000
00000000
00001000
00000100
00000001
00000000
,
00000200
00000000
00000010
00000310
,
00000010
00010000
00001000
00000000
00000010
00010000
00001000
00000000
,
00001000
00000110
00001000
00000001
,
00000110
00001000
00010000
01100000
,
00010000
01100000
00010000
10000000
,
01100000
10010000
01100000
10010000
,
00110000
00000000
11000000
00000000
00010000
00001000
00000100
00000000
,
00000110
00000000
00001001
00000000
00001000
00000100
00000001
00000000
,
00001000
00000110
00000001
00000100
,
00000010
00000000
00000100
00000000
00001000
00010000
01000000
00000000
,
00100000
01000000
10000000
00000000
00100000
01000000
00010000
00000000
,
00100000
00001000
00010000
01000000
00000000
00000000
00000000
00000000
;

//---------------dance-double - ----------------
#NOTES:
     dance-double:
     :
     Hard:
     8:
     0.517,0.481,0.228,0.125,0.000:
00000000
00000000
00000000
00000000
,
00000000
00000000
00000000
00000000
,
00000001
00000100
00002000
00000000
00010000
00000000
00003010
00000000
,
00000001
00000010
00002000
00000000
00010000
00000000
00003100
00000000
,
00000001
00000100
00002000
00000000
00010000
00000000
00003010
00000000
,
00000001
00000010
00002000
00000000
00010000
00000000
00003100
00000000
,
00000101
00000000
00001010
00000000
00000010
00001000
00000100
00000000
,
00000010
00010000
00001000
00000000
00100000
00001000
00010000
00000000
,
00110000
00000000
11000000
00000000
00100000
00010000
01000000
00000000
,
10000000
01000000
00010000
00000000
00001000
00000100
00000001
00000000
,
00000010
00000100
00001000
00000000
00010000
01000000
10000000
01000000
,
00100000
01000000
00010000
00000000
00001000
00000100
00000001
00000100
,
00000010
00000100
00001000
00000000
00010000
01000000
10000000
01000000
,
00100000
01000000
00010000
00000000
00001000
00000100
00000001
00000000
,
00010010
00000000
00001010
00000000
00000001
00000100
00001000
00000000
,
00010000
01000000
00010000
00000000
10000000
01000000
10000000
00000000
,
00110000
00000000
11000000
00000000
00100000
00010000
00001000
00000000
,
00010000
00000010
00000100
00001000
00010000
01000000
00100000
00000000
,
00100000
00001000
00010000
00000000
00010010
00000000
00001010
00000000
,
00000010
00000001
00000010
00000100
00000010
00001000
00000010
00010000
,
00000100
00010000
00001000
00000000
01001000
00000000
01010000
00000000
,
10000000
01000000
10000000
00000000
10000000
01000000
10000000
00000000
,
00010000
01000000
10000000
01000000
00010000
01000000
00010000
00000000
,
00001000
00000100
00000001
00000100
00001000
00000100
00001000
00000000
,
00010000
01000000
10000000
01000000
00010000
01000000
00010000
00000000
,
00001000
00000100
00000001
00000100
00001000
00000100
00001000
00000000
,
00010000
01000000
10000000
00000000
00010000
01000000
10000000
00000000
,
11000000
00000000
01010000
00000000
10000000
01000000
00010000
00000000
,
00001000
00000100
00001000
00000000
00010000
01000000
00100000
01000000
,
00010000
01000000
00010000
00000000
00001000
00000100
00000010
00000100
,
00001000
00000100
00001000
00000000
00010000
01000000
00100000
01000000
,
00010000
01000000
00010000
02000000
00000000
00000000
03000000
00000000
,
00100000
01000000
00010000
01000000
00010000
00001000
00010000
00001000
,
00000100
00001000
00000100
00000010
00001000
00000100
00000001
00000000
,
00000001
00000100
00000010
00000100
00000010
00001000
00000010
00001000
,
00020000
00000000
01000000
01030000
,
02200000
00000000
00000000
03300000
,
10000000
01000000
00010000
00000000
00001000
00000100
00000001
00000100
,
00000220
00000000
00000000
00000330
,
00000100
00001000
00010000
00000000
00010000
00001000
00000100
00000000
,
00000001
00000010
00000001
00000010
00001000
00010000
00001000
00010000
,
00100000
01000000
00100000
01000000
00010000
10000000
00010000
10000000
,
00010000
10000000
00010000
10000000
00100000
01000000
00100000
01000000
,
00001000
00010000
00001000
00010000
00001000
00001000
00001000
00000000
,
00010010
00000000
00001010
00000000
00000001
00000100
00001000
00000000
,
01001000
00000000
01010000
00000000
00100000
10000000
01000000
00000000
,
00100000
00010000
01000000
00000000
00100000
00010000
00001000
00000010
,
00000100
00001000
00000010
00000000
00000100
00001000
00010000
01000000
,
00100000
00010000
01000000
00000000
00100000
00010000
00001000
00000010
,
00000100
00001000
00000100
00000002
00000000
00000000
00000003
00000000
;

//---------------dance-single - ----------------
#NOTES:
     dance-single:
     :
     Beginner:
     1:
     0.216,0.364,0.159,0.000,0.000:
0000
0000
0000
0000
,
0000
0000
0000
0000
,
0010
0000
0010
0000
,
0100
0000
0100
0000
,
0010
0000
0010
0000
,
0100
0000
0100
0000
,
0001
0000
1000
0000
,
0010
0010
0010
0000
,
0100
0000
0100
0100
,
0000
0010
0000
0010
,
0010
0000
0010
0000
,
0100
0000
0100
0000
,
0010
0000
0010
0000
,
0100
0000
0100
0000
,
0001
0000
1000
0000
,
0010
0010
0010
0000
,
0100
0000
0100
0000
,
0010
0010
0010
0010
,
0010
0000
1001
1001
,
0000
0100
0000
0010
,
0010
0000
1001
1001
,
0000
0100
0000
0100
,
0100
0100
0100
0000
,
0010
0010
0010
0000
,
0100
0000
0010
0000
,
0100
0000
0010
0000
,
1001
0000
0010
0010
,
0010
0000
1000
0000
,
0001
0001
0000
1000
,
1000
1000
0000
0001
,
0001
0001
0000
1000
,
1000
1000
0000
0000
,
0100
0100
0100
0000
,
0010
0010
0010
0000
,
0100
0100
0100
0000
,
0010
0010
0010
0000
,
1001
0000
1000
1000
,
0000
0001
0000
1001
,
1001
0000
0100
0100
,
0100
0100
0100
0000
,
0001
0001
0001
0000
,
0010
0010
0010
0000
,
1000
1000
1000
0000
,
0110
0110
0110
0110
,
0110
0000
0000
0000
,
1001
0000
0000
0000
,
0001
0000
0100
0000
,
1000
0000
0100
0000
,
0001
0000
0100
0000
,
1000
1000
0000
0000
;

//---------------dance-single - ----------------
#NOTES:
     dance-single:
     :
     Challenge:
     9:
     0.712,0.766,0.217,0.285,0.656:
0000
0000
0000
0000
,
1000
0000
0000
0000
1000
0000
0000
0000
1000
0000
0000
0000
0001
0100
0001
0100
,
0002
0000
0000
2003
0000
0000
3200
0000
,
0320
0000
0000
0032
0000
0000
0203
0000
,
0320
0000
0000
2030
0000
0000
3002
0000
,
0203
0000
0000
0320
0000
1000
1030
0000
,
0001
0100
0000
0001
0001
2000
0000
0000
,
3001
0000
0010
0000
0001
0000
0100
0000
0010
0000
1000
0001
0000
0000
0000
0000
,
2200
0000
0000
0000
3300
0000
0000
0000
1000
0100
1000
0100
1000
0100
1000
0100
,
1000
0001
0100
0010
1000
0001
0100
0000
,
0001
0000
0000
0000
0000
0000
1001
0000
0000
0000
0000
1000
0100
0000
0000
0000
,
0110
0000
0000
0000
0000
0000
0011
0000
0000
0000
0000
0100
0001
0000
1000
0000
,
1100
0000
0000
0000
0000
0000
1010
0000
0000
0000
0000
0100
0001
0000
0000
0000
,
1001
0000
0000
0011
0000
1000
1000
0000
,
0010
0100
0000
0001
0001
2000
0000
0000
,
3001
0000
0100
0000
0001
0000
1000
0000
0100
0000
0010
0001
0000
0000
0000
0000
,
0022
0000
0000
0000
0033
0000
0000
0000
0001
0010
0001
0010
0001
0010
0001
0010
,
0100
1000
0100
1000
0010
1000
0010
0100
0001
0000
1000
0001
0000
0000
0000
0000
,
0201
0000
0010
0310
,
1000
0000
0100
0000
1000
0000
0001
0100
0000
0001
1000
0000
0100
0000
0010
0000
,
0012
0000
1000
1003
,
0001
0100
0001
0100
0000
0001
0100
0000
1000
0100
1000
0100
0000
1000
0100
0000
,
0001
0010
0000
0010
0100
0000
0100
1000
0000
1000
0001
0000
0100
0000
0010
0000
,
1000
0001
1000
0100
1000
0001
1000
0100
1000
0001
1000
0001
0100
0001
0100
0010
,
1000
0100
0000
0010
0001
0000
0100
0001
0000
1000
0010
0000
0100
0000
1000
0000
,
0100
1000
0100
1000
0100
1000
0100
1000
0100
0010
0100
0010
1000
0001
0100
0000
,
0001
1000
0001
1000
0001
0010
0001
0010
0001
0000
0010
0000
0100
0000
0000
0000
,
0110
0000
0110
0000
0010
0100
1000
0000
,
0001
0000
0100
0000
0001
0000
0100
0001
0000
0100
0001
0000
1000
0000
0010
0000
,
0100
0000
0001
0000
0100
0000
0001
0100
0000
0001
0100
0001
1000
0000
0100
0000
,
0010
0000
0001
0000
0100
0000
0001
0100
0000
0001
0100
0000
1000
0000
0010
0000
,
1000
0000
0100
0000
0001
0000
0100
0000
0010
0100
0010
0100
0010
0100
0010
0100
,
0001
1000
0001
1000
0100
0010
0100
0010
0001
0000
0100
0000
0010
0000
1000
0000
,
0001
0100
0001
0100
0001
1000
0001
1000
0010
0000
0200
0000
0000
0000
0300
0000
,
0001
0100
0001
0100
0001
1000
0100
0010
0001
0000
0100
0000
0001
0000
1000
0000
,
0120
0000
0000
0000
0000
0000
0000
0000
1030
0100
1000
0100
0000
1000
0001
0000
,
0210
0000
0010
0310
,
0010
0000
0001
0000
0100
0000
0001
1000
0000
0100
1000
0000
0001
0000
0100
0000
,
2001
0000
0010
3010
,
0010
1000
0010
1000
0000
0001
1000
0000
0100
1000
0100
1000
0000
0001
1000
0000
,
0001
0000
0010
0000
0100
0000
1000
0000
0001
0000
0100
1000
0100
0001
1000
0000
,
0100
0000
0010
0000
0100
0000
1000
0000
0001
0000
0100
0001
1000
0100
0010
0000
,
0001
0000
0100
0000
1000
0000
0100
0000
0001
0000
0010
1000
0010
0001
0100
0000
,
0001
0010
0001
0100
0001
0010
0001
1000
0100
1000
0001
1000
0100
1000
0100
1000
,
0001
0100
0001
0100
0001
1000
0001
1000
0010
0000
0010
0000
0100
0000
0000
0000
,
0011
0000
0011
0000
1010
0100
0001
0000
,
1000
0000
0010
0000
0100
0000
0001
1000
0000
0001
1000
0001
0010
0000
0010
0000
,
0100
0000
1000
0000
0001
0000
0100
0001
0000
1000
0010
0100
0002
0000
0000
0000
,
1003
0000
0010
0000
0100
0000
0001
1000
0000
0001
1000
0000
0010
0000
0010
0000
,
1000
1000
0100
0002
0000
0000
0003
0000
;
