#TITLE:INFINITE PRAYER;
#SUBTITLE:;
#ARTIST:L.E.D.Light feat. Goro;
#TITLETRANSLIT:;
#SUBTITLETRANSLIT:;
#ARTISTTRANSLIT:;
#CREDIT:;
#BANNER:INFINITE PRAYER.png;
#BACKGROUND:INFINITE PRAYER-bg.png;
#LYRICSPATH:;
#CDTITLE:./CDTITLES/BeatmaniaIIDX.PNG;
#MUSIC:INFINITE PRAYER.ogg;
#OFFSET:0.000;
#SAMPLESTART:33.230;
#SAMPLELENGTH:15.000;
#SELECTABLE:YES;
#BPMS:0.000=137.000;
#STOPS:;
#BGCHANGES:3.750=INFINITE PRAYER.avi=1.000=1=0=0,
267.000=INFINITE PRAYER-bg.png=1.000=0=0=1,
99999=-nosongbg-=1.000=0=0=0 // don't automatically add -songbackground-
;

//---------------dance-single - ----------------
#NOTES:
     dance-single:
     :
     Beginner:
     1:
     0.170,0.222,0.076,0.000,0.000:
0000
0000
0000
0000
,
0000
0000
0000
0000
,
0000
0000
0000
0000
,
0000
0000
0000
0000
,
0000
0000
0000
0000
,
0000
0000
0000
0000
,
0000
0000
0000
0000
,
0001
0000
0001
0000
,
1000
0000
0100
0000
,
0010
0000
0010
0000
,
0001
0000
1000
0000
,
1000
0000
1000
0000
,
0001
0000
0100
0000
,
0010
0000
0010
0000
,
1000
0000
0001
0000
,
0001
0001
0001
0000
,
1000
0000
0100
0000
,
0010
0010
0010
0000
,
1001
0000
0000
0000
,
0010
0010
0000
0000
,
0100
0100
0000
0000
,
0010
0010
0000
0000
,
1001
0000
0000
0000
,
0010
0010
0010
0000
,
0100
0100
0100
0000
,
0010
0010
0010
0000
,
1001
0000
0000
0000
,
0001
0001
0000
0000
,
1000
1000
0000
0000
,
0001
0001
0000
0000
,
0110
0000
0000
0000
,
0001
0001
0001
0000
,
1000
1000
1000
0000
,
0001
0001
0001
0000
,
0110
0000
0000
0000
,
0001
0001
0001
0000
,
0100
0100
0100
0000
,
0001
0001
0001
0000
,
0100
0100
0100
0000
,
1000
1000
1000
0000
,
0010
0010
0010
0000
,
1000
1000
1000
0000
,
0010
0010
0010
0000
,
1000
0000
1000
0000
,
0001
0000
0100
0000
,
0010
0000
0010
0000
,
1000
0000
0001
0000
,
0001
0000
0001
0000
,
1000
0000
0100
0000
,
0010
0000
0010
0000
,
0001
0000
1000
0000
,
0010
0010
0000
0000
,
0100
0100
0000
0000
,
0010
0010
0000
0000
,
1001
0000
0000
0000
,
0010
0010
0010
0000
,
0100
0100
0100
0000
,
0010
0010
0010
0000
,
1001
0000
0000
0000
,
0001
0001
0000
0000
,
1000
1000
0000
0000
,
0001
0001
0000
0000
,
0110
0000
0000
0000
,
0001
0001
0001
0000
,
1000
1000
1000
0000
,
0001
0001
0001
0000
,
0110
0000
0000
0000
;

//---------------dance-single - ----------------
#NOTES:
     dance-single:
     :
     Easy:
     2:
     0.185,0.248,0.025,0.042,0.004:
0000
0000
0000
0000
,
0000
0000
0000
0000
,
0000
0000
0000
0000
,
0000
0000
0000
0000
,
0000
0000
0000
0000
,
0000
0000
0000
0000
,
0000
0000
0000
0000
,
1000
0000
0000
0000
,
0001
0000
0000
0000
,
1000
0000
0000
0000
,
0001
0000
0000
0000
,
1000
0000
0100
0000
,
0010
0000
0001
0000
,
1000
0000
0100
0000
,
0010
0000
0001
0000
,
0001
0000
0010
0000
,
0100
0000
1000
0000
,
0001
0000
0010
0000
,
0020
0000
0000
0030
,
0001
0100
0010
0100
,
0000
0010
0100
0010
,
0110
0001
0000
1000
,
0001
1000
0001
1000
,
0010
0000
1000
0010
,
1000
0010
1000
0010
,
0100
0000
0001
0200
,
0000
0000
0000
0300
,
0001
0100
0100
0100
,
0010
0010
0100
0010
,
1000
0100
0010
0100
,
0200
0000
0310
0000
,
1001
0100
0010
0100
,
0010
0100
0010
0100
,
1000
0001
0010
0002
,
0000
0000
0000
0003
,
0100
0100
0010
0010
,
0000
0100
0010
0010
,
0000
0100
0001
0001
,
0000
0100
0001
0001
,
0010
0100
1000
0100
,
0100
0000
0010
0000
,
0100
0000
0010
0000
,
0100
0000
0000
0000
0010
0000
0000
0000
0100
0000
0000
0100
0000
0000
0000
0000
,
0100
0000
0000
0000
,
0000
0000
0000
0000
,
0100
0000
0010
0100
,
0100
0000
0000
0000
,
0100
0000
0000
0000
,
0010
0000
0000
0000
,
0100
0000
0000
0000
,
0000
0000
0000
0000
,
1001
0000
0000
0000
0000
0000
0000
0100
,
0100
0000
0000
0000
0000
0000
0000
0010
,
0010
0000
0000
0000
,
0001
0010
0100
0010
,
0100
0000
1000
0010
,
1000
0010
1000
0010
,
1000
0000
0001
0200
,
0000
0000
0000
0300
,
0001
0100
0010
0100
,
0010
0000
0010
0100
,
0100
0001
1000
0001
,
1000
0001
1000
0001
,
0010
0000
0001
0010
,
0100
1000
0100
0010
,
0001
0000
1000
0100
;

//---------------dance-single - ----------------
#NOTES:
     dance-single:
     :
     Medium:
     6:
     0.302,0.360,0.126,0.302,0.008:
0000
0000
0000
0000
,
0000
0000
0000
0000
,
0000
0000
0000
0000
,
0000
0000
0000
0000
,
0000
0000
0000
0000
,
0000
0000
0000
0000
,
0000
0000
0000
0000
,
2000
0000
0000
0000
,
3200
0000
0000
0000
,
0320
0000
0000
0000
,
0032
0000
0000
0000
,
1003
0000
2000
0000
,
3100
0000
0002
0000
,
0103
0000
0200
0000
,
0310
0000
0020
0000
,
0130
0000
1000
0100
,
0010
0001
0010
0100
,
1000
0100
0010
0001
,
0020
0000
0000
0030
,
1001
0010
0100
0001
,
0100
0010
1000
0100
,
0110
1000
0010
0100
,
0011
0001
0100
0010
,
1010
0000
1000
0010
,
0100
0001
1000
0010
,
1010
0000
0002
0100
,
0000
0000
0000
0003
,
0101
0100
0010
1000
,
0010
0010
0100
0010
,
1100
0100
0010
0100
,
1000
0010
1000
0001
,
1001
2000
3100
0002
,
0103
2000
3100
0002
,
0103
1000
0010
2002
,
0000
0000
0000
3003
,
1000
0100
0010
0001
,
1000
0100
0010
0001
,
0001
0100
0010
1000
,
0001
0100
0010
1000
,
1010
0100
0012
0100
,
0100
0000
1000
0003
,
1000
0000
0001
0000
,
0010
0000
0000
0000
0100
0000
0000
0000
1000
0000
0000
0100
0000
0010
0000
0000
,
0002
0000
0003
2000
,
0002
3000
0203
0000
,
0302
0000
0023
0100
,
0100
0000
0000
0030
,
2000
3100
0002
0103
,
0020
1030
0200
0301
,
2000
3100
0002
0103
,
0020
1030
0200
0301
,
2002
0000
0000
0000
3003
0000
0000
0100
,
0100
0000
1000
0000
0001
0000
0000
0010
,
0010
0000
0001
0000
1000
0000
0000
0001
,
0001
0000
0010
0000
0100
0000
1000
0100
,
0100
0000
1000
0100
,
0010
0001
1000
0010
,
0201
0000
0301
1000
,
2002
0000
0000
3003
,
1000
0100
0010
0001
1000
0010
0100
0001
,
0010
0100
1000
0100
,
0010
0100
1000
0001
0010
0001
1000
0100
,
1000
0100
0010
0001
,
0001
0100
0010
1000
0001
0010
0100
1000
,
0010
0100
0001
0100
,
0010
0100
0001
1000
0100
0010
0001
0000
,
1100
0000
0000
0000
;

//---------------dance-single - ----------------
#NOTES:
     dance-single:
     :
     Hard:
     7:
     0.404,0.582,0.067,0.168,0.206:
0000
0000
0000
0000
,
0000
0000
0000
0000
,
0000
0000
0000
0000
,
0000
0000
0000
0000
,
0000
0000
0000
0000
,
0000
0000
0000
0000
,
0000
0000
0000
0000
,
1000
0100
0010
0001
1000
0100
0010
0001
,
1000
0001
0100
0010
1000
0001
0010
0100
,
1000
0001
0010
0100
1000
0001
1000
0001
,
2000
0001
0001
0001
0001
0001
3001
1000
,
0001
0000
0000
0100
0100
0001
1000
0000
,
0100
0000
0000
0000
1000
1000
0010
0100
,
0001
0000
0000
0000
0100
0100
0001
1000
,
0100
0000
0100
0000
1000
0000
0010
0010
,
1000
0000
0000
0001
0000
0000
0000
0000
0010
0000
0000
0001
0000
0000
0000
0000
,
0010
0000
0000
0010
0000
0000
0000
0000
0100
0000
0000
0100
0000
0000
0000
0000
,
1000
0000
0000
1000
0000
0000
0000
0000
0010
0000
0000
0010
0000
0000
0000
0000
,
0020
1000
1000
0000
1000
0000
0030
0000
,
0001
0000
0100
0000
0100
0000
0000
0000
0010
0000
0000
0010
0000
0000
0000
0000
,
0010
0000
0100
0000
0100
0000
0000
0000
0010
0000
0000
0010
0000
0000
1000
0000
,
0000
0000
0100
0000
1000
0000
0000
0010
0000
0000
0000
0000
1000
0000
0100
0000
,
0100
2000
3001
1000
,
0001
0000
0100
0000
0100
0000
0000
0000
0010
0000
0000
0010
0000
0000
0000
0000
,
0010
0000
0100
0000
0100
0000
0000
0000
0010
0000
0000
0010
0000
0000
0000
0000
,
0100
0000
0000
0000
0001
0000
0000
0010
0000
0000
0000
0000
0100
0000
0000
0000
,
2200
0000
0000
3300
,
1000
0000
0000
0100
0010
0000
0000
0000
0000
0000
0100
0000
0000
0000
0000
0000
,
1000
0000
0000
0000
0010
0000
0000
0010
0000
0000
0100
0000
0010
0000
0000
0000
,
1010
0000
0000
0010
0100
0000
0000
0000
0010
0000
0000
0100
0000
0000
0010
0000
,
0100
0000
0000
0000
0101
0000
0000
0100
0010
0000
0000
1000
0000
0000
0100
0000
,
1000
0000
0000
0010
0100
0000
0000
0000
0010
0000
0000
0010
0000
0000
0000
0000
,
0010
0000
0000
1000
0100
0000
0000
0000
0010
0000
0000
0001
0000
0000
0000
0000
,
1100
0000
0000
1000
0100
0000
0000
0010
0000
0000
0000
0001
0000
0000
0000
0000
,
0020
0000
0000
0030
,
0100
0000
0000
1000
0100
0000
0000
0000
0010
0000
0000
0000
0010
0000
0000
1000
,
0100
0000
0000
1000
0100
0000
0000
0010
0001
0000
0000
0010
0001
0000
0000
0000
,
0100
0000
0000
0001
0100
0000
0000
0001
0100
0000
0000
0000
0001
0000
0000
1000
,
0100
0000
0000
0000
0010
0000
0000
0000
0001
0000
0000
0010
0001
0000
0000
1000
,
0010
0000
0000
0000
1000
0000
0000
0000
1010
0000
0000
0100
0010
0000
0000
0100
,
0010
0000
0000
0000
0100
0000
0000
0010
0100
0000
0000
0000
0101
0000
0000
0010
,
0200
0000
0000
0000
0001
0000
0000
0000
0010
0000
0000
0000
0000
0000
0000
0010
,
0000
0010
0300
0000
,
0100
1000
1000
1000
0100
0010
0010
0010
,
0001
0100
0010
1000
0001
0100
0001
0001
,
0001
0100
0010
1000
0001
1000
0100
0010
,
0001
0010
0100
1000
0100
0010
0001
0000
,
2000
0100
3100
0020
0001
0031
1000
0001
,
0020
0100
0130
2000
0001
3001
1000
0001
,
2000
0100
3100
0020
0001
0031
1000
0001
,
0020
0100
0130
2000
0001
3001
0200
0010
,
0310
0000
0000
0100
0100
0000
0000
0000
,
0200
0000
0000
0000
0001
0001
0300
0000
,
2000
0000
0000
0000
0100
0100
3000
0000
,
0100
0000
0100
0000
1000
0000
0010
0010
,
1000
0000
0000
1000
0000
0000
0000
0000
0100
0000
0000
0000
0010
0000
0000
0000
,
0001
0000
0000
0001
0000
0000
0000
0000
1000
0000
0000
1000
0000
0000
0000
0000
,
0101
0000
0002
0200
,
0000
0000
0000
0303
,
0001
0000
0100
0000
0100
0000
0000
0000
0010
0000
0000
0010
0000
0000
0000
0000
,
0010
0000
0100
0000
0100
0000
0000
0000
0010
0000
0000
0010
0000
0000
0100
0000
,
0000
0000
0100
0000
0001
0000
0000
0010
0000
0000
0000
0000
0100
0000
1000
0000
,
0001
0010
0100
1000
0001
0100
0010
0000
,
1000
0000
0100
0000
0100
0000
0000
0000
0010
0000
0000
0010
0000
0000
0000
0000
,
0001
0000
0100
0000
0100
0000
0000
0000
0010
0000
0000
0010
0000
0000
0000
0000
,
0100
0000
0000
0000
0001
0000
0000
0010
0000
0000
0000
0000
0100
0000
0000
0000
,
1100
0000
0000
0000
;

//---------------dance-single - ----------------
#NOTES:
     dance-single:
     :
     Challenge:
     9:
     0.596,0.589,0.244,0.151,0.185:
0000
0000
0000
0000
,
0000
0000
0000
0000
,
0000
0000
0000
0000
,
0001
0100
0010
1000
0001
0100
0010
1000
,
0001
1000
0100
0010
0001
1000
0010
0100
,
0001
0100
0100
0001
0010
0010
0001
1000
,
1000
0001
0100
0100
0100
0001
0010
0100
,
1000
0100
0010
0001
1000
0100
0010
0001
,
1000
0001
0100
0010
1000
0001
0010
0100
,
1000
0100
0100
0010
0100
0100
1000
0001
,
0001
0010
0100
0100
0010
0001
0010
1000
,
0001
0100
0010
1000
0001
0100
0010
1000
,
0001
1000
0100
0010
0001
1000
0010
0100
,
0001
0100
0100
0001
0010
0010
0001
1000
,
1000
0001
0100
0100
0100
0001
0010
0100
,
1000
0100
0010
0001
1000
0100
0010
0001
,
1000
0001
0100
0010
1000
0001
0010
0100
,
1000
0100
0100
0010
0100
0100
1000
0001
,
1001
0000
0000
1100
0000
0000
0101
0000
0000
0001
1000
0001
0100
0000
0010
0100
,
0001
0000
0000
0001
0100
0000
0000
0100
0010
0000
1000
0000
0001
0000
0100
0000
,
0010
0000
0000
0010
1000
0000
0000
1000
0001
0000
1000
0000
0100
0000
1000
0000
,
1000
0000
0000
1000
0010
0000
0000
0010
0100
0000
0001
0000
1000
0000
0010
0000
,
0100
0000
0000
0100
0001
0000
0000
0001
1000
0000
0001
0000
0010
0000
0001
0000
,
1000
0000
0000
1000
0100
0000
0000
0100
0010
0000
0001
0000
1000
0000
0100
0000
,
0010
0000
0000
0010
0001
0000
0000
0001
1000
0000
0001
0000
0100
0000
0001
0000
,
0001
0000
0000
0001
0010
0000
0000
0010
0100
0000
1000
0000
0001
0000
0000
0000
,
2200
0000
0000
3300
,
1100
0000
0000
1000
0100
0000
0000
0100
0010
0000
0001
0000
1000
0000
0100
0000
,
0010
0000
0000
0010
0001
0000
0000
0001
1000
0000
0001
0000
0100
0000
0001
0000
,
0001
0000
0000
0001
0010
0000
0000
0010
0100
0000
1000
0000
0001
0000
0010
0000
,
0100
0000
0000
0100
1000
0000
0000
1000
0001
0000
1000
0000
0010
0000
1000
0000
,
0101
0000
0000
0001
0100
0000
0000
0100
0010
0000
1000
0000
0001
0000
0100
0000
,
0010
0000
0000
0010
1000
0000
0000
1000
0001
0000
1000
0000
0100
0000
1000
0000
,
1010
0000
0000
1000
0010
0000
0000
0010
0100
0000
0010
0000
0110
0000
0000
0000
,
0000
0000
0000
0000
,
0010
0000
1100
0000
0010
0001
0100
0000
,
0001
1000
0100
0000
1000
0001
0100
0000
,
0100
0000
1010
0000
1000
0001
0100
0000
,
0001
1000
0001
0000
1000
0010
0100
0000
,
0010
0000
0101
0000
0010
1000
0100
0000
,
1000
0001
0100
0000
0001
1000
0100
0000
,
1100
0010
0101
0100
,
1100
0011
0110
1001
,
0001
0100
0010
1000
0001
0100
0010
1000
,
0001
1000
0100
0010
0001
1000
0010
0100
,
0002
0100
0103
0002
0010
0013
0002
1000
,
1003
0002
0100
0100
0103
0001
0010
0100
,
1000
0100
0010
0001
1000
0100
0010
0001
,
1000
0001
0100
0010
1000
0001
0010
0100
,
2000
0100
3100
0020
0100
0130
2000
0001
,
3001
0020
0100
0130
0010
1000
0010
1000
,
1000
0100
0010
0001
1000
0100
0010
0001
,
1000
0001
0100
0010
1000
0001
0010
0100
,
2000
0100
3100
2000
0010
3010
2000
0001
,
3001
2000
0100
0100
3100
1000
0010
0100
,
0001
0100
0010
1000
0001
0100
0010
1000
,
0001
1000
0100
0010
0001
1000
0010
0000
,
1001
0110
0101
1100
,
0202
0000
0000
0303
,
0001
0000
0000
0001
0100
0000
0000
0100
0010
0000
1000
0000
0001
0000
0100
0000
,
0010
0000
0000
0010
1000
0000
0000
1000
0001
0000
1000
0000
0100
0000
1000
0000
,
1000
0000
0000
1000
0010
0000
0000
0010
0100
0000
0001
0000
1000
0000
0010
0000
,
0100
0000
0000
0100
0001
0000
0000
0001
1000
0000
0001
0000
0010
0000
0001
0000
,
1100
0000
0000
1000
0100
0000
0000
0100
0010
0000
0001
0000
1000
0000
0100
0000
,
0110
0000
0000
0010
0001
0000
0000
0001
1000
0000
0001
0000
0100
0000
0001
0000
,
1001
0110
1100
0011
,
2200
0000
0000
3300
;

//---------------dance-double - ----------------
#NOTES:
     dance-double:
     :
     Beginner:
     1:
     0.118,0.165,0.017,0.000,0.000:
00000000
00000000
00000000
00000000
,
00000000
00000000
00000000
00000000
,
00000000
00000000
00000000
00000000
,
00000000
00000000
00000000
00000000
,
00000000
00000000
00000000
00000000
,
00000000
00000000
00000000
00000000
,
00000000
00000000
00000000
00000000
,
00001000
00000000
00000000
00000000
,
00010000
00000000
00000000
00000000
,
00001000
00000000
00000000
00000000
,
00010000
00000000
00000000
00000000
,
00100000
00000000
10000000
00000000
,
00010000
00000000
01000000
00000000
,
00100000
00000000
10000000
00000000
,
00010000
00000000
01000000
00000000
,
00010000
00000000
00100000
00000000
,
01000000
00000000
00010000
00000000
,
00001000
00000000
00010000
00000000
,
00010000
00000000
00000000
00000000
,
00001000
00000000
00000100
00000000
,
00000000
00000010
00000000
00000010
,
00000000
00001000
00000000
00000001
,
00000000
00000001
00000000
00000001
,
00000000
00000000
00001000
00000000
,
00001000
00000000
00001000
00000000
,
00000100
00000000
00000010
00000000
,
00000000
00000000
00000000
00000000
,
00001000
00000000
00010000
00010000
,
00000000
00001000
00000000
00001000
,
00000000
00100000
00000000
00010000
,
00010000
00000000
00100000
00000000
,
10010000
00000000
00100000
00000000
,
00100000
00000000
00100000
00000000
,
01000000
00000000
00010000
00000000
,
00000000
00000000
00000000
00000000
,
00100000
00100000
00000000
00001000
,
00000000
00010000
00000000
00001000
,
00000000
00000100
00000000
00000010
,
00000000
00000100
00000000
00000001
,
00000000
00001000
00000000
00000010
,
00000010
00000000
00001000
00000000
,
00000100
00000000
00010000
00000000
,
00001000
00000000
00001000
00000000
,
00001000
00000000
00000000
00000000
,
00000000
00000000
00000000
00000000
,
00100000
00000000
00010000
00000000
,
01000000
00000000
00000000
00000000
,
00100000
00000000
00000000
00000000
,
10000000
00000000
00000000
00000000
,
01000000
00000000
00000000
00000000
,
00000000
00000000
00000000
00000000
,
00011000
00000000
00000000
00000000
,
00000100
00000000
00000000
00000001
,
00000000
00000000
00000000
00000010
,
00000000
00000000
00001000
00000000
,
00001000
00000000
00010000
00000000
,
00010000
00000000
00010000
00000000
,
00010000
00000000
00100000
00000000
,
00000000
00000000
00000000
00000000
,
00010000
00000000
00100000
00000000
,
00100000
00000000
00100000
00000000
,
01000000
00000000
10000000
00000000
,
10000000
00000000
10000000
00000000
,
00100000
00000000
00010000
00000000
,
01000000
00000000
01000000
00000000
,
00010000
00000000
10000000
00000000
;

//---------------dance-double - ----------------
#NOTES:
     dance-double:
     :
     Easy:
     2:
     0.175,0.221,0.025,0.000,0.004:
00000000
00000000
00000000
00000000
,
00000000
00000000
00000000
00000000
,
00000000
00000000
00000000
00000000
,
00000000
00000000
00000000
00000000
,
00000000
00000000
00000000
00000000
,
00000000
00000000
00000000
00000000
,
00000000
00000000
00000000
00000000
,
10000000
00000000
00000000
00000000
,
00010000
00000000
00000000
00000000
,
01000000
00000000
00000000
00000000
,
00001000
00000000
00000000
00000000
,
00010000
00000000
00000100
00000000
,
00001000
00000000
00000001
00000000
,
00001000
00000000
00000100
00000000
,
00000010
00000000
00000100
00000000
,
00010000
00000000
00001000
00000000
,
00100000
00000000
01000000
00000000
,
10000000
00000000
00100000
00000000
,
00100000
00000000
00000000
00000000
,
01000000
00001000
00010000
00000100
,
00000010
00000100
00000010
00000100
,
00000100
00001000
00000001
00000000
,
00000010
00000100
00000000
00010000
,
00001000
00000000
01000000
00100000
,
10000000
00100000
10000000
00100000
,
01000000
00000000
00001000
00010000
,
00000000
00000000
00000000
00000000
,
00000010
00000100
00000100
00000000
,
00000010
00000010
00000100
00000000
,
00000001
00000100
00000010
00000100
,
00000100
00000010
00000010
00000000
,
00010000
00001000
00100000
01000000
,
00100000
01000000
00100000
01000000
,
10000000
10000000
00100000
01000000
,
00000000
00000000
00000000
00000000
,
00001000
00010000
00000010
00000100
,
00000010
00000100
00000010
00000000
,
00000100
00000100
00000001
00000001
,
00000100
00000000
00000010
00000000
,
00010000
00001000
00100000
01000000
,
01000000
00000000
00100000
00000000
,
00001000
00000000
00010000
00000000
,
00000100
00000000
00000000
00000000
00000010
00000000
00000000
00000000
00000100
00000000
00000000
00000100
00000000
00000000
00000000
00000000
,
00010000
00000000
00000000
00000000
,
00000000
00000000
00000000
00000000
,
00001000
00000000
00100000
01000000
,
01000000
00000000
00000000
00000000
,
00001000
00000000
00000000
00000000
,
00010000
00000000
00000000
00000000
,
00000100
00000000
00000000
00000000
,
00000000
00000000
00000000
00000000
,
00011000
00000000
00000000
00000000
00000000
00000000
00000000
01000000
,
01000000
00000000
00000000
00000000
00000000
00000000
00000000
00100000
,
00100000
00000000
00000000
00000000
,
10000000
00100000
01000000
00100000
,
01000000
00000000
00001000
00010000
,
00000100
00000010
00000001
00000010
,
00000001
00000000
00000010
00000100
,
00000000
00010000
00000000
00000000
,
00011000
00000000
01000000
00100000
,
01000000
00100000
01000000
00000000
,
01100000
00000000
00001000
00010000
,
00000010
00001000
00000001
00001000
,
00000010
00000000
00000100
00000010
,
00001000
00000000
00000100
00010000
,
00001000
00000000
00100000
01000000
;

//---------------dance-double - ----------------
#NOTES:
     dance-double:
     :
     Medium:
     6:
     0.302,0.360,0.126,0.302,0.008:
00000000
00000000
00000000
00000000
,
00000000
00000000
00000000
00000000
,
00000000
00000000
00000000
00000000
,
00000000
00000000
00000000
00000000
,
00000000
00000000
00000000
00000000
,
00000000
00000000
00000000
00000000
,
00000000
00000000
00000000
00000000
,
20000000
00000000
00000000
00000000
,
32000000
00000000
00000000
00000000
,
03200000
00000000
00000000
00000000
,
00302000
00000000
00000000
00000000
,
00013000
00000000
00000200
00000000
,
00001300
00000000
00000020
00000000
,
00000031
00000000
00002000
00000000
,
00003100
00000000
00000002
00000000
,
00000103
00000000
00000001
00000010
,
00000100
00010000
00001000
00100000
,
01000000
10000000
01000000
00100000
,
00020000
00000000
00000000
00030000
,
10010000
00100000
01000000
00010000
,
01000000
00001000
00010000
00000010
,
00001100
00001000
00000100
00000010
,
00000011
00000010
00000100
00001000
,
00001010
00000000
00001000
00000010
,
00010000
00001000
00100000
00010000
,
01010000
00000000
00020000
01000000
,
00000000
00000000
00000000
00030000
,
01010000
01000000
00100000
10000000
,
00100000
00100000
01000000
00100000
,
11000000
01000000
00100000
00001000
,
00010000
00000010
00001000
00000001
,
00001001
00002000
00003100
00000002
,
00000103
00002000
00003100
00000002
,
00000103
00000010
00010000
00022000
,
00000000
00000000
00000000
00033000
,
00100000
01000000
10000000
01000000
,
00100000
00001000
00010000
00000100
,
00001000
00000100
00000010
00000001
,
00000010
00000100
00010000
00001000
,
00011000
00100000
00120000
01000000
,
01000000
00000000
10000000
00030000
,
10000000
00000000
00010000
00000000
,
00100000
00000000
00000000
00000000
01000000
00000000
00000000
00000000
10000000
00000000
00000000
01000000
00000000
00100000
00000000
00000000
,
00020000
00000000
00030000
00200000
,
00002000
00300000
00023000
00000000
,
00030200
00000000
00002300
00000001
,
00000001
00000000
00000000
00003000
,
00000002
00000103
00002000
00003100
,
00020000
00031000
02000000
03010000
,
20000000
31000000
00020000
01030000
,
00200000
10300000
02000000
03010000
,
20020000
00000000
00000000
00000000
30030000
00000000
00000000
01000000
,
01000000
00000000
00001000
00000000
00010000
00000000
00000000
00001000
,
00001000
00000000
00010000
00000000
00000100
00000000
00000000
00001000
,
00001000
00000000
00000010
00000000
00000100
00000000
00000001
00000100
,
00000100
00000000
00000001
00000010
,
00000100
00010000
00001000
00100000
,
01020000
00000000
01030000
10000000
,
20020000
00000000
00000000
30030000
,
10000000
01000000
00100000
00010000
10000000
00100000
01000000
00010000
,
00100000
00001000
00010000
00000100
,
00000010
00000100
00001000
00000001
00000010
00000001
00001000
00000100
,
00001000
00000010
00010000
00001000
,
00100000
01000000
00100000
00010000
10000000
01000000
00100000
00010000
,
00100000
00001000
00010000
00000100
,
00000010
00000100
00001000
00000001
00000010
00000100
00001000
00000000
,
00000101
00000000
00000000
00000000
;

//---------------dance-double - ----------------
#NOTES:
     dance-double:
     :
     Hard:
     7:
     0.404,0.582,0.067,0.168,0.206:
00000000
00000000
00000000
00000000
,
00000000
00000000
00000000
00000000
,
00000000
00000000
00000000
00000000
,
00000000
00000000
00000000
00000000
,
00000000
00000000
00000000
00000000
,
00000000
00000000
00000000
00000000
,
00000000
00000000
00000000
00000000
,
10000000
01000000
00100000
00010000
10000000
01000000
00100000
00010000
,
10000000
00010000
01000000
00001000
00010000
00000100
00001000
00000100
,
00000010
00000001
00000010
00000100
00001000
00000001
00001000
00000001
,
00002000
00000001
00000001
00000001
00000001
00000001
00003001
00001000
,
00000001
00000000
00000000
00000100
00000100
00000001
00001000
00000000
,
00000100
00000000
00000000
00000000
00010000
00010000
00001000
01000000
,
00010000
00000000
00000000
00000000
01000000
01000000
00010000
10000000
,
01000000
00000000
01000000
00000000
10000000
00000000
00100000
00100000
,
01000000
00000000
00000000
00001000
00000000
00000000
00000000
00000000
00010000
00000000
00000000
00000100
00000000
00000000
00000000
00000000
,
00000010
00000000
00000000
00000010
00000000
00000000
00000000
00000000
00000100
00000000
00000000
00000100
00000000
00000000
00000000
00000000
,
00001000
00000000
00000000
00001000
00000000
00000000
00000000
00000000
00000010
00000000
00000000
00000010
00000000
00000000
00000000
00000000
,
00000020
00001000
00001000
00000000
00001000
00000000
00000030
00000000
,
00000100
00000000
00010000
00000000
00010000
00000000
00000000
00000000
00001000
00000000
00000000
00100000
00000000
00000000
00000000
00000000
,
00010000
00000000
01000000
00000000
01000000
00000000
00000000
00000000
00100000
00000000
00000000
00100000
00000000
00000000
01000000
00000000
,
00000000
00000000
00001000
00000000
00010000
00000000
00000000
00000010
00000000
00000000
00000000
00000000
00001000
00000000
00000100
00000000
,
00000100
00002000
00003001
00001000
,
00000001
00000000
00000100
00000000
00000100
00000000
00000000
00000000
00000010
00000000
00000000
00000010
00000000
00000000
00000000
00000000
,
00010000
00000000
00001000
00000000
00001000
00000000
00000000
00000000
00100000
00000000
00000000
00100000
00000000
00000000
00000000
00000000
,
00010000
00000000
00000000
00000000
10000000
00000000
00000000
00100000
00000000
00000000
00000000
00000000
01000000
00000000
00000000
00000000
,
02020000
00000000
00000000
03030000
,
01000000
00000000
00000000
00001000
00010000
00000000
00000000
00000000
00000000
00000000
00000100
00000000
00000000
00000000
00000000
00000000
,
00001000
00000000
00000000
00000000
00000010
00000000
00000000
00000010
00000000
00000000
00000100
00000000
00000010
00000000
00000000
00000000
,
00001010
00000000
00000000
00000010
00000100
00000000
00000000
00000000
00000010
00000000
00000000
00000100
00000000
00000000
00000010
00000000
,
00000100
00000000
00000000
00000000
00000101
00000000
00000000
00000100
00000010
00000000
00000000
00010000
00000000
00000000
00001000
00000000
,
00010000
00000000
00000000
00001000
00010000
00000000
00000000
00000000
00001000
00000000
00000000
00100000
00000000
00000000
00000000
00000000
,
00100000
00000000
00000000
00010000
00100000
00000000
00000000
00000000
01000000
00000000
00000000
10000000
00000000
00000000
00000000
00000000
,
11000000
00000000
00000000
10000000
01000000
00000000
00000000
00100000
00000000
00000000
00000000
00001000
00000000
00000000
00000000
00000000
,
00020000
00000000
00000000
00030000
,
00001000
00000000
00000000
00001000
00010000
00000000
00000000
00000000
00000010
00000000
00000000
00000000
00000100
00000000
00000000
00000001
,
00000100
00000000
00000000
00000001
00000100
00000000
00000000
00000010
00001000
00000000
00000000
00000010
00001000
00000000
00000000
00000000
,
00000100
00000000
00000000
00010000
00001000
00000000
00000000
00100000
00010000
00000000
00000000
00000000
00010000
00000000
00000000
10000000
,
01000000
00000000
00000000
00000000
01000000
00000000
00000000
00000000
00010000
00000000
00000000
00100000
00010000
00000000
00000000
10000000
,
00100000
00000000
00000000
00000000
01000000
00000000
00000000
00000000
00011000
00000000
00000000
00010000
00001000
00000000
00000000
00010000
,
00001000
00000000
00000000
00000000
00010000
00000000
00000000
00000010
00000100
00000000
00000000
00000000
00000101
00000000
00000000
00000010
,
00000200
00000000
00000000
00000000
00000001
00000000
00000000
00000000
00000010
00000000
00000000
00000000
00000000
00000000
00000000
00000010
,
00000000
00000010
00000300
00000000
,
00000010
00010000
00001000
00010000
00001000
00100000
00010000
00100000
,
00010000
01000000
00100000
10000000
00010000
01000000
00010000
00100000
,
00010000
01000000
00100000
10000000
00010000
10000000
01000000
00100000
,
00010000
00100000
00001000
00010000
00000100
00000010
00000001
00000000
,
00002000
00000100
00003100
00000020
00000001
00000031
00001000
00000001
,
00000020
00000100
00000130
00002000
00000001
00003001
00001000
00000001
,
00002000
00000100
00003100
00000020
00000001
00000031
00001000
00000001
,
00000020
00000100
00000130
00002000
00000001
00003001
00000200
00000010
,
00000310
00000000
00000000
00010000
00001000
00000000
00000000
00000000
,
00002000
00000000
00000000
00000000
00010000
00010000
00003000
00000000
,
00020000
00000000
00000000
00000000
00001000
00001000
00030000
00000000
,
00001000
00000000
01000000
00000000
00010000
00000000
00100000
00100000
,
00010000
00000000
00000000
00010000
00000000
00000000
00000000
00000000
01000000
00000000
00000000
00000000
00100000
00000000
00000000
00000000
,
10000000
00000000
00000000
00010000
00000000
00000000
00000000
00000000
00100000
00000000
00000000
00100000
00000000
00000000
00000000
00000000
,
00011000
00000000
00020000
00002000
,
00000000
00000000
00000000
00033000
,
00000010
00000000
00000100
00000000
00000100
00000000
00000000
00000000
00000010
00000000
00000000
00000010
00000000
00000000
00000000
00000000
,
00000100
00000000
00000010
00000000
00000010
00000000
00000000
00000000
00000100
00000000
00000000
00000100
00000000
00000000
00000010
00000000
,
00000000
00000000
00000010
00000000
00010000
00000000
00000000
00001000
00000000
00000000
00000000
00000000
00100000
00000000
00010000
00000000
,
10000000
00100000
01000000
00010000
10000000
01000000
00100000
00000000
,
00010000
00000000
01000000
00000000
01000000
00000000
00000000
00000000
00100000
00000000
00000000
00100000
00000000
00000000
00000000
00000000
,
10000000
00000000
01000000
00000000
01000000
00000000
00000000
00000000
00100000
00000000
00000000
00100000
00000000
00000000
00000000
00000000
,
01000000
00000000
00000000
00000000
00010000
00000000
00000000
00100000
00000000
00000000
00000000
00000000
01000000
00000000
00000000
00000000
,
11000000
00000000
00000000
00000000
;

//---------------dance-double - ----------------
#NOTES:
     dance-double:
     :
     Challenge:
     9:
     0.653,0.894,0.109,0.487,0.332: // measure 1
00000000
00000000
00000000
00000000
,  // measure 2
00000000
00000000
00000000
00000000
,  // measure 3
00000000
00000000
00000000
00000000
,  // measure 4
01000000
10000000
00010000
10000000
01000000
00010000
01000000
00100000
,  // measure 5
00001000
00010000
00001000
00000010
00000100
00001000
00000100
00010000
,  // measure 6
00000010
00000100
00000100
00000001
00000100
00000100
00000010
00000100
,  // measure 7
00000100
00000001
00000100
00000100
00000100
00001000
00000010
00001000
,  // measure 8
00000100
00000001
00001000
00000001
00000100
00001000
00000100
00000010
,  // measure 9
00010000
00001000
00010000
00100000
01000000
00010000
01000000
00001000
,  // measure 10
00100000
01000000
01000000
10000000
01000000
01000000
00100000
01000000
,  // measure 11
01000000
10000000
01000000
01000000
01000000
00010000
01000000
00100000
,  // measure 12
01000000
10000000
00010000
10000000
00100000
01000000
00100000
00010000
,  // measure 13
00001000
00000010
00000100
00001000
00000001
00000100
00000010
00010000
,  // measure 14
00000100
00001000
00001000
00000010
00000100
00000100
00000001
00001000
,  // measure 15
00001000
00000010
00000100
00000100
00000010
00010000
00000010
00010000
,  // measure 16
00000100
00000000
00000000
00001000
00000000
00000000
00000001
00000000
00000100
00000000
00000000
00001000
00000000
00000000
00000100
00000000
,  // measure 17
00000001
00000000
00000000
00001000
00000000
00000000
00000100
00000000
00000010
00000000
00000000
00000100
00000000
00000000
00010000
00000000
,  // measure 18
00001000
00000000
00000000
00100000
00000000
00000000
10000000
00000000
00100000
00000000
00000000
00010000
00000000
00000000
01000000
00000000
,  // measure 19
00010000
00000000
00000000
00010000
00000000
00000000
00010000
00000000
00000000
01000000
00010000
01000000
00010000
00000000
10000000
00100000
,  // measure 20
10000000
00000000
00000000
01000000
10000000
00000000
00000000
00010000
10000000
00000000
00000000
01000000
00010000
00000000
01000000
00000000
,  // measure 21
00100000
00000000
00000000
00001000
00010000
00000000
00000000
00001000
00000010
00000000
00000000
00000100
00001000
00000000
00000100
00000000
,  // measure 22
00010000
00000000
00000000
00000010
00000100
00000000
00000000
00000001
00001000
00000000
00000000
00000010
00010000
00000000
00001000
00000000
,  // measure 23
00000100
00000000
00000000
00000001
00001000
00000000
00000000
00000001
00000100
00000000
00000000
00001000
00000100
00000000
00000010
00000000
,  // measure 24
00000110
00000000
00000000
00000100
00000010
00000000
00000000
00010000
00000100
00000000
00000000
00000010
00000001
00000000
00000100
00000000
,  // measure 25
00001000
00000000
00000000
00010000
00100000
00000000
00000000
01000000
10000000
00000000
00000000
01000000
00010000
00000000
00100000
00000000
,  // measure 26
01000000
00000000
00000000
00010000
00001000
00000000
00000000
00000010
00001000
00000000
00000000
00000010
00000001
00000000
00000100
00000000
,  // measure 27
00000020
00000000
00000200
00000330
,  // measure 28
00000100
00000001
00001000
00000001
00000100
00000010
00000100
00001000
,  // measure 29
00010000
00001000
00100000
00010000
00100000
01000000
10000000
01000000
,  // measure 30
00100000
00010000
00010000
10000000
00100000
00100000
01000000
00010000
,  // measure 31
00010000
10000000
01000000
01000000
00100000
00010000
00100000
00010000
,  // measure 32
01000000
00001000
00010000
00001000
00000010
00000100
00001000
00000010
,  // measure 33
00010000
00001000
01000000
00100000
00010000
00001000
00000100
00000001
,  // measure 34
00001000
00000001
00000001
00000010
00000100
00000100
00001000
00000010
,  // measure 35
00000200
00000000
00000000
00000300
,  // measure 36
00000001
00000000
00000000
00000001
00000100
00000000
00000000
00000100
00001000
00000000
00000000
00001000
00010000
00000000
01000000
00000000
,  // measure 37
10000000
00000000
00000000
10000000
00100000
00000000
00000000
00100000
00010000
00000000
00000000
00010000
00001000
00000000
00000010
00000000
,  // measure 38
00000001
00000000
00000000
00000100
00001000
00000000
00000000
00010000
01000000
00000000
00000000
10000000
00100000
00000000
00010000
00000000
,  // measure 39
00001000
00000000
00000000
00000010
00000001
00000000
00000000
00000100
00001000
00000000
00000000
00010000
01000000
00000000
10000000
00000000
,  // measure 40
10100000
00000000
00000000
00010000
10000000
00000000
00000000
10000000
00010000
00000000
00000000
00010000
00001000
00000000
00000001
00000000
,  // measure 41
00000100
00000000
00000000
00001000
00010000
00000000
00000000
00100000
10000000
00000000
00000000
01000000
00010000
00000000
00001000
00000000
,  // measure 42
00000110
00000000
00000000
00000000
00000000
00000100
00000000
00000000
00000000
00001000
00000000
00000000
00000001
00000000
00000001
00000000
,  // measure 43
00000000
00000000
00000000
00000000
00000000
00000000
00000100
00000000
00000000
00001000
00000000
00000000
00010000
00000000
00001000
00000000
00000100
00000000
00000001
00000000
00000100
00000000
00001000
00000000
,  // measure 44
00020000
00032000
00003200
00000302
00002003
00003200
00000320
00002030
,  // measure 45
00023000
02030000
03200000
00302000
00023000
00230000
02300000
03002000
,  // measure 46
00023000
01000000
02030000
03200000
10000000
20300000
30020000
01000000
,  // measure 47
02030000
03200000
10000000
20300000
30200000
00302000
00023000
01030000
,  // measure 48
01020000
02030000
03020000
02030000
23000000
30200000
00320000
00032000
,  // measure 49
00003020
00000032
00002003
00003200
00000302
00000203
00002300
00003020
,  // measure 50
00020030
00000100
00030200
00000320
00000001
00000032
00002003
00000100
,  // measure 51
00003200
00000320
00000001
00000032
00000203
00002300
00023000
00030100
,  // measure 52
00011000
00000000
00000000
00001000
00000000
00000000
00000100
00000000
00000001
00000000
00000000
00001000
00000000
00000000
00010100
00000000
,  // measure 53
00001100
00000000
00000000
00000010
00000000
00000000
00000001
00000000
00000100
00000000
00000000
00001000
00000000
00000000
00010010
00000000
,  // measure 54
00011000
00000000
00000000
00100000
00000000
00000000
01000000
00000000
00010000
00000000
00000000
10000000
00000000
00000000
01100000
00000000
,  // measure 55
10010000
00000000
00000000
00000000
00100000
00000000
00000000
00000000
00001000
00000000
00000000
00001000
01000000
00000000
00010000
00000000
,  // measure 56
00101000
00000000
00000000
10000000
00100000
00000000
00000000
00100000
00010000
00000000
00000000
00010000
00001000
00000000
00010000
00000000
,  // measure 57
00010010
00000000
00000000
00000001
00000010
00000000
00000000
00000010
00001000
00000000
00000000
00001000
00010000
00000000
00001000
00000000
,  // measure 58
00000100
00000001
00000000
00000010
00000001
00000010
00000000
00001000
00000010
00001000
00000000
00010000
00001000
00010000
00000000
00001000
,  // measure 59
00010000
00000000
00000000
00000000
00000000
00000000
00000000
00200000
,  // measure 60
01300000
10000000
00100000
00010000
00001000
00010000
00100000
00010000
,  // measure 61
00000010
00000100
00000001
00000010
00000100
00001000
00010000
00100000
,  // measure 62
00010000
01000000
10000000
01000000
00010000
00100000
00001000
00010000
,  // measure 63
00000100
00000001
00000100
00001000
00000010
00000100
00000001
00000100
,  // measure 64
00000010
00001000
00000100
00010000
00001000
00100000
01000000
00010000
,  // measure 65
01000000
10000000
00010000
00100000
00000100
00010000
00000100
00001000
,  // measure 66
00000001
00000100
00001000
00010000
00100000
10000000
01000000
00010000
,  // measure 67
0000000M
00000000
0000000M
0000000M
00000000
0000000M
0000000M
00000000
0000000M
0000000M
00000000
00000000
00000000
00000000
00000000
00000000
;
