#TITLE:Don't Stop!;
#SUBTITLE:~AMD 2nd MIX~;
#ARTIST:Dr.VIBE feat. JP Miles;
#TITLETRANSLIT:;
#SUBTITLETRANSLIT:;
#ARTISTTRANSLIT:;
#CREDIT:;
#BANNER:Don't Stop!~AMD 2nd MIX~.png;
#BACKGROUND:Don't Stop!~AMD 2nd MIX~-bg.png;
#LYRICSPATH:;
#CDTITLE:Dance Dance Revolution 4th Mix.png;
#MUSIC:Don't Stop!~AMD 2nd MIX~.ogg;
#OFFSET:0.000;
#SAMPLESTART:75.700;
#SAMPLELENGTH:15.000;
#SELECTABLE:YES;
#DISPLAYBPM:130.000;
#BPMS:0.000=130.120,12.000=130.003;
#STOPS:;
#BGCHANGES:;

//---------------dance-single - ----------------
#NOTES:
     dance-single:
     :
     Beginner:
     1:
     0.143,0.182,0.021,0.000,0.000:
0000
0000
0000
0000
,
0000
0000
0000
0000
,
0000
0000
0000
0000
,
0000
0000
0000
0000
,
0000
0000
0000
0000
,
1000
1000
1000
0000
,
1000
1000
1000
0000
,
0001
0001
0001
0000
,
0001
0000
0000
0000
,
0001
0001
0001
0000
,
0100
0100
0100
0000
,
0001
0001
0001
0000
,
0100
0100
0100
0000
,
0010
0000
0000
0000
,
1000
0000
0000
0000
,
0010
0000
0000
0000
,
1000
0000
0000
0000
,
0001
0000
0100
0000
,
0001
0000
0100
0000
,
0001
0000
1000
0000
,
0010
0000
0100
0100
,
0100
0000
0001
0000
,
1000
0000
0001
0000
,
0100
0000
0100
0000
,
0001
0001
0001
0001
,
0001
0000
0000
0000
,
1000
0000
0001
0000
,
1000
0000
0001
0000
,
0010
0010
0000
0000
,
0100
0000
0000
0000
,
0100
0000
0000
0000
,
0010
0000
0000
0000
,
0010
0000
0000
0000
,
1001
0000
0000
0000
,
1001
0000
0000
0000
,
0100
0000
0000
0000
,
0100
0000
0000
0000
,
0001
0000
1000
0000
,
0001
0000
1000
0000
,
0010
0010
0010
0000
,
0100
0100
0100
0000
,
0001
0000
0100
0000
,
1000
0000
0100
0000
,
0001
0000
0100
0000
,
1000
0000
0100
0000
,
0001
0001
0001
0000
,
1000
1000
1000
0000
,
0010
0010
0010
0000
,
0100
0100
0100
0100
,
0100
0000
0000
0000
;

//---------------dance-single - ----------------
#NOTES:
     dance-single:
     :
     Easy:
     4:
     0.261,0.312,0.170,0.000,0.000:
0000
0000
0000
0000
,
0000
0000
0000
0000
,
0000
0000
0000
0000
,
0000
0000
0000
0000
,
0000
0000
0000
0000
,
0010
1000
1000
1000
,
0001
0000
0001
0000
,
0100
0010
0100
1000
,
0010
0000
0000
1001
,
0010
0100
0100
1001
,
0010
0000
0010
0000
,
0010
0001
0100
0100
,
1000
0001
0100
1001
,
0010
0000
0010
0000
,
0001
0000
1000
0000
,
0010
0100
0100
1001
,
0010
0000
0010
0000
,
0010
1000
0100
0100
,
0001
1000
0100
1001
,
0100
0010
1000
0010
,
1001
0110
1000
0100
,
0100
0010
0001
0010
,
1001
0110
0001
0100
,
0100
0001
0100
1000
,
0010
0000
0010
1001
,
0100
0000
0100
0000
,
0010
1000
0100
0001
,
0100
1000
0100
0001
,
0100
1000
0100
1000
,
0100
0000
0100
0000
,
0010
0001
0100
1000
,
0100
0001
0100
1000
,
0100
0001
0100
0001
,
0001
0010
0100
1000
,
0010
0100
0001
0100
,
1001
0110
1000
0100
,
0001
0001
1000
1000
,
1000
0100
0010
0001
,
0010
0100
1000
0100
,
1001
0110
0001
0100
,
1000
1000
0001
0001
,
0001
0100
1000
0000
,
0001
1000
0100
0000
,
0001
1000
0010
0010
,
1000
0100
0100
0100
,
1000
0100
0001
0000
,
1000
0001
0100
0000
,
1000
0001
0010
0010
,
1001
0010
0010
0100
,
0110
0000
0000
0000
;

//---------------dance-single - ----------------
#NOTES:
     dance-single:
     :
     Medium:
     5:
     0.310,0.312,0.159,0.000,0.000:
0000
0000
0000
0000
,
0000
0000
0000
0000
,
0000
0000
0000
0000
,
0000
0000
0000
0000
,
0000
0000
0000
0000
,
1000
1000
0001
0001
,
1000
1000
0010
0101
,
0010
0010
0001
1100
,
0010
0000
0000
1001
,
0010
0000
0001
0000
0100
1000
0010
0000
,
0100
0010
0100
0001
,
0010
0000
1000
0000
0100
0001
0010
0000
,
0100
1000
0100
0001
,
1000
0100
0010
0101
,
0010
1000
0010
0001
,
1000
0100
0010
0011
,
0100
1000
0100
0001
,
0100
0000
0001
0000
1000
0100
0100
0000
,
0001
0010
0100
1000
,
0100
0000
1000
0000
0001
0100
0100
0000
,
0001
1001
1000
1001
,
0010
0000
0100
0000
0001
0100
0100
0000
,
0001
0010
1000
0010
,
0100
0000
0010
0000
1000
0100
0100
0000
,
1000
0100
0010
0001
,
1000
0000
1000
0000
0001
0100
1000
0000
,
0001
0000
0010
0000
1000
0100
0001
0000
,
0010
0100
0001
0100
,
0010
0100
1000
0100
,
0010
0000
0010
0000
1000
0001
0100
0000
,
0010
0000
0010
0000
0001
1000
0100
0000
,
0001
0000
1000
0000
0010
0001
0100
0000
,
1000
0000
0100
0000
0001
1000
0100
0000
,
1000
0000
0001
0001
0001
0000
0000
0000
,
0010
1100
0010
0101
,
0010
0000
1000
1000
1000
0000
0000
0000
,
0010
0101
0010
1100
,
0001
0000
1000
0001
1000
0000
0000
0000
,
1000
0100
0010
0101
,
1000
0000
0001
1000
0001
0000
0000
0000
,
0001
0010
0100
1100
,
0010
0000
0100
0100
1000
0000
0000
0000
,
0100
0000
0010
0010
0001
0000
0000
0000
,
0001
0000
0010
0100
1000
0000
0000
0000
,
1000
0000
0100
0010
0001
0000
0000
0000
,
0010
0000
0100
0001
1000
0000
0000
0000
,
0010
0000
0100
1000
0001
0000
0000
0000
,
0001
0000
0010
0100
1000
0000
0000
0000
,
1001
0000
0100
0000
0001
0001
1000
0010
,
1001
0000
0000
0000
;

//---------------dance-single - ----------------
#NOTES:
     dance-single:
     :
     Hard:
     7:
     0.346,0.364,0.149,0.000,0.175: // measure 1
0000
0000
0000
0000
,  // measure 2
0000
0000
0000
0000
,  // measure 3
0000
0000
0000
0000
,  // measure 4
0000
0000
0000
0000
,  // measure 5
0000
0000
0000
0000
,  // measure 6
0010
1000
0100
0000
0100
1000
0001
0000
,  // measure 7
0010
0001
0100
0000
0100
0001
1000
0000
,  // measure 8
0010
0000
0010
0000
1000
0100
0001
0000
,  // measure 9
0010
0000
0000
1001
,  // measure 10
0010
0000
0101
0000
1000
0001
0100
0000
,  // measure 11
1000
1100
0001
0101
,  // measure 12
0010
0000
1100
0000
0001
1000
0100
0000
,  // measure 13
0010
1100
0010
0101
,  // measure 14
1000
0000
0000
1000
0000
0000
1000
0000
0000
0000
0000
0000
0000
0000
0000
0000
,  // measure 15
1000
0000
0000
0100
0000
0000
0001
0000
0000
0000
0001
0000
0000
0100
0000
0000
,  // measure 16
0001
0000
0000
0001
0000
0000
0001
0000
0000
0000
0000
0000
0000
0000
0000
0000
,  // measure 17
0001
0000
0000
0100
0000
0000
1000
0000
0000
0000
1000
0000
0000
0100
0000
0000
,  // measure 18
1000
0000
0000
0010
0000
0000
0101
0000
0000
0000
0000
0000
0000
0000
0000
0000
,  // measure 19
1000
0000
0000
0001
0000
0000
1100
0000
0000
0000
0001
0000
0000
0010
0000
0000
,  // measure 20
0001
0000
0000
0010
0000
0000
1100
0000
0000
0000
0000
0000
0000
0000
0000
0000
,  // measure 21
0001
0000
0000
1000
0000
0000
0101
0000
0000
0000
1000
0000
0000
0010
0000
0000
,  // measure 22
0001
0000
0000
1000
0000
0000
0100
0000
0000
0000
0000
0000
0000
0000
0000
0000
,  // measure 23
1000
0000
0000
0100
0000
0000
0001
0000
0000
0000
0010
0000
0000
0100
0000
0000
,  // measure 24
1000
0000
0000
0001
0000
0000
0100
0000
0000
0000
0000
0000
0000
0000
0000
0000
,  // measure 25
0001
0000
0000
0100
0000
0000
1000
0000
0000
0000
0010
0000
0000
0100
0000
0000
,  // measure 26
0000
1000
0000
0000
1000
0000
0000
0000
0001
0000
0000
0010
0000
0000
1000
0000
,  // measure 27
0000
0001
0000
0000
0001
0000
0000
0000
1000
0000
0000
0010
0000
0000
0001
0000
,  // measure 28
0000
1000
0000
0000
0100
0000
0000
0000
0001
0000
0000
0100
0000
0000
1000
0000
,  // measure 29
0000
0001
0000
0000
0100
0000
0000
0000
1000
0000
0000
0100
0000
0000
0001
0000
,  // measure 30
0000
1000
0000
0000
1000
0000
0000
0000
0001
0000
0000
0010
0000
0000
1000
0000
,  // measure 31
0000
0001
0000
0000
0001
0000
0000
0000
1000
0000
0000
0010
0000
0000
0001
0000
,  // measure 32
0000
1000
0000
0000
0100
0000
0000
0000
0001
0000
0000
0100
0000
0000
1000
0000
,  // measure 33
0000
0001
0000
0000
0100
0000
0000
0000
1000
0000
0100
0000
1000
0000
0001
0000
,  // measure 34
0000
0001
1000
0000
0001
0000
0000
0000
,  // measure 35
0001
0010
1000
0000
0100
0010
1000
1000
,  // measure 36
0000
1000
0001
0000
1000
0000
0000
0000
,  // measure 37
1000
0010
0001
0000
0100
0010
0001
0010
,  // measure 38
0000
0010
0001
0000
0100
0000
0000
0000
,  // measure 39
0001
1000
0010
0000
0001
1000
0100
0010
,  // measure 40
0000
0010
1000
0000
0001
0000
0000
0000
,  // measure 41
0010
0100
1000
0001
0100
0000
1001
0000
,  // measure 42
0010
0000
0100
0001
1000
0010
0100
0000
,  // measure 43
0100
0000
0010
1000
0001
0100
0010
0000
,  // measure 44
0001
0000
0100
0001
1000
0010
0100
0000
,  // measure 45
1000
0000
0100
1000
0001
0010
0100
0000
,  // measure 46
0010
0000
0100
0001
1000
0100
0100
0000
,  // measure 47
0010
0000
0100
1000
0001
0100
0100
0000
,  // measure 48
0001
0000
0010
0100
1000
0001
0100
0000
,  // measure 49
1001
0000
0100
0000
0010
0001
0100
0010
,  // measure 50
1001
0000
0000
0000
;

//---------------dance-double - ----------------
#NOTES:
     dance-double:
     :
     Easy:
     3:
     0.171,0.234,0.000,0.000,0.000:
00000000
00000000
00000000
00000000
,
00000000
00000000
00000000
00000000
,
00000000
00000000
00000000
00000000
,
00000000
00000000
00000000
00000000
,
00000000
00000000
00000000
00000000
,
00001000
00000000
00001000
00000000
,
00100000
00000000
00100000
00000000
,
10000000
00000000
10000000
00000000
,
01000000
00000000
00000000
00000000
,
00010000
00001000
00010000
00001000
,
00000010
00000000
00000010
00000000
,
00010000
00001000
00010000
00001000
,
00100000
00000000
00100000
00000000
,
00010000
00000000
10000000
00000000
,
00001000
00000000
00000001
00000000
,
00000001
00001000
00000001
00000000
,
00001000
00000000
10000000
00000000
,
00010000
10000000
00010000
00000000
,
01000000
00000000
01000000
00000000
,
00001000
00000000
00000010
00000000
,
00000100
00000000
00000100
00000000
,
00010000
00000000
00100000
00000000
,
10000000
00000000
00010000
00000000
,
00000010
00000000
00000001
00000000
,
00000001
00000000
00000001
00000000
,
00001000
00000000
00010000
00000000
,
10000000
00000000
00010000
00000000
,
00001000
00000000
00000001
00000000
,
00001000
00000000
00010000
00000000
,
10000000
00000000
00010000
00000000
,
00001000
00000000
00000001
00000000
,
00001000
00000000
00010000
00000000
,
10000000
00000000
00100000
01000000
,
00001000
00010000
00010000
00000000
,
00000010
00000100
00000001
00000100
,
00010000
00001000
00001000
00000000
,
00100000
01000000
10000000
01000000
,
10000000
00000000
00001000
00000000
,
00010000
00010000
00010000
00010000
,
00000010
00000000
00000001
00000000
,
00001000
00000100
00010000
00001000
,
00100000
01000000
00100000
01000000
,
00001000
00010000
00001000
00010000
,
00000100
00000010
00000100
00000010
,
00000001
00000100
00000100
00000100
,
00001000
00001000
00000000
00000000
,
00100000
00100000
00000000
00000000
,
10000000
10000000
00000000
00000000
,
00001000
00001000
00000000
00000000
,
00000001
00000000
00000000
00000000
;

//---------------dance-double - ----------------
#NOTES:
     dance-double:
     :
     Medium:
     4:
     0.264,0.234,0.000,0.000,0.000:
00000000
00000000
00000000
00000000
,
00000000
00000000
00000000
00000000
,
00000000
00000000
00000000
00000000
,
00000000
00000000
00000000
00000000
,
00000000
00000000
00000000
00000000
,
00001000
00010000
00001000
00010000
,
00100000
00010000
10000000
01000000
,
00010000
00001000
00010000
00001000
,
00000010
00000000
00000000
00000000
,
00001000
00000001
00001000
00000001
,
00000100
00001000
00010000
00010000
,
01000000
10000000
01000000
10000000
,
01000000
00010000
00001000
00001000
,
00000100
00000001
00000100
00000001
,
00001000
00000100
00010000
00001000
,
00100000
01000000
00100000
01000000
,
10000000
00010000
10000000
01000000
,
00010000
00010000
00001000
00001000
,
00000100
00000001
00000010
00000010
,
00001000
00010000
00010000
00001000
,
00100000
00010000
10000000
01000000
,
01000000
00100000
00010000
01000000
,
10000000
01000000
00010000
00001000
,
00000100
00000100
00000100
00000001
,
00000010
00000100
00001000
00000100
,
00010000
00001000
01000000
01000000
,
10000000
01000000
00010000
00010000
,
00001000
00000100
00000001
00000001
,
00001000
00000100
00010000
00010000
,
00000010
00001000
00010000
00001000
,
00100000
00010000
10000000
01000000
,
00100000
00010000
00001000
00010000
,
00000010
00000100
00000001
00000001
,
00001000
00001000
00001000
00000100
,
00010000
00001000
00100000
01000000
,
00010000
00010000
00010000
01000000
,
00001000
00010000
00000010
00000100
,
00000001
00000001
00000001
00000100
,
00001000
00010000
01000000
10000000
,
10000000
10000000
10000000
01000000
,
00010000
00001000
00000100
00000001
,
00000001
00000100
00000001
00000100
,
00001000
00000100
00001000
00000100
,
00010000
00001000
01000000
00010000
,
10000000
01000000
00100000
00010000
,
10000000
01000000
10000000
01000000
,
00010000
01000000
00010000
01000000
,
00001000
00010000
00000100
00001000
,
00000001
00000100
00000010
00001000
,
00000100
00000000
00000000
00000000
;

//---------------dance-double - ----------------
#NOTES:
     dance-double:
     :
     Hard:
     6:
     0.335,0.338,0.000,0.000,0.000:
00000000
00000000
00000000
00000000
,
00000000
00000000
00000000
00000000
,
00000000
00000000
00000000
00000000
,
00000000
00000000
00000000
00000000
,
00000000
00000000
00000000
00000000
,
00001000
00000000
00010000
00000000
00100000
10000000
01000000
00000000
,
00010000
00000000
10000000
00000000
01000000
00010000
00001000
00000000
,
00010000
00000000
00000010
00000000
00001000
00000001
00000100
00000000
,
00001000
00000000
00000000
00000000
,
00000001
00000000
00001000
00000000
00000001
00000100
00001000
00000000
,
00010000
00000010
00010000
00000010
,
00010000
00000000
01000000
00000000
10000000
00010000
01000000
00000000
,
10000000
00100000
10000000
01000000
,
00010000
00000000
00001000
00000000
00000010
00001000
00000100
00000000
,
00000001
00000000
00000100
00000000
00000010
00001000
00000100
00000000
,
00010000
00000000
00001000
00000000
00100000
00010000
01000000
00000000
,
10000000
00000000
01000000
00000000
00100000
00010000
01000000
00000000
,
00001000
00000000
00010000
00000000
00001000
00010000
01000000
00000000
,
00010000
00000000
00001000
00000000
00010000
00001000
00000100
00000000
,
00000001
00000000
00001000
00000000
00000001
00000010
00000100
00000000
,
00010000
00000000
01000000
10000000
00010000
01000000
00100000
00000000
,
10000000
00000000
01000000
00000000
00010000
10000000
01000000
00000000
,
00001000
00000000
00010000
00000000
00001000
00010000
01000000
00000000
,
00001000
00000000
00010000
00000000
00000010
00001000
00000100
00000000
,
00000001
00000000
00000100
00000010
00001000
00000001
00000100
00000000
,
00001000
00000100
00001000
00000000
00000001
00000100
00000001
00000000
,
00001000
00000010
00001000
00000000
00010000
00001000
00010000
00000000
,
10000000
01000000
10000000
00000000
00010000
00100000
00010000
00000000
,
00001000
00010000
00001000
00000000
00000100
00000001
00000100
00000000
,
00000010
00000000
00000001
00000000
00001000
00000100
00001000
00000000
,
00100000
00000000
00010000
00000000
10000000
01000000
10000000
00000000
,
00100000
00000000
00001000
00000000
00010000
00001000
00010000
00000000
,
00100000
00000000
00010000
00000000
10000000
01000000
10000000
00000000
,
00100000
00000000
00001000
00000000
00010000
00001000
00010000
00000000
,
00000010
00001000
00000010
00000000
00000001
00000000
00000100
00000000
,
00010000
00000000
00001000
00000000
00010000
00001000
00010000
00000000
,
00100000
00010000
00100000
00000000
10000000
00000000
01000000
00000000
,
00001000
00000000
00010000
00000000
00001000
00010000
00001000
00000000
,
00000001
00000000
00000100
00000000
00000010
00001000
00000100
00000000
,
00010000
00000000
00001000
00000000
00100000
00010000
01000000
00000000
,
10000000
00000000
01000000
00010000
00001000
00000100
00000001
00000000
,
00000001
00000000
00000100
00000000
00000010
00001000
00000100
00010000
,
00000000
00000000
00001000
00000000
00010000
01000000
10000000
00100000
,
00000000
00000000
00100000
00000000
10000000
01000000
00010000
00001000
,
00000000
00000100
00000000
00000001
00000000
00001000
00000000
00000100
,
00000000
00000000
00010000
00000000
00001000
00010000
01000000
10000000
,
00000000
00000000
00100000
00000000
00010000
00001000
00000010
00000001
,
00000000
00000000
00000100
00000000
00000001
00001000
00000100
00010000
,
00000000
01000000
00000000
10000000
00000000
00100000
00000000
01000000
,
00010000
00000000
00000000
00000000
;

//---------------dance-couple - ----------------
#NOTES:
     dance-couple:
     :
     Medium:
     7:
     0.452,0.598,0.712,0.000,0.042:
00000000
00000000
00000000
00000000
,
00000000
00000000
00000000
00000000
,
00000000
00000000
00000000
00000000
,
00000000
00000000
00000000
00000000
,
00000000
00000000
00000000
00000000
,
10001000
10001000
00010001
00010001
,
10001000
10001000
00100010
01010101
,
00100010
00100010
00010001
11001100
,
00100010
00000000
00000000
10011001
,
00100000
00000000
00010000
00000000
01000000
10000000
00100000
00000000
,
01000000
00100000
01000000
00010000
,
00000010
00000000
00000001
00000000
00000100
00001000
00000010
00000000
,
00000100
00000010
00000100
00000001
,
10000001
00000000
00000000
00000001
01000000
00000000
00000001
00000000
00100000
00000000
00000000
00000000
01010000
00000000
00000000
00000000
,
00100001
00000000
00000000
00000001
10000000
00000000
00000001
00000000
00100000
00000000
00000000
00000000
00010000
00000000
00000000
00000000
,
10000001
00000000
00000000
00000001
01000000
00000000
00000001
00000000
00100000
00000000
00000000
00000000
00110000
00000000
00000000
00000000
,
01000001
00000000
00000000
00000001
10000000
00000000
00000001
00000000
01000000
00000000
00000000
00000000
00010000
00000000
00000000
00000000
,
10001000
00000000
00000000
10000000
00000100
00000000
10000000
00000000
00000010
00000000
00000000
00000000
00000101
00000000
00000000
00000000
,
10000010
00000000
00000000
10000000
00001000
00000000
10000000
00000000
00000010
00000000
00000000
00000000
00000001
00000000
00000000
00000000
,
10001000
00000000
00000000
10000000
00000100
00000000
10000000
00000000
00000010
00000000
00000000
00000000
00000011
00000000
00000000
00000000
,
10000100
00000000
00000000
10000000
00001000
00000000
10000000
00000000
00000100
00000000
00000000
00000000
00000001
00000000
00000000
00000000
,
00100000
00000000
01000000
00000000
00010000
01000000
01000000
00000000
,
00010000
00100000
10000000
00100000
,
00000100
00000000
00000010
00000000
00001000
00000100
00000100
00000000
,
00001000
00000100
00000010
00000001
,
10000001
00000000
10000000
00000000
00010000
01000000
10000000
00000000
,
00010001
00000000
00100000
00000000
10000000
01000000
00010000
00000000
,
00100001
01000000
00010000
01000000
,
00100001
01000000
10000000
01000000
,
10001000
00000000
00001000
00000000
00000001
00000100
00001000
00000000
,
10000001
00000000
00000010
00000000
00001000
00000100
00000001
00000000
,
10000010
00000100
00000001
00000100
,
10000010
00000000
00000100
00000000
00001000
00000000
00001000
00010001
,
00000000
00010001
10001000
00000000
01000100
00000000
00000000
00000000
,
00100000
00000000
11000000
00000000
00100000
00000000
01010000
10000000
,
00000000
10000000
00010000
00000000
10000000
00000000
00000000
00000000
,
00000010
00000000
00000101
00000000
00000010
00000000
00001100
00000010
,
00000000
00000010
00000001
00000000
00000100
00000000
00000000
00000000
,
00010000
10000000
00100000
00000000
00010000
10000000
01000000
00100010
,
00000000
00100010
10001000
00000000
00010001
00000000
00000000
00000000
,
00100010
01000100
10001000
00010001
01000100
00000000
10011001
00000000
,
10000010
00000000
00000100
00000001
00001000
00000010
00000100
00000000
,
10000100
00000000
00000010
00001000
00000001
00000100
00000010
00000000
,
00100001
00000000
01000000
00010000
10000000
00100000
01000000
00000000
,
01000001
00000000
00100000
10000000
00010000
01000000
00100000
00000000
,
10000010
00000000
00000100
00000001
00001000
00000100
00000100
00000000
,
10000010
00000000
00000100
00001000
00000001
00000100
00000100
00000000
,
00010001
00000000
00100000
01000000
10000001
00010000
01000000
00000000
,
10011001
00000000
01000100
00000000
00100010
00010001
01000100
00100010
,
10011001
00000000
00000000
00000000
;

//---------------dance-solo - ----------------
#NOTES:
     dance-solo:
     :
     Easy:
     3:
     0.171,0.234,0.000,0.000,0.000:
000000
000000
000000
000000
,
000000
000000
000000
000000
,
000000
000000
000000
000000
,
000000
000000
000000
000000
,
000000
000000
000000
000000
,
000100
000000
000100
000000
,
010000
000000
010000
000000
,
001000
000000
001000
000000
,
000010
000000
000000
000000
,
100000
000001
100000
000001
,
010000
000000
010000
000000
,
000001
100000
000001
100000
,
000010
000000
000010
000000
,
000100
000000
100000
000000
,
000001
000000
001000
000000
,
000100
001000
000100
000000
,
000010
000000
010000
000000
,
000001
100000
000001
000000
,
001000
000000
001000
000000
,
000100
000000
010000
000000
,
001000
000000
001000
000000
,
000100
000000
000010
000000
,
100000
000000
000001
000000
,
010000
000000
001000
000000
,
000001
000000
000001
000000
,
000100
000000
010000
000000
,
100000
000000
000100
000000
,
010000
000000
000010
000000
,
100000
000000
000001
000000
,
000100
000000
001000
000000
,
010000
000000
001000
000000
,
000010
000000
001000
000000
,
100000
000000
000001
001000
,
000100
100000
100000
000000
,
000010
010000
000001
001000
,
000100
000001
000001
000000
,
010000
000010
100000
001000
,
000100
000000
001000
000000
,
000010
000010
000010
000010
,
100000
000000
001000
000000
,
000100
000001
000100
000001
,
010000
001000
010000
001000
,
000001
100000
000001
100000
,
000010
001000
000010
001000
,
100000
001000
001000
001000
,
000010
000010
000000
000000
,
010000
010000
000000
000000
,
000001
000001
000000
000000
,
001000
001000
000000
000000
,
000100
000000
000000
000000
;

//---------------dance-solo - ----------------
#NOTES:
     dance-solo:
     :
     Medium:
     4:
     0.264,0.234,0.000,0.000,0.000:
000000
000000
000000
000000
,
000000
000000
000000
000000
,
000000
000000
000000
000000
,
000000
000000
000000
000000
,
000000
000000
000000
000000
,
000100
010000
000100
010000
,
000001
100000
001000
001000
,
000001
001000
000001
001000
,
000010
000000
000000
000000
,
010000
000001
010000
000001
,
100000
001000
000100
000100
,
000001
001000
000001
001000
,
100000
001000
000100
000001
,
001000
000010
001000
000010
,
010000
001000
100000
000001
,
010000
000010
010000
000010
,
000100
000001
010000
100000
,
000001
000001
001000
001000
,
000100
010000
000010
000010
,
010000
000001
000001
001000
,
000010
000100
000001
001000
,
000001
100000
000001
010000
,
001000
100000
000010
000001
,
001000
001000
001000
000001
,
000100
010000
001000
100000
,
000100
001000
000001
000001
,
010000
000010
001000
001000
,
000100
100000
010000
010000
,
000001
001000
100000
100000
,
000100
001000
000010
001000
,
100000
001000
000100
000001
,
100000
001000
000100
000100
,
000001
001000
000001
000001
,
010000
010000
010000
001000
,
100000
000001
100000
001000
,
000001
000001
000001
001000
,
000100
010000
000001
001000
,
010000
010000
010000
001000
,
000100
000001
001000
100000
,
100000
100000
100000
001000
,
000100
000010
100000
001000
,
000100
000010
000100
000010
,
010000
001000
010000
001000
,
000001
001000
100000
010000
,
100000
001000
000001
000010
,
000100
000010
000100
000010
,
100000
010000
100000
010000
,
000001
001000
000010
000100
,
000001
000010
000001
100000
,
001000
000000
000000
000000
;

//---------------dance-solo - ----------------
#NOTES:
     dance-solo:
     :
     Hard:
     6:
     0.335,0.338,0.000,0.000,0.000:
000000
000000
000000
000000
,
000000
000000
000000
000000
,
000000
000000
000000
000000
,
000000
000000
000000
000000
,
000000
000000
000000
000000
,
000001
000000
100000
000000
000100
100000
001000
000000
,
010000
000000
001000
000000
000001
100000
001000
000000
,
100000
000000
000010
000000
000100
000001
001000
000000
,
100000
000000
000000
000000
,
000100
000000
001000
000000
000100
010000
001000
000000
,
100000
000010
100000
000010
,
010000
000000
001000
000000
000001
000100
001000
000000
,
100000
000001
010000
000100
,
010000
000000
001000
000000
000100
000001
001000
000000
,
100000
000000
001000
000000
000100
000001
001000
000000
,
000010
000000
010000
000000
000001
100000
010000
000000
,
010000
000000
100000
000000
000001
001000
000100
000000
,
100000
000000
001000
000000
010000
000100
100000
000000
,
000001
000000
001000
000000
000010
000100
000001
000000
,
100000
000000
000001
000000
100000
000100
001000
000000
,
000001
000000
010000
000100
100000
001000
010000
000000
,
000100
000000
100000
000000
000010
000100
000001
000000
,
001000
000000
000100
000000
100000
001000
000100
000000
,
000001
000000
001000
000000
000100
100000
010000
000000
,
100000
000000
000010
000100
000001
001000
000010
000000
,
100000
001000
100000
000000
000001
001000
000001
000000
,
000100
010000
000100
000000
000010
001000
000010
000000
,
000100
001000
000100
000000
010000
100000
010000
000000
,
001000
000001
001000
000000
100000
000100
100000
000000
,
000001
000000
100000
000000
000100
010000
000100
000000
,
100000
000000
001000
000000
000001
001000
000001
000000
,
010000
000000
000010
000000
000100
010000
000100
000000
,
100000
000000
001000
000000
000100
000010
000100
000000
,
000001
000000
001000
000000
010000
000100
010000
000000
,
000010
000100
000010
000000
100000
000000
001000
000000
,
000001
000000
000100
000000
001000
100000
001000
000000
,
000100
000001
000100
000000
010000
000000
100000
000000
,
000010
000000
000001
000000
100000
001000
100000
000000
,
000100
000000
000001
000000
100000
001000
100000
000000
,
000010
000000
100000
000000
000001
010000
001000
000000
,
100000
000000
000001
010000
000010
000100
001000
000000
,
000001
000000
000100
000000
000010
100000
001000
010000
,
000000
000000
000001
000000
100000
010000
001000
000010
,
000000
000000
000100
000000
001000
000001
100000
001000
,
000000
000001
000000
010000
000000
000100
000000
001000
,
000000
000000
010000
000000
001000
100000
000010
000100
,
000000
000000
001000
000000
100000
000100
010000
100000
,
000000
000000
000001
000000
100000
000010
000100
000001
,
000000
100000
000000
001000
000000
010000
000000
000010
,
000001
000000
000000
000000
;

//---------------dance-double - ----------------
#NOTES:
     dance-double:
     :
     Beginner:
     1:
     0.149,0.182,0.106,0.000,0.000:
00000000
00000000
00000000
00000000
,
00000000
00000000
00000000
00000000
,
00000000
00000000
00000000
00000000
,
00000000
00000000
00000000
00000000
,
00000000
00000000
00000000
00000000
,
10000000
00000000
00000000
00000000
,
01000000
00000000
00000000
00000000
,
00001000
00000000
00000000
00000000
,
00000100
00000000
00000010
00000000
,
00001001
00000000
00000000
00001000
,
00001000
00000000
00000000
00010000
,
00010000
00000000
00000000
01000000
,
01000000
00000000
00000000
00000000
,
10010000
00000000
00000000
00000000
,
01100000
00000000
00000000
01000000
,
01000000
00000000
00000000
00000000
,
00011000
00000000
00000000
00001000
,
00001000
00000000
00010000
00000000
,
00001000
00000000
00001000
00000000
,
00000100
00000000
00000010
00000000
,
00000001
00000000
00000100
00000000
,
00001000
00000000
00010000
00000000
,
01000000
00000000
00100000
00000000
,
00010000
00000000
10000000
00000000
,
01000000
00000000
00010000
00000000
,
00011000
00000000
00000000
00000100
,
00000100
00000000
00000010
00000000
,
00001001
00000000
00000000
00001000
,
00001000
00000000
00010000
00000000
,
00011000
00000000
00000000
01000000
,
01000000
00000000
00100000
00000000
,
10010000
00000000
00000000
01000000
,
01000000
00000000
00010000
00000000
,
00001000
00001000
00001000
00000000
,
00000100
00000000
00000001
00000000
,
00001000
00001000
00001000
00000000
,
00010000
00000000
01000000
00000000
,
10000000
10000000
10000000
00000000
,
01000000
00000000
00100000
00000000
,
00010000
00010000
00010000
00000000
,
00011000
00000000
00000000
00000000
,
00000100
00000000
00001000
00000000
,
00001000
00000000
00010000
00000000
,
01000000
00000000
01000000
00000000
,
10000000
10000000
10000000
00000000
,
01000000
00000000
00010000
00000000
,
00001000
00000000
00000100
00000000
,
00000001
00000000
00000100
00000000
,
00000001
00000001
00000001
00000000
,
00001001
00000000
00000000
00000000
;

//---------------dance-single - ----------------
#NOTES:
     dance-single:
     :
     Challenge:
     8:
     0.557,0.572,0.106,0.149,0.446: // measure 1
0000
0000
0000
0000
,  // measure 2
0000
0000
0000
0000
,  // measure 3
0000
0000
0000
0000
,  // measure 4
0000
0000
0000
0000
,  // measure 5
0000
0000
0000
0000
0000
1000
1000
1000
,  // measure 6
0001
0100
0001
0010
0001
0100
0010
0001
,  // measure 7
0000
0010
0010
0010
1000
0001
1000
0000
,  // measure 8
1001
0000
0000
0000
0010
0100
1000
0001
,  // measure 9
0000
0001
0010
0100
1000
0001
0100
1000
,  // measure 10
0100
0000
0000
0000
0000
0000
0000
0000
0001
0000
0000
0000
0000
0000
0000
0000
0000
0000
0000
0000
0000
1000
0000
0000
0100
0000
0000
0000
0000
0000
0000
0000
0000
0000
0000
0000
0000
0100
0000
0000
0010
0000
0000
0000
0000
0000
0000
0000
0000
0000
0000
0000
0000
0010
0000
0000
0001
0000
0000
0000
0000
0000
0000
0000
,  // measure 11
0000
0000
0000
0000
0000
0001
0000
0000
0100
0000
0000
0000
0000
0000
0000
0000
0000
0000
0000
0000
0000
0100
0000
0000
0010
0000
0000
0000
0000
0000
0000
0000
0000
0000
0000
0000
0000
0010
0000
0000
1000
0000
0000
0000
0000
0000
0000
0000
0000
0000
0000
0000
0000
1000
0000
0000
0100
0000
0000
0000
0000
0000
0000
0000
,  // measure 12
0000
0000
0000
0000
0000
0100
0000
0000
0001
0000
0000
0000
0000
0000
0000
0000
0000
0000
0000
0000
0000
0001
0000
0000
0010
0000
0000
0000
0000
0000
0000
0000
0000
0000
0000
0000
0000
0010
0000
0000
1000
0000
0000
0000
0000
0000
0000
0000
0000
0000
0000
0000
0000
1000
0000
0000
0100
0000
0000
0000
0000
0000
0000
0000
,  // measure 13
0000
0000
0000
0000
0000
0100
0000
0000
0010
0000
0000
0000
0000
0000
0000
0000
0000
0000
0000
0000
0000
0010
0000
0000
0001
0000
0000
0000
0000
0000
0000
0000
0000
0000
0000
0000
0000
0001
0000
0000
0100
0000
0000
0000
0000
0000
0000
0000
0000
0000
0000
0000
0000
0100
0000
0000
0010
0000
0000
0000
0000
0000
0000
0000
,  // measure 14
0000
0000
0000
0000
0000
0010
0000
0000
1000
0000
0000
0000
0000
0000
0000
0000
0000
0000
0000
0000
0000
1000
0000
0000
0001
0000
0000
0000
0000
0000
0000
0000
0000
0000
0000
0000
0000
0001
0000
0000
0010
0000
0000
0000
0000
0000
0000
0000
0000
0000
0000
0000
0000
0010
0000
0000
0100
0000
0000
0000
0000
0000
0000
0000
,  // measure 15
0000
0000
0000
0000
0000
0100
0000
0000
1000
0000
0000
0000
0000
0000
0000
0000
0000
0000
0000
0000
0000
1000
0000
0000
0100
0000
0000
0000
0000
0000
0000
0000
0000
0000
0000
0000
0000
0100
0000
0000
0001
0000
0000
0000
0000
0000
0000
0000
0000
0000
0000
0000
0000
0001
0000
0000
0010
0000
0000
0000
0000
0000
0000
0000
,  // measure 16
0000
0000
0000
0000
0000
0010
0000
0000
1000
0000
0000
0000
0000
0000
0000
0000
0000
0000
0000
0000
0000
1000
0000
0000
0100
0000
0000
0000
0000
0000
0000
0000
0000
0000
0000
0000
0000
0100
0000
0000
0010
0000
0000
0000
0000
0000
0000
0000
0000
0000
0000
0000
0000
0010
0000
0000
0001
0000
0000
0000
0000
0000
0000
0000
,  // measure 17
0000
0000
0000
0000
0000
0001
0000
0000
1000
0000
0000
0000
0000
0000
0000
0000
0000
0000
0000
0000
0000
1000
0000
0000
0010
0000
0000
0000
0000
0000
0000
0000
0000
0000
0000
0000
0000
0010
0000
0000
0100
0000
0000
0000
0000
0000
0000
0000
0000
0000
0000
0000
0000
0100
0000
0000
0010
0000
0000
0000
0000
0000
0000
0000
,  // measure 18
0000
0000
0000
0000
0000
1000
0000
0000
0100
0000
0000
0000
0000
0000
0000
0000
0000
0000
0000
0000
0000
0010
0000
0000
0001
0000
0000
0000
0000
0000
0000
0000
0000
0000
0000
0000
0000
0100
0000
0000
0001
0000
0000
0000
0000
0000
0000
0000
0000
0000
0000
0000
0000
1000
0000
0000
0010
0000
0000
0000
0000
0000
0000
0000
,  // measure 19
0000
0000
0000
0000
0000
0001
0000
0000
0010
0000
0000
0000
0000
0000
0000
0000
0000
0000
0000
0000
0000
1000
0000
0000
0010
0000
0000
0000
0000
0000
0000
0000
0000
0000
0000
0000
0000
1000
0000
0000
0100
0000
0000
0000
0000
0000
0000
0000
0000
0000
0000
0000
0000
0001
0000
0000
0100
0000
0000
0000
0000
0000
0000
0000
,  // measure 20
0000
0000
0000
0000
0000
1000
0000
0000
0100
0000
0000
0000
0000
0000
0000
0000
0000
0000
0000
0000
0000
0010
0000
0000
0001
0000
0000
0000
0000
0000
0000
0000
0000
0000
0000
0000
0000
0100
0000
0000
0001
0000
0000
0000
0000
0000
0000
0000
0000
0000
0000
0000
0000
1000
0000
0000
0010
0000
0000
0000
0000
0000
0000
0000
,  // measure 21
0000
0000
0000
0000
0000
0100
0000
0000
0001
0000
0000
0000
0000
0000
0000
0000
0000
0000
0000
0000
0000
1000
0000
0000
0010
0000
0000
0000
0000
0000
0000
0000
0000
0000
0000
0000
0000
0100
0000
0000
1000
0000
0000
0000
0000
0000
0000
0000
0000
0000
0000
0000
0000
0100
0000
0000
0001
0000
0000
0000
0000
0000
0000
0000
,  // measure 22
0000
0000
0000
0000
0000
0010
0000
0000
0001
0000
0000
0000
0000
0000
0000
0000
0000
0000
0000
0000
0000
0010
0000
0000
1000
0000
0000
0000
0000
0000
0000
0000
0000
0000
0000
0000
0000
0001
0000
0000
0100
0000
0000
0000
0000
0000
0000
0000
0000
0000
0000
0000
0000
1000
0000
0000
0001
0000
0000
0000
0000
0000
0000
0000
,  // measure 23
0000
0000
0000
0000
0000
0100
0000
0000
0010
0000
0000
0000
0000
0000
0000
0000
0000
0000
0000
0000
0000
0001
0000
0000
1000
0000
0000
0000
0000
0000
0000
0000
0000
0000
0000
0000
0000
0010
0000
0000
0100
0000
0000
0000
0000
0000
0000
0000
0000
0000
0000
0000
0000
0010
0000
0000
0001
0000
0000
0000
0000
0000
0000
0000
,  // measure 24
0000
0000
0000
0000
0000
1000
0000
0000
0001
0000
0000
0000
0000
0000
0000
0000
0000
0000
0000
0000
0000
0100
0000
0000
0001
0000
0000
0000
0000
0000
0000
0000
0000
0000
0000
0000
0000
0100
0000
0000
0010
0000
0000
0000
0000
0000
0000
0000
0000
0000
0000
0000
0000
1000
0000
0000
0010
0000
0000
0000
0000
0000
0000
0000
,  // measure 25
0000
0000
0000
0000
0000
0100
0000
0000
0001
0000
0000
0000
0000
0000
0000
0000
0010
0000
0000
0000
0000
0000
0000
0000
0000
0000
0000
0000
0000
0000
0000
0000
0110
0000
0000
0000
0000
0000
0000
0000
0000
0000
0000
0000
0000
0000
0000
0000
0110
0000
0000
0000
0000
0000
0000
0000
0000
0000
0000
0000
0000
0000
0000
0000
,  // measure 26
1000
0002
0000
0000
0103
0000
0001
0000
1000
0000
0010
0000
1000
0000
0001
0000
,  // measure 27
0100
0020
0000
0000
1030
0000
0100
0000
0010
0000
0001
0000
0100
0000
0010
0000
,  // measure 28
0001
0200
0000
0000
0310
0000
0001
0000
1000
0000
0100
0000
0001
0000
0100
0000
,  // measure 29
1000
0020
0000
0000
0130
0000
0001
0000
1000
0000
0100
0000
1000
0000
0001
0000
,  // measure 30
1000
0020
0000
0000
0130
0000
0001
0000
1000
0000
0100
0000
1000
0000
0001
0000
,  // measure 31
0010
0002
0000
0000
0103
0000
0010
0000
0001
0000
0010
0000
0100
0000
1000
0000
,  // measure 32
0010
0200
0000
0000
1300
0000
0010
0000
0100
0000
1000
0000
0100
0000
0001
0000
,  // measure 33
1000
0200
0000
0000
0310
0000
1000
0000
0010
0000
0001
0000
0100
0000
2001
0000
,  // measure 34
0000
3001
0100
0000
0110
0100
0010
2000
,  // measure 35
0000
0001
0000
0001
0000
0001
3001
0020
,  // measure 36
0000
0031
0200
0000
0000
0000
0000
0301
,  // measure 37
0010
0000
0001
0010
0000
0001
0001
0001
,  // measure 38
0010
1000
0010
0100
1000
0010
0100
0010
,  // measure 39
0000
1000
1000
1000
0010
0100
0000
0101
,  // measure 40
0000
1010
0000
1100
0000
0100
0001
2000
,  // measure 41
0000
3001
0100
0020
0000
0100
0000
0130
,  // measure 42
1000
0000
0000
0000
0000
0000
0000
0000
0001
0000
0000
0000
0000
0000
0000
0000
0100
0000
0000
0000
0000
0000
0000
0000
0010
0000
0000
0000
0000
1000
0000
0000
0010
0000
0000
0000
0000
1000
0000
0000
0010
0000
0000
0000
0000
0000
0000
0000
0100
0000
0000
0000
0000
0000
0000
0000
0001
0000
0000
0000
0000
0000
0000
0000
,  // measure 43
1000
0000
0000
0000
0000
0000
0000
0000
0010
0000
0000
0000
0000
0000
0000
0000
0100
0000
0000
0000
0000
0000
0000
0000
0001
0000
0000
0000
0000
1000
0000
0000
0001
0000
0000
0000
0000
0100
0000
0000
0001
0000
0000
0000
0000
0000
0000
0000
1000
0000
0000
0000
0000
0000
0000
0000
0001
0000
0000
0000
0000
0000
0000
0000
,  // measure 44
0010
0000
0000
0000
0000
0000
0000
0000
0100
0000
0000
0000
0000
0000
0000
0000
1000
0000
0000
0000
0000
0000
0000
0000
0001
0000
0000
0000
0000
0100
0000
0000
0001
0000
0000
0000
0000
0100
0000
0000
0001
0000
0000
0000
0000
0000
0000
0000
1000
0000
0000
0000
0000
0000
0000
0000
0010
0000
0000
0000
0000
0000
0000
0000
,  // measure 45
0100
0000
0000
0000
0000
0000
0000
0000
0001
0000
0000
0000
0000
0000
0000
0000
0010
0000
0000
0000
0000
0000
0000
0000
0100
0000
0000
0000
0000
0001
0000
0000
0100
0000
0000
0000
0000
0010
0000
0000
0100
0000
0000
0000
0000
0000
0000
0000
1000
0000
0000
0000
0000
0000
0000
0000
0010
0000
0000
0000
0000
0000
0000
0000
,  // measure 46
0100
0000
0000
0000
0000
0000
0000
0000
1001
0000
0000
0000
0000
0000
0000
0000
1000
0000
0000
0000
0000
0000
0000
0000
0100
0000
0000
0000
0000
0010
0000
0000
0100
0000
0000
0000
0000
0010
0000
0000
0100
0000
0000
0000
0000
0000
0000
0000
0010
0000
0000
0000
0000
0000
0000
0000
0001
0000
0000
0000
0000
0000
0000
0000
,  // measure 47
0100
0000
0000
0000
0000
0000
0000
0000
0010
0000
0000
0000
0000
0000
0000
0000
1000
0000
0000
0000
0000
0000
0000
0000
0001
0000
0000
0000
0000
0100
0000
0000
0001
0000
0000
0000
0000
0010
0000
0000
0001
0000
0000
0000
0000
0000
0000
0000
1000
0000
0000
0000
0000
0000
0000
0000
0100
0000
0000
0000
0000
0000
0000
0000
,  // measure 48
0010
0000
0000
0000
0000
0000
0000
0000
1000
0000
0000
0000
0000
0000
0000
0000
0010
0000
0000
0000
0000
0000
0000
0000
0001
0000
0000
0000
0000
0100
0000
0000
0001
0000
0000
0000
0000
0100
0000
0000
0001
0000
0000
0000
0000
0000
0000
0000
0100
0000
0000
0000
0000
0000
0000
0000
0010
0000
0000
0000
0000
0000
0000
0000
,  // measure 49
0001
0000
0000
0000
0000
0000
0000
0000
0010
0000
0000
0000
0000
0000
0000
0000
1000
0000
0000
0000
0000
0000
0000
0000
0100
0000
0000
0000
0000
0010
0000
0000
0100
0000
0000
0000
0000
0001
0000
0000
0100
0000
0000
0000
0000
0000
0000
0000
1000
0000
0000
0000
0000
0000
0000
0000
0001
0000
0000
0000
0000
0000
0000
0000
,  // measure 50
0110
0000
0000
0000
;

//---------------dance-double - ----------------
#NOTES:
     dance-double:
     :
     Challenge:
     8:
     0.567,0.572,0.170,0.117,0.473:
00000000
00000000
00000000
00000000
,
00000000
00000000
00000000
00000000
,
00000000
00000000
00000000
00000000
,
00000000
00000000
00000000
00000000
,
00000000
00000000
00000000
00000000
00000000
00000100
00000100
00000100
,
00000001
00001000
00000100
00010000
01000000
00100000
00010000
01000000
,
00001000
00100000
00100000
00100000
00010000
01000000
10000000
00000000
,
10010000
00000000
00100000
00000000
00001000
01000000
00010000
00100000
,
00000000
00100000
00001000
00010000
00000100
00001000
00000001
00000010
,
00000100
00000000
00000000
00000000
00000000
00000000
00000000
00000000
00001000
00000000
00000000
00000000
00000000
00000000
00000000
00000000
00000000
00000000
00000000
00000000
00000000
00000001
00000000
00000000
00000100
00000000
00000000
00000000
00000000
00000000
00000000
00000000
00000000
00000000
00000000
00000000
00000000
00000100
00000000
00000000
00001000
00000000
00000000
00000000
00000000
00000000
00000000
00000000
00000000
00000000
00000000
00000000
00000000
00001000
00000000
00000000
00010000
00000000
00000000
00000000
00000000
00000000
00000000
00000000
,
00000000
00000000
00000000
00000000
00000000
00010000
00000000
00000000
00100000
00000000
00000000
00000000
00000000
00000000
00000000
00000000
00000000
00000000
00000000
00000000
00000000
00100000
00000000
00000000
01000000
00000000
00000000
00000000
00000000
00000000
00000000
00000000
00000000
00000000
00000000
00000000
00000000
01000000
00000000
00000000
00010000
00000000
00000000
00000000
00000000
00000000
00000000
00000000
00000000
00000000
00000000
00000000
00000000
00010000
00000000
00000000
10000000
00000000
00000000
00000000
00000000
00000000
00000000
00000000
,
00000000
00000000
00000000
00000000
00000000
10000000
00000000
00000000
01000000
00000000
00000000
00000000
00000000
00000000
00000000
00000000
00000000
00000000
00000000
00000000
00000000
01000000
00000000
00000000
00100000
00000000
00000000
00000000
00000000
00000000
00000000
00000000
00000000
00000000
00000000
00000000
00000000
00100000
00000000
00000000
00001000
00000000
00000000
00000000
00000000
00000000
00000000
00000000
00000000
00000000
00000000
00000000
00000000
00001000
00000000
00000000
00010000
00000000
00000000
00000000
00000000
00000000
00000000
00000000
,
00000000
00000000
00000000
00000000
00000000
00010000
00000000
00000000
00001000
00000000
00000000
00000000
00000000
00000000
00000000
00000000
00000000
00000000
00000000
00000000
00000000
00001000
00000000
00000000
00000100
00000000
00000000
00000000
00000000
00000000
00000000
00000000
00000000
00000000
00000000
00000000
00000000
00000100
00000000
00000000
00000010
00000000
00000000
00000000
00000000
00000000
00000000
00000000
00000000
00000000
00000000
00000000
00000000
00000010
00000000
00000000
00010000
00000000
00000000
00000000
00000000
00000000
00000000
00000000
,
00000000
00000000
00000000
00000000
00000000
00010000
00000000
00000000
00001000
00000000
00000000
00000000
00000000
00000000
00000000
00000000
00000000
00000000
00000000
00000000
00000000
00001000
00000000
00000000
00000100
00000000
00000000
00000000
00000000
00000000
00000000
00000000
00000000
00000000
00000000
00000000
00000000
00000100
00000000
00000000
00000001
00000000
00000000
00000000
00000000
00000000
00000000
00000000
00000000
00000000
00000000
00000000
00000000
00000001
00000000
00000000
00000010
00000000
00000000
00000000
00000000
00000000
00000000
00000000
,
00000000
00000000
00000000
00000000
00000000
00000010
00000000
00000000
00000001
00000000
00000000
00000000
00000000
00000000
00000000
00000000
00000000
00000000
00000000
00000000
00000000
00000001
00000000
00000000
00000100
00000000
00000000
00000000
00000000
00000000
00000000
00000000
00000000
00000000
00000000
00000000
00000000
00000100
00000000
00000000
00000010
00000000
00000000
00000000
00000000
00000000
00000000
00000000
00000000
00000000
00000000
00000000
00000000
00000010
00000000
00000000
00010000
00000000
00000000
00000000
00000000
00000000
00000000
00000000
,
00000000
00000000
00000000
00000000
00000000
00010000
00000000
00000000
00000100
00000000
00000000
00000000
00000000
00000000
00000000
00000000
00000000
00000000
00000000
00000000
00000000
00000100
00000000
00000000
00001000
00000000
00000000
00000000
00000000
00000000
00000000
00000000
00000000
00000000
00000000
00000000
00000000
00001000
00000000
00000000
00000001
00000000
00000000
00000000
00000000
00000000
00000000
00000000
00000000
00000000
00000000
00000000
00000000
00000001
00000000
00000000
00000100
00000000
00000000
00000000
00000000
00000000
00000000
00000000
,
00000000
00000000
00000000
00000000
00000000
00000100
00000000
00000000
00001000
00000000
00000000
00000000
00000000
00000000
00000000
00000000
00000000
00000000
00000000
00000000
00000000
00001000
00000000
00000000
00010000
00000000
00000000
00000000
00000000
00000000
00000000
00000000
00000000
00000000
00000000
00000000
00000000
00010000
00000000
00000000
00100000
00000000
00000000
00000000
00000000
00000000
00000000
00000000
00000000
00000000
00000000
00000000
00000000
00100000
00000000
00000000
10000000
00000000
00000000
00000000
00000000
00000000
00000000
00000000
,
00000000
00000000
00000000
00000000
00000000
10000000
00000000
00000000
01000000
00000000
00000000
00000000
00000000
00000000
00000000
00000000
00000000
00000000
00000000
00000000
00000000
00010000
00000000
00000000
00001000
00000000
00000000
00000000
00000000
00000000
00000000
00000000
00000000
00000000
00000000
00000000
00000000
00000010
00000000
00000000
00000001
00000000
00000000
00000000
00000000
00000000
00000000
00000000
00000000
00000000
00000000
00000000
00000000
00000100
00000000
00000000
00000001
00000000
00000000
00000000
00000000
00000000
00000000
00000000
,
00000000
00000000
00000000
00000000
00000000
00000100
00000000
00000000
00000010
00000000
00000000
00000000
00000000
00000000
00000000
00000000
00000000
00000000
00000000
00000000
00000000
00000100
00000000
00000000
00001000
00000000
00000000
00000000
00000000
00000000
00000000
00000000
00000000
00000000
00000000
00000000
00000000
00010000
00000000
00000000
00100000
00000000
00000000
00000000
00000000
00000000
00000000
00000000
00000000
00000000
00000000
00000000
00000000
10000000
00000000
00000000
00100000
00000000
00000000
00000000
00000000
00000000
00000000
00000000
,
00000000
00000000
00000000
00000000
00000000
00010000
00000000
00000000
00100000
00000000
00000000
00000000
00000000
00000000
00000000
00000000
00000000
00000000
00000000
00000000
00000000
10000000
00000000
00000000
00010000
00000000
00000000
00000000
00000000
00000000
00000000
00000000
00000000
00000000
00000000
00000000
00000000
10000000
00000000
00000000
01000000
00000000
00000000
00000000
00000000
00000000
00000000
00000000
00000000
00000000
00000000
00000000
00000000
00100000
00000000
00000000
00001000
00000000
00000000
00000000
00000000
00000000
00000000
00000000
,
00000000
00000000
00000000
00000000
00000000
00010000
00000000
00000000
00000010
00000000
00000000
00000000
00000000
00000000
00000000
00000000
00000000
00000000
00000000
00000000
00000000
00000100
00000000
00000000
00000001
00000000
00000000
00000000
00000000
00000000
00000000
00000000
00000000
00000000
00000000
00000000
00000000
00001000
00000000
00000000
00000100
00000000
00000000
00000000
00000000
00000000
00000000
00000000
00000000
00000000
00000000
00000000
00000000
00100000
00000000
00000000
00010000
00000000
00000000
00000000
00000000
00000000
00000000
00000000
,
00000000
00000000
00000000
00000000
00000000
10000000
00000000
00000000
01000000
00000000
00000000
00000000
00000000
00000000
00000000
00000000
00000000
00000000
00000000
00000000
00000000
00010000
00000000
00000000
00001000
00000000
00000000
00000000
00000000
00000000
00000000
00000000
00000000
00000000
00000000
00000000
00000000
01000000
00000000
00000000
00100000
00000000
00000000
00000000
00000000
00000000
00000000
00000000
00000000
00000000
00000000
00000000
00000000
00010000
00000000
00000000
00001000
00000000
00000000
00000000
00000000
00000000
00000000
00000000
,
00000000
00000000
00000000
00000000
00000000
00000100
00000000
00000000
00000001
00000000
00000000
00000000
00000000
00000000
00000000
00000000
00000000
00000000
00000000
00000000
00000000
00000010
00000000
00000000
00001000
00000000
00000000
00000000
00000000
00000000
00000000
00000000
00000000
00000000
00000000
00000000
00000000
00010000
00000000
00000000
00001000
00000000
00000000
00000000
00000000
00000000
00000000
00000000
00000000
00000000
00000000
00000000
00000000
00000100
00000000
00000000
00000001
00000000
00000000
00000000
00000000
00000000
00000000
00000000
,
00000000
00000000
00000000
00000000
00000000
00000100
00000000
00000000
00001000
00000000
00000000
00000000
00000000
00000000
00000000
00000000
00000000
00000000
00000000
00000000
00000000
00010000
00000000
00000000
00100000
00000000
00000000
00000000
00000000
00000000
00000000
00000000
00000000
00000000
00000000
00000000
00000000
10000000
00000000
00000000
01000000
00000000
00000000
00000000
00000000
00000000
00000000
00000000
00000000
00000000
00000000
00000000
00000000
00010000
00000000
00000000
00001000
00000000
00000000
00000000
00000000
00000000
00000000
00000000
,
00000000
00000000
00000000
00000000
00000000
01000000
00000000
00000000
10000000
00000000
00000000
00000000
00000000
00000000
00000000
00000000
01100000
00000000
00000000
00000000
00000000
00000000
00000000
00000000
00000000
00000000
00000000
00000000
00000000
00000000
00000000
00000000
10100000
00000000
00000000
00000000
00000000
00000000
00000000
00000000
00000000
00000000
00000000
00000000
00000000
00000000
00000000
00000000
10010000
00000000
00000000
00000000
00000000
00000000
00000000
00000000
00000000
00000000
00000000
00000000
00000000
00000000
00000000
00000000
,
00010000
00200000
00000000
00000000
00301000
00000000
00010000
00000000
00000100
00000000
00000010
00000000
00000001
00000000
00000100
00000000
,
00001000
00000200
00000000
00000000
00000310
00000000
00010000
00000000
00001000
00000000
01000000
00000000
00010000
00000000
00100000
00000000
,
01000000
00020000
00000000
00000000
00031000
00000000
00000010
00000000
00000001
00000000
00000100
00000000
00001000
00000000
00010000
00000000
,
00100000
20000000
00000000
00000000
30010000
00000000
00100000
00000000
01000000
00000000
10000000
00000000
01000000
00000000
00010000
00000000
,
00001000
00020000
00000000
00000000
00031000
00000000
00100000
00000000
00010000
00000000
01000000
00000000
00100000
00000000
00010000
00000000
,
00001000
00000200
00000000
00000000
00000301
00000000
00001000
00000000
00000100
00000000
00000010
00000000
00001000
00000000
00010000
00000000
,
01000000
20000000
00000000
00000000
30100000
00000000
01000000
00000000
00010000
00000000
10000000
00000000
01000000
00000000
00100000
00000000
,
00010000
02000000
00000000
00000000
03001000
00000000
00010000
00000000
00001000
00010000
00001000
00010000
00001000
00000000
00010000
00000000
,
00000000
01010000
00000000
00011000
,
00000000
00000000
00001100
00000000
00000000
00010000
00010000
00002000
,
00000000
01003000
00010000
00000000
10010000
00000000
00000000
01100000
,
00000000
00011000
00000000
00000110
00000000
00000100
00000010
00000002
,
00000000
00001000
00001003
00000000
00000100
00001000
00010000
00100000
,
10000000
00000000
00000000
00000000
00000000
00000000
00000000
00000000
11000000
00000000
00000000
00000000
00000000
00000000
00000000
00000000
00000000
00000000
00000000
00000000
00000000
00000000
00000000
00000000
01100000
00000000
00000000
00000000
00000000
00000000
00000000
00000000
00001000
00000000
00000000
00000000
00000000
00000000
00000000
00000000
00010000
00000000
00000000
00000000
00000000
00001000
00000000
00000000
00010000
00000000
00000000
00000000
00000000
00000000
00000000
00000000
00002000
00000000
00000000
00000000
00000000
00000000
00000000
00000000
,
00000000
00000000
00000000
00000000
00000000
00000000
00000000
00000000
00000100
00000000
00000000
00000000
00000000
00000000
00000000
00000000
00003100
00000000
00000000
00000000
00000000
00000000
00000000
00000000
00000000
00000000
00000000
00000000
00000000
00000000
00000000
00000000
00000100
00000000
00000000
00000000
00000000
00000000
00000000
00000000
00000001
00000000
00000000
00000000
00000000
00000000
00000000
00000000
00000010
00000000
00000000
00000000
00000000
00000000
00000000
00000000
00000100
00000000
00000000
00000000
00000000
00001000
00000000
00000000
,
00000100
00000000
00000000
00000000
00000000
00000000
00000000
00000000
00010100
00000000
00000000
00000000
00000000
00000000
00000000
00000000
00000000
00000000
00000000
00000000
00000000
00000000
00000000
00000000
00011000
00000000
00000000
00000000
00000000
00000000
00000000
00000000
00001000
00000000
00000000
00000000
00000000
01000000
00000000
00000000
00010000
00000000
00000000
00000000
00000000
00000000
00000000
00000000
01000000
00000000
00000000
00000000
00000000
00000000
00000000
00000000
00100000
00000000
00000000
00000000
00000000
00000000
00000000
00000000
,
10000000
00000000
00000000
00000000
00000000
00000000
00000000
00000000
00100000
00000000
00000000
00000000
00000000
00000000
00000000
00000000
00010000
00000000
00000000
00000000
00000000
00000000
00000000
00000000
00001000
00000000
00000000
00000000
00000000
00010000
00000000
00000000
00001000
00000000
00000000
00000000
00000000
00010000
00000000
00000000
00001000
00000000
00000000
00000000
00000000
00000000
00000000
00000000
00000100
00000000
00000000
00000000
00000000
00000000
00000000
00000000
00000001
00000000
00000000
00000000
00000000
00000000
00000000
00000000
,
00000010
00000000
00000000
00000000
00000000
00000000
00000000
00000000
00000001
00000000
00000000
00000000
00000000
00000000
00000000
00000000
00000100
00000000
00000000
00000000
00000000
00000000
00000000
00000000
00000010
00000000
00000000
00000000
00000000
00010000
00000000
00000000
00000010
00000000
00000000
00000000
00000000
00010000
00000000
00000000
00000010
00000000
00000000
00000000
00000000
00000000
00000000
00000000
00000100
00000000
00000000
00000000
00000000
00000000
00000000
00000000
00001000
00000000
00000000
00000000
00000000
00000000
00000000
00000000
,
00010000
00000000
00000000
00000000
00000000
00000000
00000000
00000000
00100000
00000000
00000000
00000000
00000000
00000000
00000000
00000000
10000000
00000000
00000000
00000000
00000000
00000000
00000000
00000000
01000000
00000000
00000000
00000000
00000000
10000000
00000000
00000000
01000000
00000000
00000000
00000000
00000000
10000000
00000000
00000000
01000000
00000000
00000000
00000000
00000000
00000000
00000000
00000000
00010000
00000000
00000000
00000000
00000000
00000000
00000000
00000000
00001000
00000000
00000000
00000000
00000000
00000000
00000000
00000000
,
00000010
00000000
00000000
00000000
00000000
00000000
00000000
00000000
00000001
00000000
00000000
00000000
00000000
00000000
00000000
00000000
00000100
00000000
00000000
00000000
00000000
00000000
00000000
00000000
00001000
00000000
00000000
00000000
00000000
00010000
00000000
00000000
00001000
00000000
00000000
00000000
00000000
00010000
00000000
00000000
00001000
00000000
00000000
00000000
00000000
00000000
00000000
00000000
00010000
00000000
00000000
00000000
00000000
00000000
00000000
00000000
01000000
00000000
00000000
00000000
00000000
00000000
00000000
00000000
,
10000000
00000000
00000000
00000000
00000000
00000000
00000000
00000000
10010000
00000000
00000000
00000000
00000000
00000000
00000000
00000000
00010000
00000000
00000000
00000000
00000000
00000000
00000000
00000000
01000000
00000000
00000000
00000000
00000000
00100000
00000000
00000000
01000000
00000000
00000000
00000000
00000000
00100000
00000000
00000000
01000000
00000000
00000000
00000000
00000000
00000000
00000000
00000000
00100000
00000000
00000000
00000000
00000000
00000000
00000000
00000000
10000000
00000000
00000000
00000000
00000000
00000000
00000000
00000000
,
01000000
00000000
00000000
00000000
00000000
00000000
00000000
00000000
00010000
00000000
00000000
00000000
00000000
00000000
00000000
00000000
00001000
00000000
00000000
00000000
00000000
00000000
00000000
00000000
00000010
00000000
00000000
00000000
00000000
00000001
00000000
00000000
00000010
00000000
00000000
00000000
00000000
00000001
00000000
00000000
00000010
00000000
00000000
00000000
00000000
00000000
00000000
00000000
00000100
00000000
00000000
00000000
00000000
00000000
00000000
00000000
00010000
00000000
00000000
00000000
00000000
00000000
00000000
00000000
,
00001000
00000000
00000000
00000000
00000000
00000000
00000000
00000000
01000000
00000000
00000000
00000000
00000000
00000000
00000000
00000000
00010000
00000000
00000000
00000000
00000000
00000000
00000000
00000000
10000000
00000000
00000000
00000000
00000000
00100000
00000000
00000000
10000000
00000000
00000000
00000000
00000000
00100000
00000000
00000000
10000000
00000000
00000000
00000000
00000000
00000000
00000000
00000000
00100000
00000000
00000000
00000000
00000000
00000000
00000000
00000000
00010000
00000000
00000000
00000000
00000000
00000000
00000000
00000000
,
00001000
00000000
00000000
00000000
00000000
00000000
00000000
00000000
00000010
00000000
00000000
00000000
00000000
00000000
00000000
00000000
00000001
00000000
00000000
00000000
00000000
00000000
00000000
00000000
00010000
00000000
00000000
00000000
00000000
00000100
00000000
00000000
00010000
00000000
00000000
00000000
00000000
00000100
00000000
00000000
00010000
00000000
00000000
00000000
00000000
00000000
00000000
00000000
00001000
00000000
00000000
00000000
00000000
00000000
00000000
00000000
00100000
00000000
00000000
00000000
00000000
00000000
00000000
00000000
,
01000000
00000000
00000000
00000000
;
