#TITLE:CANDY♥;
#SUBTITLE:;
#ARTIST:小坂りゆ;
#TITLETRANSLIT:;
#SUBTITLETRANSLIT:;
#ARTISTTRANSLIT:RIYU KOSAKA;
#CREDIT:;
#BANNER:CANDY.png;
#BACKGROUND:CANDY-bg.png;
#LYRICSPATH:;
#CDTITLE:./CDTITLES/DDRMAX2 -Dance Dance Revolution 7thMIX-.PNG;
#MUSIC:CANDY.mp3;
#OFFSET:-0.061;
#SAMPLESTART:34.700;
#SAMPLELENGTH:15.000;
#SELECTABLE:YES;
#DISPLAYBPM:180.000;
#BPMS:0.000=180.000;
#STOPS:;
#BGCHANGES:-0.078=Candy.avi=1.000=1=1=0,
276.000=CANDY-bg.png=1.000=0=0=1,
99999=-nosongbg-=1.000=0=0=0 // don't automatically add -songbackground-
;

//---------------dance-single - ----------------
#NOTES:
     dance-single:
     :
     Easy:
     3:
     0.233,0.367,0.253,0.053,0.000:
0000
0000
0000
0000
,
0000
0000
0000
0000
,
0000
0000
0000
0000
,
0000
0000
0000
0000
,
0010
0000
0010
0000
,
0001
0000
0001
0000
,
1000
0000
1000
0000
,
1001
0000
0000
0000
,
0002
0000
0000
0003
,
2000
0000
0000
3000
,
0100
0000
0000
0000
,
0010
0000
0000
0001
,
0100
0000
0000
0000
,
0010
0000
0000
0000
,
1000
0000
0000
0000
,
0100
0000
0000
0000
,
0010
0000
1000
0000
,
0001
0000
0000
0100
,
1000
0000
0010
0000
,
0100
0000
0001
0000
,
0010
0000
1000
0000
,
0100
0000
0001
0000
,
0010
0000
0100
0000
,
0001
0000
1000
0000
,
0010
0000
0001
0000
,
2000
0000
0000
3000
,
0001
0000
0100
0000
,
0010
0000
1000
0000
,
0100
0000
0001
0000
,
0010
0000
1000
0000
,
1000
0000
0100
0000
,
0000
0010
0000
0010
,
0001
0000
0100
0000
,
0010
0000
0001
0000
,
1000
0000
0100
0000
,
0010
0000
0001
0000
,
0100
0000
1000
0000
,
0010
0000
0001
0000
,
0001
0000
0100
0000
,
0000
0010
0000
0010
,
1000
0000
0100
0000
,
0010
0000
0000
1000
,
0000
0101
0000
1001
,
0000
1100
0000
1001
,
0000
0011
0000
1001
,
0000
1010
0000
1001
,
0000
1100
0000
0110
,
0000
1100
0000
1001
,
0000
0011
0000
0110
,
0000
0011
0000
1001
,
0010
0001
0100
0000
,
1000
0000
1000
0000
,
0010
1000
0100
0000
,
0001
0000
0001
0000
,
0100
0000
0100
0000
,
0000
0010
0000
0010
,
1000
0000
0001
0000
,
0010
0000
0100
0000
,
0100
0001
0010
0000
,
1000
0000
1000
0000
,
0100
1000
0010
0000
,
0001
0000
0001
0000
,
0010
0000
0010
0000
,
0000
0100
0000
0100
,
1000
0000
0001
0000
,
0100
0000
0010
0000
,
1100
0000
1001
0000
,
0011
0000
1001
0000
,
0110
0000
0110
0000
,
2002
0000
0000
3003
;

//---------------dance-single - ----------------
#NOTES:
     dance-single:
     :
     Medium:
     5:
     0.442,0.477,0.442,0.231,0.000:
0000
0000
0000
0000
,
0000
0000
0000
0000
,
0000
0000
0000
0000
,
0000
0000
0000
0000
,
1000
0000
1000
0000
,
0001
0000
0001
0000
,
0101
0000
1001
0000
,
0100
0100
1001
0000
,
1000
0000
0000
0001
0000
0000
0101
0000
,
0001
0000
0000
1000
0000
0000
1100
0000
,
0010
0000
0000
1000
0100
0000
0000
0000
,
0010
0000
0000
0001
0100
0000
0000
0000
,
0100
0000
0000
0001
1000
0000
0000
0000
,
0100
0000
0000
1000
0001
0000
0000
0000
,
0102
1000
0100
1000
,
0100
1000
0103
1001
,
2100
0001
0100
0001
,
0100
0001
3100
1001
,
0100
0000
0000
0010
0001
0000
1000
0000
,
0100
0000
0000
0010
1000
0000
0001
0000
,
0100
1000
0100
1000
,
0100
0001
0100
0001
,
0010
1000
0100
0001
,
0010
1000
0100
0001
,
0010
0010
0010
0010
,
2002
0000
3003
1001
,
0010
1000
0100
1100
,
0010
0001
0100
0101
,
1000
0100
0001
0100
,
0001
0001
1001
0000
,
0200
0300
0200
0000
,
0300
0010
0010
0010
,
0001
0100
1000
0100
,
0010
0001
0100
1000
,
0100
1000
0010
0101
,
0100
0001
0010
1100
,
0001
0100
1000
0100
,
0001
0001
1001
0000
,
0020
0030
0020
0000
,
0030
0100
0100
0100
,
1000
0100
0001
0100
,
0010
1000
0100
0001
,
0010
1010
0001
0101
,
1000
1100
0010
0011
,
1000
1010
0100
0101
,
0010
0011
0100
1100
,
0020
0001
0100
0001
,
0100
0001
0130
0110
,
0200
0001
1000
0001
,
1000
0001
1300
0110
,
0001
1000
0100
0101
,
1000
0001
0100
1100
,
0001
0101
1000
1100
,
0010
0001
0100
0000
,
2200
3300
0202
0000
,
0303
0010
0010
0010
,
0010
1000
0100
0001
,
0010
1000
0100
1001
,
1000
0001
0010
0110
,
0001
1000
0010
0110
,
1000
0001
0010
0100
,
0001
0001
0010
0000
,
2002
3003
2200
0000
,
3300
0001
0001
0001
,
0001
0100
1000
0010
,
0001
0100
1000
1001
,
0201
0010
0001
0310
,
1200
0010
1000
0310
,
0001
1000
0100
0010
,
2002
0000
0000
3003
;

//---------------dance-single - ----------------
#NOTES:
     dance-single:
     :
     Hard:
     7:
     0.549,0.550,0.284,0.221,0.000: // measure 1
0000
0000
0000
0000
,  // measure 2
0000
0000
0000
0000
,  // measure 3
0000
0000
0000
0000
,  // measure 4
0000
0000
0000
0000
,  // measure 5
0001
0000
0001
0000
0100
0001
0000
0010
,  // measure 6
0000
0010
0000
0010
0100
0000
0001
0000
,  // measure 7
0000
1000
0100
1000
0010
0000
0001
0100
,  // measure 8
0000
0010
1000
0000
0001
0000
0101
0000
,  // measure 9
1000
0000
0000
1000
0000
0001
0100
0000
,  // measure 10
0001
0000
0000
0001
0000
1000
0100
0000
,  // measure 11
0020
0000
0000
0130
0001
0000
1000
0000
,  // measure 12
2000
0000
0000
3100
0010
0000
0001
0000
,  // measure 13
0002
0000
0000
0103
0010
0000
1000
0000
,  // measure 14
2000
0000
0000
3001
0010
0000
0100
0000
,  // measure 15
2100
3002
0103
2000
,  // measure 16
3010
0002
0013
2000
,  // measure 17
3100
0002
0013
2000
,  // measure 18
3200
0000
2300
0000
3001
0100
0010
0000
,  // measure 19
1000
0000
1000
0000
0100
0010
0100
0001
,  // measure 20
0010
0000
0001
0100
0000
1000
0100
0000
,  // measure 21
0001
0000
0001
0000
0010
0000
0010
1000
,  // measure 22
0100
0000
0001
0010
0000
1000
0010
0000
,  // measure 23
0100
0000
0010
0000
0100
0000
0100
1000
,  // measure 24
0000
0001
0010
0100
0000
0100
1000
0001
,  // measure 25
0010
0000
0001
0100
0000
0100
0000
0010
,  // measure 26
1000
0000
0001
0100
0000
0010
1000
0000
,  // measure 27
1000
0000
0001
0000
0101
0000
0010
1000
,  // measure 28
0000
1000
0100
0000
0110
0000
0011
0000
,  // measure 29
0001
0000
1000
0000
1100
0000
0010
0001
,  // measure 30
0000
0001
0100
0000
0110
0000
1010
0000
,  // measure 31
0012
0100
0010
1003
,  // measure 32
2010
0100
0010
3001
,  // measure 33
1000
0000
0010
0001
0010
0000
0100
0010
,  // measure 34
0000
0001
0100
0010
1000
0000
0101
0000
,  // measure 35
0001
0000
1000
0000
1100
0000
0010
0001
,  // measure 36
0000
0001
0100
0000
0110
0000
1010
0000
,  // measure 37
1000
0000
0001
0000
0101
0000
0010
1000
,  // measure 38
0000
1000
0100
0000
0110
0000
0011
0000
,  // measure 39
2010
0100
0010
3001
,  // measure 40
0012
0100
0010
1003
,  // measure 41
0001
0000
0010
1000
0010
0000
0100
0010
,  // measure 42
0000
1000
0100
0010
0001
0000
1100
0000
,  // measure 43
0101
0000
0001
0010
0000
0000
1000
0010
,  // measure 44
0000
0000
0001
0100
0000
0000
1000
0100
,  // measure 45
0000
0000
0001
0010
0000
0000
1000
0100
,  // measure 46
0000
0000
0001
0100
0000
0010
1000
0010
,  // measure 47
0100
0000
0001
0010
0001
0000
1000
0010
,  // measure 48
1000
0000
0001
0100
0001
0000
1000
0100
,  // measure 49
1000
0000
0001
1000
0001
0000
0001
0100
,  // measure 50
0010
1000
0100
0001
0100
1000
0001
0000
,  // measure 51
0010
0000
1000
0000
0100
0000
0001
0010
,  // measure 52
0000
1000
0010
0000
0100
0000
0100
0000
,  // measure 53
0010
0000
0001
0000
0100
0000
1000
0010
,  // measure 54
0000
0001
0010
0000
0100
0000
0100
0000
,  // measure 55
0010
1000
0010
0000
0100
0001
0100
0000
,  // measure 56
0001
1000
0001
0000
0100
0000
0100
0000
,  // measure 57
0010
0000
0001
0000
0100
0000
0100
0001
,  // measure 58
0000
0010
1000
0000
1100
0000
0101
0000
,  // measure 59
0010
0000
0001
0000
0100
0000
1000
0010
,  // measure 60
0000
0001
0010
0000
0100
0000
0100
0001
,  // measure 61
0010
0000
1000
0000
0100
0000
0001
0010
,  // measure 62
0000
1000
0010
0000
0100
0000
0100
1000
,  // measure 63
0001
0000
0100
1000
0100
0001
0010
0000
,  // measure 64
0001
0100
0001
0000
1000
0000
1001
0000
,  // measure 65
0010
0100
1000
0100
0001
0000
0001
0100
,  // measure 66
0000
0100
0010
1000
0100
0000
0010
0000
,  // measure 67
1200
0001
1000
0310
,  // measure 68
1020
0001
1000
0130
,  // measure 69
0010
0001
0100
1000
0100
0001
0010
0100
,  // measure 70
2002
0000
0000
3003
;

//---------------dance-double - ----------------
#NOTES:
     dance-double:
     :
     Easy:
     3:
     0.224,0.330,0.063,0.168,0.000:
00000000
00000000
00000000
00000000
,
00000000
00000000
00000000
00000000
,
00000000
00000000
00000000
00000000
,
00000000
00000000
00000000
00000000
,
00100000
00000000
00000000
00000000
,
00010000
00000000
00000000
00000000
,
00001000
00000000
00000010
00000000
,
00000100
00000000
00001000
00000000
,
00000220
00000000
00000000
00000330
,
00002002
00000000
00000000
00003003
,
00000001
00000000
00000000
00000000
,
00000100
00000000
00000000
00000000
,
00001000
00000000
00000000
00000000
,
00010000
00000000
00000000
00000000
,
01000000
00000000
00000000
00000000
,
10000000
00000000
00000000
00000000
,
00100000
00000000
00000000
00000000
,
00010000
00000000
00000000
00000000
,
00001000
00000000
00000010
00000000
,
00000001
00000000
00000100
00000000
,
00000100
00000000
00001000
00000000
,
00010000
00000000
00100000
00000000
,
00100000
00000000
10000000
00000000
,
01000000
00000000
00010000
00000000
,
00010000
00000000
00001000
00000000
,
00022000
00000000
00000000
00033000
,
00000010
00000000
00000001
00000000
,
00001000
00000000
00000100
00000000
,
00000001
00000000
00000100
00000000
,
00001000
00000000
00010000
00000000
,
00100000
00000000
20000000
00000000
,
30000000
00000000
10000000
00000000
,
01000000
00000000
00010000
00000000
,
00001000
00000000
00010000
00000000
,
00100000
00000000
10000000
00000000
,
00010000
00000000
01000000
00000000
,
10000000
00000000
01000000
00000000
,
00010000
00000000
00001000
00000000
,
00000010
00000000
00000002
00000000
,
00000003
00000000
00000001
00000000
,
00000100
00000000
00001000
00000000
,
00020000
00000000
00030000
00011000
,
00000000
00000010
00000000
00010000
,
00000000
00100000
00000000
00001000
,
00000000
00000010
00000000
00010000
,
00000000
00100000
00000000
00001000
,
00000000
00000100
00000000
00010000
,
00000000
01000000
00000000
00001000
,
00000000
00000100
00000000
00010000
,
00001000
00000100
00001000
00010000
,
00100000
10000000
01000000
00000000
,
01000000
00000000
01000000
00000000
,
00010000
00001000
00000010
00000000
,
00000001
00000000
00000001
00000000
,
00000100
00000000
00001000
00000000
,
00001000
00000000
00010000
00000000
,
00100000
00000000
00010000
00000000
,
00001000
00000000
00000010
00000100
,
00000010
00000001
00000100
00000000
,
00000100
00000000
00000100
00000000
,
00001000
00010000
01000000
00000000
,
10000000
00000000
10000000
00000000
,
00100000
00000000
00010000
00000000
,
00010000
00000000
00001000
00000000
,
00000010
00000001
00000100
00001000
,
00020000
00000000
00030000
00011000
,
00000020
00000030
00020000
00030000
,
00200000
00300000
00002000
00003000
,
00100000
10000000
00010000
01000000
,
20020000
00000000
00000000
30030000
;

//---------------dance-double - ----------------
#NOTES:
     dance-double:
     :
     Medium:
     5:
     0.400,0.477,0.189,0.389,0.000:
00000000
00000000
00000000
00000000
,
00000000
00000000
00000000
00000000
,
00000000
00000000
00000000
00000000
,
00000000
00000000
00000000
00000000
,
00010000
00100000
10000000
00000000
,
01000000
00010000
00001000
00000000
,
00001010
00000000
00000000
00011000
00000000
00000000
01010000
00000000
,
00000000
10000000
00000000
01000000
00010000
00000000
00011000
00000000
,
00000010
00000000
00000000
00000001
00000000
00000000
00000100
00000000
,
00001000
00000000
00000000
00010000
00000000
00000000
01000000
00000000
,
00200000
00000000
00000000
00000000
00300000
00000000
00000000
10000000
,
02000000
00000000
00000000
00000000
03000000
00000000
00000000
00010000
,
00002000
00000000
00000000
00000000
00003000
00000000
00000000
00000100
,
00000002
00000000
00000003
00000100
,
00001000
00010000
00100000
10000000
,
00100000
00010000
00001000
00000100
,
00001000
00010000
01000000
10000000
,
01000000
00010000
00001000
00000010
,
00000001
00000000
00000000
00000001
00000100
00000000
00000000
00000000
,
00000100
00000000
00000000
00001000
00010000
00000000
00000000
00000000
,
00010000
00000000
00000000
00100000
10000000
00000000
00000000
00000000
,
10000000
00000000
00000000
01000000
00010000
00000000
00010000
00000000
,
00001000
00000100
00000001
00000010
,
00001000
00010000
01000000
10000000
,
10100000
00000000
11000000
00000000
,
20020000
00000000
30030000
10000000
,
00100000
10000000
02000000
03000000
,
00010000
00001000
00000200
00000300
,
00000100
00000001
00000010
00001000
,
00010000
00001000
01000000
00000000
,
00200000
00300000
20000000
00000000
,
30000000
01000000
00010000
00001000
,
00000010
00001000
00000010
00000001
,
00000001
00000100
00000010
00001000
,
00000010
00000001
00000200
00000300
,
00001000
00010000
02000000
03000000
,
01000000
10000000
00100000
00010000
,
00001000
00010000
00000100
00000000
,
00000020
00000030
00000002
00000000
,
00000003
00000100
00001000
00010000
,
00100000
00010000
00100000
10000000
,
20000000
00000000
30000000
10010000
,
00000000
00000000
10000000
01000000
00000000
00000000
01000000
00010000
,
00000000
00000000
00010000
00001000
00000000
00000000
00001000
00000100
,
00000000
00000000
00000100
00000001
00000000
00000000
00000001
00000010
,
00000000
00000000
00000010
00001000
00000000
00000000
00001000
00010000
,
00001000
00000100
00000001
00000010
,
00001000
00010000
01000000
10000000
,
00100000
00010000
00001000
00000010
,
00000001
00000100
00001000
00010000
,
00100000
10000000
20200000
30300000
,
10000000
01000000
22000000
33000000
,
01000000
00010000
01010000
00000000
,
00010000
00001000
00022000
00033000
,
00200000
00300000
20000000
00000000
,
30000000
10000000
01000000
00010000
,
00001000
00010000
01000000
10000000
,
01000000
00010000
00001000
00000010
,
00000010
00000001
00000022
00000033
,
00000001
00000100
00000202
00000303
,
00000100
00001000
00002200
00003300
,
00001000
00010000
00022000
00033000
,
00000020
00000030
00000002
00000000
,
00000003
00000001
00000100
00001000
,
00010000
00100000
10000000
01000000
,
22000000
00000000
33000000
00010000
,
00001000
00000100
00001000
00010000
,
00010000
01000000
00010000
00001000
,
00000100
00001000
00010000
00100000
,
20200000
00000000
00000000
30300000
;

//---------------dance-double - ----------------
#NOTES:
     dance-double:
     :
     Hard:
     7:
     0.472,0.514,0.189,0.095,0.000:
00000000
00000000
00000000
00000000
,
00000000
00000000
00000000
00000000
,
00000000
00000000
00000000
00000000
,
00000000
00000000
00000000
00000000
,
00000001
00000000
00000001
00000000
00000100
00001000
00000000
00010000
,
00000000
00010000
00000000
00010000
01000000
00000000
10000000
00000000
,
00110000
00000000
00000000
00011000
00000000
00000000
00001100
00000000
,
00000000
00001001
00000000
00000010
00000001
00000000
00000101
00000000
,
00000001
00000000
00000100
00001000
00000000
00000100
00001000
00000000
,
00010000
00000000
00100000
10000000
00000000
00100000
10000000
00000000
,
00020000
00000000
00000000
00000000
00030000
10000000
00000000
01000000
,
00020000
00030000
00001000
00000010
,
00000002
00000000
00000000
00000000
00000003
00000100
00000001
00000100
,
00001000
00000000
00010000
01000000
00000000
00100000
00010000
00100000
,
00001000
00000000
00000100
00000000
00001000
00000000
00010000
00001000
,
00010000
00000000
01000000
00100000
00000000
00010000
00000000
00010000
,
01000000
00100000
10000000
01000000
,
00010000
00001000
00000010
00000001
,
00000200
00000000
00000000
00000000
00000300
00001000
00000000
00001000
,
00010000
00000000
00010000
00100000
00000000
00100000
10000000
00000000
,
02000000
00000000
03000000
10000000
,
02000000
00000000
03000000
00020000
00000000
00030000
00001000
00000000
,
00000010
00000001
00000100
00001000
,
00010000
00000000
01000000
10000000
00000000
01000000
10000000
00100000
,
00010000
00000000
00001000
00000100
00000000
00000100
00000000
00000001
,
00000100
00000000
00001000
00010000
00000000
00010000
01000000
00000000
,
00100000
00000000
00010000
00000000
11000000
00000000
00000000
00010000
,
00000000
00001000
00000010
00000000
00000011
00000000
00000000
00000001
,
00000100
00000000
00001000
00000000
00010000
00000000
01000000
10000000
,
00000000
10000000
00100000
00000000
01000000
00000000
10000000
00000000
,
01000000
00000000
00000000
00010000
00001000
00000000
00000100
00000000
,
00000001
00000010
00001000
00010000
,
01000000
00000000
10000000
00000000
00100000
00000000
10000000
01000000
,
00000000
00010000
10000000
01000000
00010000
00000000
00001000
00000000
,
00000010
00000000
00001000
00000000
00000101
00000000
00000000
00001000
,
00000000
00010000
00100000
00000000
10100000
00000000
00000000
10000000
,
01000000
00000000
00010000
00000000
00001000
00000000
00000100
00000001
,
00000000
00000001
00000010
00000000
00000100
00000000
00000001
00000000
,
00000100
00000000
00000000
00001000
00010000
00000000
01000000
00000000
,
10000000
00100000
00010000
00001000
,
00000100
00000000
00000001
00000000
00000010
00000000
00000001
00000100
,
00000000
00001000
00000001
00000100
00001000
00000000
00010000
00000000
,
00010000
00000000
00100000
10000000
00000000
00000000
01000000
10000000
,
00000000
00000000
01000000
00010000
00000000
00000000
00001000
00010000
,
00000000
00000000
00001000
00000010
00000000
00000000
00000100
00000001
,
00000000
00000000
00000100
00001000
00000000
00000000
00010000
00001000
,
00010000
00000000
00100000
10000000
00100000
00000000
01000000
10000000
,
01000000
00000000
00010000
01000000
00010000
00000000
00001000
00010000
,
00001000
00000000
00000010
00000001
00000010
00000000
00000100
00000001
,
00000100
00001001
00001100
00001001
,
00000010
00000000
00000001
00000000
00000101
00000000
00000000
00000100
,
00000000
00001000
00010000
00000000
00011000
00000000
00000000
00000000
,
00100000
00000000
10000000
00000000
01000000
00000000
00010000
01000000
,
00000000
00010000
00001000
00000000
00011000
00000000
00001000
00000000
,
00000010
00000000
00000000
00000001
00000001
00000000
00000100
00000000
,
00001000
00010000
01000000
10000000
,
00100000
00000000
10000000
00000000
01000000
00000000
00010000
01000000
,
00000000
01000000
00010000
00000000
00001000
00000000
00000100
00000000
,
00000010
00000000
00000001
00000000
00000100
00000000
00001000
00000100
,
00000000
00001000
00010000
00000000
00011000
00000000
00000000
00010000
,
00100000
00000000
10000000
00000000
01000000
00000000
00010000
01000000
,
00000000
00010000
00001000
00000000
00011000
00000000
00010000
00000000
,
00100000
00000000
00000000
10000000
10000000
00000000
01000000
00000000
,
00010000
00001000
00000010
00000001
,
00000001
00000000
00000010
00000000
00001000
00000000
00010000
00001000
,
00000000
00010000
00100000
00010000
00100000
00000000
10000000
00000000
,
01000000
00000000
00010000
01000000
00000000
00010000
00001000
00000000
,
00001000
00000000
00000010
00000001
00000000
00000100
00000001
00000000
,
00000100
00000000
00001000
00000100
00000000
00010000
00001000
00000000
,
00022000
00000000
00000000
00033000
;

//---------------dance-single - ----------------
#NOTES:
     dance-single:
     :
     Beginner:
     2:
     0.225,0.254,0.116,0.000,0.000:
0000
0000
0000
0000
,
0000
0000
0000
0000
,
0000
0000
0000
0000
,
0000
0000
0000
0000
,
0010
0000
0010
0000
,
0001
0000
0001
0000
,
1000
0000
1000
0000
,
1001
0000
0000
0000
,
0001
0000
0000
0000
,
1000
0000
0000
0000
,
0100
0000
0000
0000
,
0010
0000
0000
0001
,
0001
0000
0000
0000
,
0010
0000
0000
1000
,
1000
0000
0000
0000
,
0100
0000
0000
0000
,
0010
0000
0010
0000
,
0100
0100
0100
0100
,
0100
0000
0010
0000
,
0100
0000
0001
0000
,
0010
0000
1000
0000
,
0100
0000
0001
0000
,
0010
0000
0100
0000
,
0001
0000
1000
0000
,
0010
0000
0001
0000
,
1000
0000
0000
0000
,
0001
0001
0001
0000
,
0010
0000
0010
0000
,
0100
0100
0100
0000
,
0001
0000
0001
0000
,
1000
0000
0100
0000
,
0001
0000
0100
0000
,
1000
1000
1000
0000
,
0010
0000
0010
0000
,
0001
0001
0001
0000
,
0010
0000
0010
0000
,
0100
0100
0100
0000
,
0001
0000
0001
0000
,
1000
0000
0100
0000
,
0001
0000
0100
0000
,
1000
1000
1000
0000
,
0001
0001
0001
0000
,
0000
0001
0000
1001
,
0000
1000
0000
1001
,
0000
0100
0000
1001
,
0000
0010
0000
1001
,
0000
1000
0000
0110
,
0000
1000
0000
1001
,
0000
0100
0000
0110
,
0000
1000
0000
0001
,
0001
0001
0001
0000
,
0010
0000
0010
0000
,
0100
0100
0100
0000
,
0001
0000
0001
0000
,
1000
0000
0100
0000
,
0001
0000
0100
0000
,
1000
1000
1000
0000
,
0010
0000
0010
0000
,
0001
0001
0001
0000
,
0010
0000
0010
0000
,
0100
0100
0100
0000
,
0001
0000
0001
0000
,
1000
0000
0100
0000
,
0001
0000
0100
0000
,
1000
1000
1000
0000
,
0001
0001
0001
0000
,
1000
0000
1001
0000
,
1000
0000
1001
0000
,
0010
0000
0100
0000
,
1001
0000
0000
0000
;

//---------------dance-single - ----------------
#NOTES:
     dance-single:
     :
     Challenge:
     8:
     0.660,0.707,0.416,0.345,0.005:
0000
0000
0000
0000
,
0000
0000
0000
0000
,
0000
0000
0000
0000
,
0000
0000
0000
0000
,
1100
0000
0011
0000
0101
0100
0000
0110
,
0000
0110
0000
0100
0001
0000
1100
0000
,
0000
0100
1000
0001
0100
0010
0100
0010
,
0000
1001
0000
1000
0010
1000
0010
1000
,
0001
0001
0010
0100
1000
0001
0001
0001
,
0010
0010
0100
1000
0001
0100
0100
0100
,
0020
0000
0000
0000
0000
0130
0001
1000
,
0020
0000
1030
0200
0000
0310
0001
0010
,
0002
0000
0000
0000
0000
0103
0010
1000
,
0200
0000
0310
0001
0000
0001
0100
1000
,
0200
0010
0301
1000
,
0010
0100
0001
1000
,
0101
1100
0101
0110
,
1000
0100
1000
0100
0010
0001
0010
0001
,
2000
0000
0000
0000
0000
3010
0100
1000
,
0200
0000
0301
0002
0000
0013
0100
1000
,
0002
0000
1000
0000
1003
0000
1000
0100
,
0001
0100
1000
0010
0100
0001
0100
0100
,
0020
1000
0001
0130
,
0010
0000
1000
0002
0000
0103
1000
0100
,
0001
0010
0000
0100
0000
1000
0000
0001
,
0100
0010
1000
0100
0010
0001
0100
0010
,
2000
0000
3001
0000
0101
0000
0002
0010
,
0000
0013
0100
0000
1000
0000
0001
0100
,
0010
0000
1010
0000
1100
0000
0020
0001
,
0000
0031
0100
0000
1010
0000
0110
0000
,
1002
0000
0000
1000
2003
0000
3002
0000
,
0103
0110
1010
1100
,
0110
0000
0011
0000
1001
0000
1000
0100
,
0000
0010
0001
1000
0010
0000
0100
0001
,
0020
0000
0230
0000
1300
0000
0020
0100
,
0000
0130
1000
0000
0010
0000
0001
0010
,
0002
0000
2003
0000
3100
0000
0020
0001
,
0000
0130
1000
0000
0001
0000
0100
0000
,
2010
0000
0000
0001
3002
0000
0023
0000
,
0130
1100
0101
1100
,
0010
0000
0001
0000
1000
0000
0010
0000
0001
0000
0010
0000
1000
0010
1000
0000
,
0000
1000
0001
0010
0100
0000
0011
0000
,
1100
0000
1001
0000
0010
0001
0100
1000
,
0000
1100
0000
1000
0100
0001
0010
0100
,
1100
0000
0101
0000
0010
0001
0010
0001
,
0100
0001
0100
0001
0000
0100
0001
1000
,
1001
0000
1010
0000
0100
1000
0010
0001
,
0000
0011
0000
0010
1000
0100
0010
1000
,
0001
0000
1100
0000
0001
0100
0010
1000
,
0100
0100
0010
0001
0000
0001
0100
0001
,
0010
0010
0010
0010
,
0100
0100
0100
0100
,
0001
0001
0001
0001
,
0100
1000
1000
0010
,
0100
0001
0100
0010
0100
1000
0100
0100
,
1000
0100
0010
0100
0001
0100
0100
0001
,
0100
0010
0100
1000
0100
0100
1000
0100
,
0010
0100
0001
0100
0100
0001
0100
0010
,
0100
1000
0100
0000
0010
1000
0010
2000
,
0000
3100
0001
0100
0010
0100
1000
0001
,
0020
0000
0031
0100
0010
1000
0100
0002
,
0000
0103
1000
1000
0001
0100
0001
0010
,
0100
2000
0000
3001
1000
0100
0010
0001
,
2000
0000
3010
0001
0010
1000
0100
1000
,
0001
0010
0100
0001
0100
1000
0010
0100
,
0000
0001
1000
0010
0100
0000
0001
0000
,
1010
1000
0100
1000
0001
1000
0010
1000
,
1100
0100
0010
0100
1000
0100
0001
0100
,
0110
0010
1000
0010
0001
0100
0100
0010
,
0220
0000
0000
0330
;
