#TITLE:CAN'T STOP FALLIN' IN LOVE;
#SUBTITLE:-super euro version-;
#ARTIST:NAOKI with Y&Co.;
#TITLETRANSLIT:;
#SUBTITLETRANSLIT:;
#ARTISTTRANSLIT:;
#CREDIT:;
#BANNER:CAN'T STOP FALLIN' IN LOVE -super euro version-.png;
#BACKGROUND:CAN'T STOP FALLIN' IN LOVE -super euro version--bg.png;
#LYRICSPATH:;
#CDTITLE:DanceDanceRevolutionSuperNOVA.png;
#MUSIC:CAN'T STOP FALLIN' IN LOVE -super euro version-.ogg;
#OFFSET:0.000;
#SAMPLESTART:46.424;
#SAMPLELENGTH:15.000;
#SELECTABLE:YES;
#DISPLAYBPM:155.000;
#BPMS:0.000=155.172,4.000=155.002;
#STOPS:;
#BGCHANGES:;

//---------------dance-single - ----------------
#NOTES:
     dance-single:
     :
     Beginner:
     1:
     0.141,0.188,0.029,0.000,0.000:
0000
0000
0000
0000
,
0000
0000
0000
0000
,
1000
0000
0000
0000
,
1000
0000
0000
0000
,
1000
0000
0000
0000
,
0001
0000
0010
0000
,
0100
0000
0000
0000
,
0100
0000
0000
0000
,
0010
0000
0000
0000
,
0010
0000
0000
0000
,
0100
0000
0000
0000
,
0100
0000
0000
0000
,
0010
0000
0100
0000
,
0000
0000
0000
0000
,
0000
1000
0000
1000
,
0000
0001
0000
0001
,
0000
1000
0000
0001
,
0000
0000
0100
0000
,
0000
0010
0000
0010
,
0000
1000
0000
1000
,
0000
0001
0000
0001
,
0000
0000
0010
0000
,
1000
0000
0001
0000
,
0100
0000
1000
0000
,
0001
0000
0001
0000
,
0100
0000
0000
0000
,
0001
0000
1000
0000
,
0010
0000
0001
0000
,
1000
0000
0000
0000
,
0000
0100
0000
0100
,
0000
0000
0001
0000
,
1000
0000
0010
0000
,
0001
0000
0100
0000
,
0010
0000
0100
0000
,
0010
0000
0100
0000
,
0010
0000
0001
0000
,
0100
0000
0000
0000
,
0010
0000
0000
0000
,
0000
1000
0000
1000
,
0000
0100
0000
0001
,
0000
1000
0000
1000
,
0000
0010
0000
0001
,
0000
1000
0000
1000
,
0000
0100
0000
0100
,
0000
0010
0000
0000
,
0100
0000
0000
0000
,
0010
0000
1000
0000
,
0001
0000
1000
0000
,
0010
0000
0001
0000
,
1000
0000
0001
0000
,
1000
0000
0000
0001
,
0000
1000
0000
0010
,
0000
0000
0000
0000
,
0010
0000
0000
0000
,
1000
0000
0001
0000
,
1000
0000
0100
0000
,
1000
0000
0001
0000
,
1000
0000
0010
0000
,
1000
0000
0001
0000
,
0010
0000
1000
0000
,
0001
0000
0100
0000
,
0000
0000
0000
0000
,
1001
0000
0000
0000
,
1001
0000
0000
0000
,
1001
0000
0000
0000
,
0100
0000
0100
0000
;

//---------------dance-single - ----------------
#NOTES:
     dance-single:
     :
     Easy:
     3:
     0.164,0.188,0.029,0.000,0.000:
0000
0000
0000
0000
,
0000
0000
0000
0000
,
1000
0000
0000
0000
,
1000
0000
0000
0000
,
1000
0000
0000
0000
,
0001
0000
0010
0000
,
0100
0000
0000
0000
,
0100
0000
0000
0000
,
0010
0000
0000
0000
,
0010
0000
0000
0000
,
0100
0000
0000
0000
,
0100
0000
0000
0000
,
0010
0000
0100
0000
,
0000
0000
0000
0000
,
0000
1000
0000
1000
,
0000
0001
0000
0001
,
0000
1000
0000
0001
,
0100
0000
0100
0000
,
0000
0010
0000
0010
,
0000
1000
0000
1000
,
0000
0001
0000
0001
,
0100
0000
0010
0000
,
1000
0000
0001
0000
,
0100
0010
1000
0000
,
0001
0000
0001
0000
,
0100
0000
0000
0000
,
0001
0000
1000
0000
,
0010
0100
0001
0000
,
1000
0000
0000
0000
,
0000
0100
0000
0100
,
0010
0000
0001
0000
,
1000
0100
0010
0000
,
0001
0000
0100
0000
,
0010
1000
0100
0000
,
0010
0000
0100
0000
,
0010
0000
0001
0000
,
0100
0000
0000
0000
,
0010
0000
0000
0000
,
0000
1000
0000
1000
,
0000
0100
0010
0001
,
0000
1000
0000
1000
,
0000
0010
0100
0001
,
0000
1000
0000
1000
,
0000
0100
0000
0100
,
0000
0010
0001
0000
,
0100
0000
0000
0000
,
0010
0000
1000
0000
,
0001
0100
1000
0000
,
0010
0000
0001
0000
,
1000
0100
0001
0000
,
1000
0100
0000
0001
,
0000
1000
0000
0010
,
0100
0000
0000
0000
,
0010
0000
0000
0000
,
1000
0000
0001
0000
,
1000
0001
0100
0000
,
1000
0000
0001
0000
,
1000
0001
0010
0000
,
1000
0000
0001
0000
,
0010
0100
1000
0000
,
0001
0000
0100
0000
,
0000
0000
0000
0000
,
1001
0000
0000
0000
,
1001
0000
0000
0000
,
1001
0000
0000
0000
,
0100
0000
0100
0000
;

//---------------dance-single - ----------------
#NOTES:
     dance-single:
     :
     Medium:
     5:
     0.283,0.311,0.019,0.067,0.029:
0000
0000
0000
0000
,
0000
0000
0000
0000
,
1000
0000
0000
0000
0000
0000
0000
1000
0000
0000
1000
0000
0000
0000
0000
0000
,
0001
0000
0000
0000
0000
0000
0000
0001
0000
0000
0001
0000
0000
0000
1000
0000
,
0001
0000
0000
0000
0000
0000
0000
1000
0000
0000
1000
0000
0000
0000
0000
0000
,
0010
0100
0000
0000
0000
0000
0000
0000
,
0001
0000
1000
0000
0100
0000
0000
1000
,
0000
0001
0010
0000
0100
0000
0100
0000
,
1000
0000
0001
0000
0100
0000
0000
0010
,
0000
1000
0100
0000
0010
0000
0010
0000
,
0001
0000
1000
0000
0100
0000
0000
0001
,
0000
0001
0100
0000
0010
0000
1000
0000
,
0001
0000
0000
0010
0200
0000
0000
0000
,
0000
0000
0000
0300
,
0000
0010
1001
0000
,
1000
0001
0100
0000
,
1000
0000
0001
0000
,
0010
0010
0000
0000
,
0000
0100
1001
0000
,
0010
0100
1000
0000
,
0001
0000
0100
0000
,
0010
1000
0100
0000
0010
0000
0000
0000
,
0001
0000
1000
0000
0100
0000
0000
0001
,
0000
1000
0000
0001
0100
0000
0000
0000
,
0010
1000
0100
0000
,
0010
0001
0000
1000
0000
0010
0000
0000
,
0100
0000
0001
0000
1000
0000
0000
0100
,
0000
1000
0000
0010
0000
0100
0000
0000
,
0001
0000
0010
0000
0100
0000
0000
1000
,
0000
0001
0100
0001
0000
1000
0100
0000
,
0010
0000
0001
0100
0000
0010
0100
1000
,
0000
0000
0000
0000
,
0001
0000
0100
0010
0000
0001
0010
0100
,
0000
0000
0000
0000
,
1000
0000
0001
0100
0000
0010
0000
0100
,
0000
0000
0000
0010
1000
0000
0001
0010
,
0000
0100
2000
0000
0000
0000
3000
0001
,
0000
0100
0020
0000
0000
0000
0030
0000
,
1000
0000
0000
0001
0000
0000
1000
0000
,
0000
0001
0000
0000
1000
0000
0100
0000
,
0001
0000
0000
1000
0000
0000
0001
0000
,
0000
0000
0010
0000
0000
0100
1000
0010
,
0100
0001
0000
0000
,
0000
1000
0100
0010
,
0001
0000
0000
1000
0020
0000
0000
0000
,
0030
0000
0000
0000
,
0100
0000
0001
0010
0000
0010
0100
0010
,
0000
0000
0000
0000
,
0001
0000
1000
0100
0000
0010
0100
0001
,
0000
0000
0000
0000
,
1000
0000
0001
0100
0000
0010
0000
0100
,
0000
0000
0000
0000
0000
0000
0000
1000
,
0000
0010
0200
0000
0000
0000
0300
0001
,
0000
0010
0200
0000
0000
0000
0300
0000
,
1000
0000
0001
0000
1000
0000
0000
0010
,
0000
0100
0001
0000
0010
0000
0010
0000
,
0100
0000
1000
0000
0001
0000
0000
0100
,
0000
0100
0010
0000
1000
0000
0001
0000
,
0010
0000
0100
0000
1000
0000
0000
0001
,
0000
0100
0010
0000
1000
0000
0001
0000
,
0010
0000
0000
0100
2000
0000
0000
0000
,
0000
0000
0000
3000
,
0001
0000
0000
0000
0000
0000
0000
1000
0000
0000
0001
0000
0000
0000
0000
0000
,
0100
0000
0000
0000
0000
0000
0000
0010
0000
0000
0100
0000
0000
0000
0001
0000
,
1000
0000
0000
0000
0000
0000
0000
1000
0000
0000
0001
0000
0000
0000
0100
0000
,
0010
0000
0000
0000
;

//---------------dance-single - ----------------
#NOTES:
     dance-single:
     :
     Hard:
     6:
     0.394,0.374,0.000,0.000,0.000:
0000
0000
0000
0000
,
0000
0000
0000
0000
,
1000
0000
0001
0000
1000
0001
0100
0000
,
1000
0000
0001
0000
1000
0001
0010
0000
,
1000
0000
0001
0000
1000
0010
0100
0000
,
0001
1000
0000
0000
0000
0000
0000
0000
,
1000
0000
0100
0000
0010
0001
1000
0000
,
0010
0100
0001
0000
,
1000
0000
0010
0000
0100
0001
0010
0000
,
0100
1000
0001
0000
,
1000
0000
0001
0000
0010
0100
1000
0000
,
0001
0100
1000
0000
,
0100
0000
0010
0001
0100
0000
0000
0000
,
1000
0000
1000
0000
,
0001
0010
0001
0000
0100
0000
0000
0000
,
0010
1000
0100
0000
,
0010
0000
0001
1000
0100
0000
0000
0000
,
0001
0100
1000
0000
,
0010
0100
0001
0000
1000
0000
0000
0000
,
0100
0010
0001
0000
,
1000
0000
0010
0100
0001
0000
0000
0000
,
1000
0000
0100
0000
0001
0100
1000
0000
,
0001
0000
0010
0000
0100
0000
1000
0010
,
1000
0000
0001
0000
0010
0100
0010
0000
,
0001
0000
1000
0000
0010
0100
0010
0000
,
1000
0001
0000
1000
0000
0001
0000
0000
,
0010
0000
0100
1000
0100
0000
0010
0000
,
0001
0100
0001
0000
1000
0000
0100
0000
,
0010
0000
0001
0100
0010
1000
0000
0001
,
0000
0010
0100
0010
0000
0001
0001
0000
,
1000
0010
0100
0001
0000
1000
0100
0001
,
0000
1000
0000
1000
0000
1000
0000
0000
,
0001
0100
0010
1000
0000
1000
0100
0001
,
0000
1000
0000
0001
0000
1000
0000
0000
,
0010
0100
0001
0010
0000
0100
0000
0010
,
0000
0001
0100
0000
0010
0000
0100
0000
,
0001
0010
0001
0000
1000
0000
0010
0000
,
0100
0001
0100
0000
0010
0000
1000
0000
,
0001
0000
0010
0100
0000
1000
0010
0000
,
0100
0001
0000
0010
0100
0000
1000
0000
,
0001
0000
0100
0010
0000
1000
0100
0000
,
0010
0001
0000
1000
0010
1000
0100
0000
,
0010
0000
0001
0000
0100
0000
0010
1000
,
0100
0000
0010
0000
0001
0000
1000
0010
,
1000
0000
0001
0010
0001
0000
0000
0000
,
1000
0001
0000
0100
0000
0100
0000
0100
,
0010
0000
1000
0100
0000
0010
0001
0010
,
0000
0100
0000
0100
0000
0100
0000
0000
,
1000
0001
0100
0010
0000
1000
0100
1000
,
0000
0001
0000
0100
0000
1000
0000
0000
,
0010
0100
0001
0010
0000
0100
0000
1000
,
0000
0000
0000
0001
,
1000
0100
0001
0000
1000
0000
0010
0000
,
0100
0001
0010
0000
0100
0000
1000
0000
,
0001
0000
0100
0010
1000
0000
0001
0010
,
0000
0010
0100
0000
1000
0000
0001
0000
,
0100
0000
0010
1000
0100
0000
0010
0001
,
0000
1000
0010
0000
0100
0000
0001
0000
,
1000
0000
0100
0001
0100
0000
1000
0010
,
0000
0100
0001
0000
1000
0000
0100
0000
,
0010
0000
0001
0100
1000
0000
0000
0000
,
0001
0010
0100
1000
,
0001
0000
1000
0000
0100
0010
0100
0000
,
1000
0000
0001
0000
0100
1000
0100
0000
,
0001
0000
0010
0000
0100
1000
0010
0000
,
0100
0001
0000
0000
0000
0000
0000
0000
;

//---------------dance-double - ----------------
#NOTES:
     dance-double:
     :
     Easy:
     2:
     0.119,0.187,0.000,0.000,0.000:
00000000
00000000
00000000
00000000
,
00000000
00000000
00000000
00000000
,
10000000
00000000
00000000
00000000
,
00010000
00000000
00000000
00000000
,
10000000
00000000
00000000
00000000
,
00010000
00000000
00010000
00000000
,
01000000
00000000
00000000
00000000
,
00001000
00000000
00010000
00000000
,
00000010
00000000
00000000
00000000
,
00001000
00000000
00000001
00000000
,
00000100
00000000
00000000
00000000
,
00001000
00000000
00010000
00000000
,
00100000
00000000
00000000
00000000
,
01000000
00000000
00000000
00000000
,
00010000
00000000
10000000
00000000
,
00010000
00000000
00000000
00000000
,
00100000
00000000
01000000
00000000
,
00100000
00000000
00000000
00000000
,
00010000
00000000
01000000
00000000
,
00001000
00000000
00000000
00000000
,
00010000
00000000
00000010
00000000
,
00001000
00000000
00000001
00000000
,
00000010
00000000
00000000
00000000
,
00000100
00000000
00000100
00000000
,
00001000
00000000
00000000
00000000
,
00000001
00000000
00000000
00000000
,
00000100
00000000
00000000
00000000
,
00001000
00000000
00010000
00000000
,
01000000
00000000
00000000
00000000
,
10000000
00000000
00010000
00000000
,
01000000
00000000
00000000
00000000
,
00100000
00000000
00000000
00000000
,
00010000
00000000
00000000
00000000
,
00001000
00000000
00000000
00000000
,
00000010
00000000
00000000
00000000
,
00000001
00000000
00000000
00000000
,
00001000
00000000
00000000
00000000
,
00000100
00000000
00000000
00000000
,
00010000
00000000
00001000
00000000
,
00010000
00000000
00000010
00001000
,
00000100
00000000
00000010
00000000
,
00000100
00000000
00000000
00000000
,
00010000
00000000
00000000
00000000
,
00001000
00000000
00000000
00000000
,
00100000
00000000
00010000
00000000
,
00000000
00000000
00000000
10000000
,
00100000
00000000
00000000
00000000
,
01000000
00000000
00000000
00000000
,
00001000
00000000
00000000
00000000
,
00010000
00000000
00000000
00000000
,
00000010
00000000
00000000
00000000
,
00001000
00000000
00000000
00000000
,
00000001
00000000
00000000
00000000
,
00000100
00000000
00000000
00000000
,
00000010
00000000
00000000
00000000
,
00001000
00000000
00000001
00000000
,
00000100
00000000
00000000
00000000
,
00001000
00000000
00010000
00000000
,
01000000
00000000
00000000
00000000
,
10000000
00000000
00010000
00000000
,
01000000
00000000
00000000
00000000
,
00100000
00000000
00000000
00000000
,
00010000
00000000
00000000
00001000
,
00000010
00000000
00000000
00001000
,
00010000
00000000
00000000
00100000
,
10000000
00000000
00000000
00000000
;

//---------------dance-double - ----------------
#NOTES:
     dance-double:
     :
     Medium:
     5:
     0.251,0.249,0.010,0.019,0.000:
00000000
00000000
00000000
00000000
,
00000000
00000000
00000000
00000000
,
00010000
00000000
00001000
00100000
,
00010000
00000000
00001000
00000010
,
00010000
00000000
00001000
00100000
,
10010000
00000000
00000000
00000000
,
01000000
00010000
00001000
00000000
,
00000010
00000000
00000010
00000001
,
00000100
00001000
00010000
00000000
,
00100000
00000000
00100000
10000000
,
01000000
00010000
00001000
00000000
,
00000010
00000000
00000100
00001000
,
00000001
00000000
00000000
00000100
00000100
00000000
00000000
00000000
,
00000010
00000000
00000010
00000000
,
00001000
00000000
00000000
00000000
,
00000001
00000100
00000010
00000000
,
00001000
00000100
00010000
00001000
,
00100000
00000000
00010000
00000000
,
10000000
00000000
00000000
00000000
,
00100000
01000000
00010000
00000000
,
00100000
01000000
00010000
00001000
,
00000100
00000000
00000100
00000000
,
00000001
00001000
00000100
00000000
,
00000010
00000001
00000000
00000100
,
00001000
00000000
00010000
00000000
,
00100000
10000000
00000000
01000000
00000000
01000000
00000000
00000000
,
00100000
00010000
01000000
00000000
,
00001000
00010000
00000000
00000010
,
00001000
00000000
00000100
00000000
,
00000010
00000001
00000100
00000000
,
00000010
00001000
00000100
00000000
,
00010000
00001000
00100000
00010000
,
10000000
00000000
00100000
00000000
,
01000000
00010000
10000000
00000000
,
01000000
00010000
00001000
00000010
,
00000001
00000000
00001000
00000010
,
00000200
00000000
00000000
00000300
,
00000200
00000000
00000000
00000300
,
00000001
00000000
00000000
00001000
00000000
00000000
00000100
00000000
,
00000000
00010000
00000000
00000000
00001000
00000000
00100000
00000000
,
00010000
00000000
00000000
01000000
00000000
00000000
00100000
00000000
,
00000000
10000000
00000000
00010000
,
00100000
01000000
00000000
10000000
,
00000000
00010000
01000000
00001000
,
00010000
00000000
00000010
00000000
,
00001000
00000100
00000010
00000001
,
00001000
00000010
00000100
00000000
,
00001000
00010000
00100000
10000000
,
00010000
00100000
01000000
00000000
,
10000000
00010000
01000000
00100000
,
00010000
00000000
00001000
00010000
00000000
00000100
00000000
00000100
,
00000000
00000000
00001000
00000010
,
00000100
00000000
00000001
00000010
,
00000100
00000000
00001000
00000001
,
00000100
00001000
00010000
00000000
,
00000010
00000000
00001000
00000100
,
00010000
00001000
00100000
00000000
,
01000000
00000000
00010000
00001000
,
00100000
00010000
01000000
00000000
,
00001000
00000000
00010000
00000010
,
00001000
00000000
00000100
00000000
,
00000010
00000001
00000100
00000010
,
00001000
00000000
00000100
00010000
,
00001000
00000000
00100000
00010000
,
01000000
00000000
00001000
00010000
,
00000010
00000000
00000000
00000000
;

//---------------dance-double - ----------------
#NOTES:
     dance-double:
     :
     Hard:
     6:
     0.385,0.373,0.000,0.000,0.000:
00000000
00000000
00000000
00000000
,
00000000
00000000
00000000
00000000
,
10000000
00000000
00010000
00000000
10000000
00000000
00010000
01000000
,
00100000
00000000
01000000
00000000
00010000
10000000
00010000
10000000
,
01000000
00000000
00010000
00000000
00001000
00010000
00001000
00000000
,
00000010
00000001
00000000
00000000
00000000
00000000
00000000
00000000
,
00001000
00000000
00000100
00000010
00000100
00000000
00000000
00000000
,
00001000
00000001
00001000
00000000
00000100
00000000
00000010
00000000
,
00000001
00000000
00000100
00000010
00000100
00000000
00000000
00000000
,
00001000
00010000
00001000
00000000
00100000
00000000
00010000
00000000
,
10000000
00000000
00100000
01000000
00100000
00000000
00000000
00000000
,
10000000
00010000
10000000
00000000
01000000
00000000
00100000
00000000
,
00010000
00000000
10000000
00100000
01000000
00000000
00000000
00000000
,
00010000
10000000
01000000
00100000
,
00010000
00000000
01000000
00001000
00010000
00000000
00000000
00000000
,
00000010
00000000
00001000
00000000
00000100
00000010
00000001
00000000
,
00001000
00000000
00000000
00000000
00000010
00000100
00000000
00000000
,
00000001
00000010
00000100
00001000
,
00000010
00000000
00000100
00000001
00001000
00000000
00000000
00000000
,
00000100
00000000
00010000
00000000
00001000
00100000
00010000
00000000
,
01000000
00000000
00000000
00000000
00100000
10000000
00000000
00000000
,
01000000
00000000
00010000
00001000
00000000
00000000
00100000
00000000
,
00010000
00000000
01000000
00100000
01000000
00000000
00000000
00000000
,
10000000
00000000
00100000
00000000
00010000
00001000
00010000
00000000
,
00000010
00000000
00001000
00000000
00000001
00000010
00000001
00000000
,
00001000
00000100
00000000
00010000
00000000
00001000
00000000
00000000
,
00100000
00000000
00010000
10000000
00010000
00000000
00000000
00000000
,
01000000
00000000
00001000
00000000
00010000
00000010
00001000
00000000
,
00000001
00000000
00000010
00000000
00000100
00001000
00000000
00000001
,
00000000
00000100
00001000
00010000
00000000
00001000
00001000
00000000
,
00100000
00000000
00010000
00000000
10000000
00100000
01000000
00010000
,
00000000
10000000
00000000
00010000
00000000
10000000
00000000
00000000
,
00100000
00000000
01000000
00000000
00010000
00100000
01000000
00010000
,
00000000
00001000
00000000
00010000
00000000
00001000
00000000
00000000
,
00000010
00000000
00000001
00000000
00000100
00000010
00001000
00000100
,
00000000
00000100
00000010
00000000
00000001
00000000
00001000
00000000
,
00000010
00010000
00001000
00000000
00100000
00000000
00010000
00000000
,
10000000
00100000
01000000
00000000
00010000
00000000
10000000
00000000
,
01000000
00000000
00010000
00000000
00001000
00000000
00000100
00000001
,
00000000
00000001
00000010
00000000
00000100
00000000
00001000
00000000
,
00000001
00000000
00000100
00000010
00001000
00000000
00000001
00000010
,
00000000
00000010
00000100
00000000
00010000
00000000
00001000
00000000
,
00100000
00010000
00100000
00000000
01000000
00000000
00000000
00000000
,
10000000
00100000
01000000
00000000
,
00001000
00010000
00001000
00000000
00100000
00000000
00000000
00000000
,
01000000
00000000
00010000
00000000
00001000
00010000
00000010
00000000
,
00001000
00000000
00000001
00000000
00000010
00000100
00001000
00000001
,
00000000
00001000
00000000
00000001
00000000
00001000
00000000
00000000
,
00000010
00000000
00000100
00000000
00001000
00010000
01000000
10000000
,
00000000
00010000
00000000
10000000
00000000
00010000
00000000
00000000
,
01000000
00000000
00100000
10000000
00000000
01000000
00000000
00010000
,
00000000
00000000
00001000
00000010
,
00000001
00000100
00000010
00000000
00001000
00000000
00000001
00000000
,
00000010
00000100
00001000
00000000
00000001
00000000
00000100
00000000
,
00001000
00000000
00010000
00001000
00010000
00000000
00000000
00000000
,
00000010
00001000
00000010
00000000
00000100
00000000
00000001
00000000
,
00000010
00000000
00000100
00001000
00000100
00000000
00000000
00000000
,
00010000
00001000
00010000
00000000
00000010
00000000
00001000
00000000
,
00000100
00000000
00010000
00001000
00010000
00000000
00000000
00000000
,
00000010
00001000
00000010
00000000
00000100
00000000
00001000
00000000
,
00010000
00000000
00100000
10000000
00100000
00000000
00000000
00000000
,
10000000
01000000
00010000
00001000
,
00000010
00000000
00000001
00000000
00001000
00000000
00000010
00000100
,
00001000
00000000
00010000
00000000
00100000
01000000
00100000
10000000
,
01000000
00000000
00010000
00000000
00001000
00000000
00000010
00000001
,
00000100
00000000
00000000
00000000
;

//---------------dance-single - ----------------
#NOTES:
     dance-single:
     :
     Challenge:
     9:
     0.627,0.883,0.431,0.163,0.187:
0000
0000
0000
0000
,
0000
0000
0000
0000
,
1000
0000
0000
0000
0000
0000
0000
0010
0000
0000
0010
0000
0000
0000
0000
0000
,
0100
0000
0000
0000
0000
0000
0000
0001
0000
0000
0001
0000
0000
0000
0001
0000
,
1000
0000
0000
0000
0000
0000
0000
0100
0000
0000
0100
0000
0000
0000
0000
0000
,
0010
0001
1000
0002
1000
0000
1003
0000
,
0010
0110
0100
0101
,
0001
1000
0100
0010
,
0100
1000
0001
0110
,
0010
1000
0100
1000
,
0001
0010
1000
0101
,
0100
1000
0010
0200
,
0302
0000
0000
1000
2000
0000
0003
0000
,
0010
0010
0010
0010
,
3200
0000
1300
0001
1000
0100
0010
0001
,
0100
0010
1000
0100
0010
0001
1000
1000
,
0010
0100
0001
0010
0100
1000
0010
0100
,
0001
0100
0000
0001
1000
0000
0001
0010
0000
0001
1000
0000
0100
0000
0010
0000
,
0200
0000
1300
0010
0100
0001
0010
0001
,
0100
0010
1000
0100
0001
0100
1000
1000
,
0010
0100
0001
1000
0100
1000
0001
0100
,
0010
1000
0000
1000
0100
0000
0100
0010
0000
0010
0001
0000
0100
0000
1000
0000
,
0100
0001
0010
1010
0000
0011
0000
0101
,
0000
1100
0000
0110
0000
1010
0000
1001
,
0000
1100
0000
0101
0000
1100
0000
0110
,
0000
0011
0000
1000
0010
0100
0001
1000
,
0100
0000
1000
0010
0100
0000
1000
0100
,
0000
0001
0000
0010
0000
1000
0000
0000
,
0010
0000
0100
0000
0001
0100
0000
1000
,
0000
0001
0001
0001
0000
1010
1010
0000
,
1000
0001
1000
0100
0010
0001
0100
0010
,
1000
0010
0001
1000
0100
0010
1000
0100
,
0001
0100
1000
0010
0100
0001
1000
0001
,
0010
0100
0001
0100
1000
0010
0100
0100
,
1000
0001
1000
0100
0010
1000
0001
0100
,
0001
0010
0100
1000
0100
0001
0100
1000
,
0010
0001
0002
0000
0000
0003
0000
0020
,
0000
1030
2000
0000
0000
0000
3001
0000
,
0110
0101
0000
0110
0101
0000
0110
0101
,
0000
0110
0101
0000
0011
0000
1001
0000
,
1100
1001
0000
1100
1001
0000
1100
0000
,
0000
0000
0020
0000
0000
0130
0001
1000
,
1000
0100
0010
0001
0001
0100
0010
1000
,
1000
0100
0020
0000
0032
0000
2003
0000
,
3020
0000
0000
0130
0200
0000
0310
0000
,
0100
1001
0000
0110
0000
1001
0000
0110
,
0001
0100
1000
0100
0010
1000
0001
0010
,
0100
0001
0100
1000
0010
0100
0001
0001
,
1000
0100
0001
0100
0010
1000
0001
1000
,
0010
0100
1000
0010
0100
1000
0100
0010
,
1000
0100
0001
0010
0000
1001
0000
1001
,
0000
0000
0000
0000
0000
0000
0000
0000
0010
0100
0010
0100
0010
0000
0100
0000
,
0001
0001
1000
0100
0010
0001
1000
1000
,
0100
0010
0001
1000
0100
0100
0010
0001
,
1000
0100
0010
0010
0001
0000
0100
0010
,
0000
0010
1000
0000
0101
0000
0011
0000
,
0100
1000
0001
0100
0010
0000
1000
0001
,
0000
0001
0100
0000
0110
0000
1010
0000
,
0001
0010
0100
1000
0001
0100
1000
0100
,
0000
0100
0010
0000
0110
0000
1001
0000
,
0020
0000
0000
1000
2000
0000
0000
0000
,
0000
0000
0000
3030
,
1000
0001
0000
1000
0001
0000
1000
0001
0000
1000
0001
0000
1000
0001
1000
0001
,
1000
0100
0000
1000
0100
0000
1000
0100
0000
1000
0100
0000
1000
0100
1000
0100
,
0010
0001
0000
0010
0001
0000
0010
0001
0000
0010
0001
0000
0010
0001
0010
0001
,
0100
0001
0100
0001
0100
0001
0100
0001
0100
0001
0100
0001
0100
0001
0100
0010
;

//---------------dance-double - ----------------
#NOTES:
     dance-double:
     :
     Challenge:
     9:
     0.648,0.725,0.230,0.258,0.210: // measure 1
00000000
00000000
00000000
00000000
,  // measure 2
00000000
00000000
00000000
00000000
,  // measure 3
00000001
00000010
00000000
00000001
00000010
00000000
00000100
00001000
00000000
00000001
00000100
00000000
00000001
00000100
00001000
00000000
,  // measure 4
00010000
00001000
00000000
00010000
00001000
00000000
00100000
00010000
00000000
01000000
00010000
00000000
10000000
00010000
10000000
00000000
,  // measure 5
01000000
00010000
00000000
01000000
00010000
00000000
01000000
00100000
00000000
01000000
10000000
00000000
00010000
00100000
00010000
00000000
,  // measure 6
10000000
10000000
00100000
00100000
00010000
00010000
00000100
00000010
,  // measure 7
00000001
00000000
00000100
00000000
00002000
00000000
00003000
00000200
,  // measure 8
00000000
00001000
00001300
00000000
00010000
00000000
00002000
00000000
,  // measure 9
00003010
00000000
00001000
00000000
00020000
00000000
00030000
02000000
,  // measure 10
00000000
00010000
03010000
00000000
00001000
00000000
00020000
00000000
,  // measure 11
00130000
00000000
10000000
00000000
00200000
00000000
00300000
00020000
,  // measure 12
00000000
00001000
00031000
00000000
00010000
00000000
00200000
00000000
,  // measure 13
20300000
00000000
30000000
00010000
00020000
00000000
00000000
00000000
,  // measure 14
00000000
00000000
00000000
00030000
,  // measure 15
10000000
01000000
00010000
00001000
00010000
01000000
10000000
00000000
,  // measure 16
00010000
01000000
00001000
00100000
01000000
00010000
00001000
00000000
,  // measure 17
00000010
00000001
00001000
00000001
00000010
00000001
00000100
00001000
,  // measure 18
00000100
00000000
00000000
00001000
00000000
00000000
01000000
00000000
00000000
00010000
00000000
00000000
01000000
00000000
00010000
00000000
,  // measure 19
10000000
00000000
00100000
01000000
00100000
00010000
00001000
00000000
,  // measure 20
00010000
00000000
01000000
10000000
00100000
10000000
00100000
00000000
,  // measure 21
00010000
00000000
00001000
00000010
00000001
00000010
00000100
00000000
,  // measure 22
00000010
00000010
00000000
00000000
00000001
00000001
00001000
00001000
,  // measure 23
00000001
00000100
00000001
00000100
00001000
00000100
00001000
00000100
,  // measure 24
00001000
00010000
00001000
00010000
01000000
00010000
01000000
00010000
,  // measure 25
01000000
10000000
01000000
10000000
00100000
10000000
00100000
10000000
,  // measure 26
00010000
00010000
00000000
10010000
00000000
20020000
00000000
30030000
,  // measure 27
10000000
01000000
10000000
01000000
00010000
01000000
00010000
00001000
,  // measure 28
00010000
00001000
00000010
00001000
00000010
00000001
00000100
00000001
,  // measure 29
00000010
00000010
00000000
00000000
00000001
00000000
00001000
00001001
,  // measure 30
00000000
00000010
00000100
00000010
00000000
00001001
00001001
00000000
,  // measure 31
00000001
00000010
00000100
00010000
00001000
00010000
01000000
10000000
,  // measure 32
00100000
00000000
00010000
00000000
00001000
00000000
00010000
00000100
00000000
00000100
00001000
00000000
00000100
00000000
00000010
00000000
,  // measure 33
00000001
00000010
00001000
00010000
00001000
01000000
00010000
00100000
,  // measure 34
01000000
00000000
10000000
00000000
00100000
00000000
01000000
00010000
00000000
00010000
00100000
00000000
10000000
00000000
00100000
00000000
,  // measure 35
00010000
01000000
00100000
00010000
00001000
00000010
00000001
00000100
,  // measure 36
00000010
00001000
00000100
00000010
00000001
00001000
00000010
00000100
,  // measure 37
00000001
00001000
00000010
00010000
00001000
01000000
00010000
00100000
,  // measure 38
01000000
00100000
00010000
10000000
01000000
00100000
00010000
01000000
,  // measure 39
00100000
10000000
00000000
10000000
00010000
00000000
00010000
00001000
,  // measure 40
00000000
00001000
00000001
00000000
00000001
00000000
00000010
00000000
,  // measure 41
00000001
00001000
00000000
00001000
00010000
00000000
00010000
10000000
,  // measure 42
00000000
10000000
00100000
00000000
00100000
00000000
10000000
00000000
,  // measure 43
02000000
23000000
30200000
00320000
,  // measure 44
00032000
00003200
00000302
00000023
,  // measure 45
00002030
00000000
00000000
00000000
00023000
00000000
01000000
00000000
02030000
00000000
00000000
00000000
03000000
00000000
10000000
01000000
,  // measure 46
10000000
00000000
00000000
00000000
00000000
00000000
00000000
00000000
10010000
00000000
00000000
00000000
00000000
00010000
10000000
00000000
,  // measure 47
00010000
00100000
01000000
10000000
00100000
00010000
00001000
00010000
,  // measure 48
00000100
00000000
00001000
00000000
00000010
00000000
00000100
00000001
00000000
00000001
00000010
00000000
00000100
00000000
00001000
00000000
,  // measure 49
00000001
00001000
00000010
00000100
00000001
00000010
00001000
00010000
,  // measure 50
01000000
00000000
10000000
00000000
00100000
00000000
00010000
00001000
00000000
00001000
00000100
00000000
00000001
00000000
00000010
00000000
,  // measure 51
00000001
00001000
00000010
00000100
00000000
00000101
00000000
00001100
,  // measure 52
00000000
00000000
00010000
00000000
00000000
00000000
00100000
00000000
01000000
00010000
01000000
00010000
01000000
00000000
01000000
00000000
,  // measure 53
00100000
00010000
00001000
00000010
00001000
00010000
00100000
10000000
,  // measure 54
01000000
00100000
00010000
01000000
00100000
10000000
01000000
00100000
,  // measure 55
00110000
00000000
00101000
00000000
00011000
00000000
00001000
00000100
,  // measure 56
00000010
00001000
00000100
00000000
00000011
00000000
00000101
00000000
,  // measure 57
00001100
00000000
00011000
00000000
00010100
00000000
00010000
01000000
,  // measure 58
00100000
00010000
01000000
00000000
10100000
00000000
10010000
00000000
,  // measure 59
11000000
00000000
01010000
00000000
00011000
00000000
00001000
00000010
,  // measure 60
00000100
00001000
00000010
00000000
00000101
00000000
00001100
00000000
,  // measure 61
00201000
00000000
02300000
10000000
20000000
00000000
03000000
00000000
,  // measure 62
30010000
00010000
00000000
00000000
00100000
00100000
01000000
01000000
,  // measure 63
10000000
01000000
00000000
10000000
01000000
00000000
00100000
00010000
00000000
10000000
00100000
00000000
10000000
00100000
00010000
00000000
,  // measure 64
00001000
00010000
00000000
00001000
00010000
00000000
00000100
00001000
00000000
00000010
00001000
00000000
00000001
00001000
00000001
00000000
,  // measure 65
00000010
00001000
00000000
00000010
00001000
00000000
00000010
00000100
00000000
00000010
00000001
00000000
00001000
00000100
00001000
00000000
,  // measure 66
00000001
00000001
00000010
00000010
00001000
00001000
00010000
01000000
;
