#TITLE:BROKEN MY HEART;
#SUBTITLE:(Cusimo & Co. Starlite Remix);
#ARTIST:NAOKI feat. PAULA TERRY;
#TITLETRANSLIT:;
#SUBTITLETRANSLIT:;
#ARTISTTRANSLIT:;
#CREDIT:;
#BANNER:BROKEN MY HEART (Cusimo & Co Starlite Remix).png;
#BACKGROUND:BROKEN MY HEART (Cusimo & Co Starlite Remix)-bg.png;
#LYRICSPATH:;
#CDTITLE:./CDTITLES/Song Pack 16.png;
#MUSIC:BROKEN MY HEART (Cusimo & Co Starlite Remix).ogg;
#OFFSET:0.000;
#SAMPLESTART:38.120;
#SAMPLELENGTH:15.000;
#SELECTABLE:YES;
#DISPLAYBPM:140.000;
#BPMS:0.000=140.003;
#STOPS:;
#BGCHANGES:;

//---------------dance-single - ----------------
#NOTES:
     dance-single:
     :
     Beginner:
     2:
     0.135,0.192,0.009,0.026,0.000:
0000
0000
0000
0000
,
0000
0000
0000
0000
,
0000
0000
0000
0000
,
0000
0000
0000
0000
,
0000
0000
0000
0000
,
1000
0000
0000
0000
,
0001
0000
1000
0000
,
0010
0000
0000
0000
,
0100
0000
0000
0000
,
0100
0000
0000
0000
,
0001
0000
0000
0000
,
1000
0000
0000
0000
,
0100
0000
0000
0000
,
0010
0000
0000
0000
,
0010
0000
0000
0000
,
1000
0000
0001
0000
,
1000
0000
0001
0000
,
1000
0000
0010
0000
,
1000
0000
0010
0000
,
0100
0000
0001
0000
,
0100
0000
0001
0000
,
1000
1000
1000
1000
,
1000
0000
0000
0000
,
0001
0000
1000
0000
,
0010
0000
1000
0000
,
0100
0000
0010
0000
,
0100
0000
1000
0000
,
0001
0000
0000
0000
,
1000
0000
0000
0000
,
0001
0001
0001
0000
,
1000
1000
1000
0000
,
0020
0000
0000
0030
,
0000
0000
0000
0000
,
0200
0000
0000
0300
,
0000
0000
0000
0000
,
0010
0010
0010
0010
,
0010
0000
0010
0000
,
2000
0000
0000
3000
,
0000
0000
0000
0000
,
0001
0000
0001
0000
,
1000
0000
1000
0000
,
0100
0000
0100
0000
,
0010
0000
0010
0000
,
1000
0000
0001
0000
,
1000
0000
0001
0000
,
0100
0000
0001
0000
,
0100
0000
0000
0000
,
0010
0010
0010
0000
,
1000
0000
1000
0000
,
0001
0001
0001
0000
,
0100
0000
0100
0000
,
1000
0000
0000
0000
,
0001
0000
0000
0000
,
0100
0100
0100
0000
,
0100
0100
0100
0100
,
0100
0000
0010
0000
,
0100
0000
0010
0000
,
0100
0000
0010
0000
,
1000
0000
0010
0000
,
0001
0001
0001
0000
,
1000
1000
1000
0000
,
0001
0000
0000
0000
,
1000
0000
0000
0000
,
1001
0000
0000
0000
;

//---------------dance-single - ----------------
#NOTES:
     dance-single:
     :
     Easy:
     3:
     0.259,0.285,0.079,0.035,0.000:
0000
0000
0000
0000
,
0000
0000
0000
0000
,
0000
0000
0000
0000
,
0000
0000
0000
0000
,
0000
0001
0100
0010
,
1000
0000
0000
0000
,
0001
1000
0001
1000
,
0010
0000
0010
0100
,
0001
1000
0001
1000
,
0010
0000
0100
0001
,
0100
0010
1000
0100
,
0010
0000
0001
1000
,
0100
1000
0010
0100
,
0010
0100
0001
1000
,
0001
0100
0001
0010
,
0100
0000
1000
0000
,
0010
0100
0001
0010
,
0010
0010
0001
0001
,
0100
0100
0010
0010
,
1000
0000
0001
0000
,
1000
0001
1000
0001
,
0100
0001
1000
0001
,
1001
0010
0010
0010
,
0100
0000
0010
0000
,
1000
0100
0010
0001
,
0010
0100
1000
0010
,
0001
0010
1000
0010
,
0001
0000
1000
0000
,
0010
1000
0010
1000
,
0100
0000
0100
0000
,
0100
0100
0010
0010
,
0110
0000
0000
0000
,
1000
1000
0001
0001
,
0110
0000
0110
0000
,
0110
0000
0110
0000
,
1000
1000
1000
1000
,
0001
0001
0001
0001
,
0200
0000
0000
0300
,
0020
0000
0000
0030
,
1000
0001
0100
0001
,
0010
0001
1000
0100
,
1000
0010
0001
0010
,
1000
0100
1000
0100
,
0010
0000
0010
0000
,
0010
0010
0100
0100
,
0001
1000
0001
1000
,
1001
0010
0010
0010
,
0100
0000
1000
0000
,
0001
0001
1000
0001
,
1000
1000
0010
1000
,
0100
0010
0001
0010
,
0100
0000
1000
0000
,
0010
0100
0001
0100
,
0001
0000
1000
0000
,
0001
1000
0001
1000
,
1001
0010
0010
0010
,
1000
0000
0001
0000
,
1000
0010
0100
0001
,
1000
0001
0010
0100
,
1000
0000
0010
0000
,
0100
0100
0001
0001
,
0010
0100
1000
0100
,
0010
0001
1000
0001
,
0220
0000
0000
0000
,
0000
0000
0000
0000
,
0000
0330
0000
0000
;

//---------------dance-single - ----------------
#NOTES:
     dance-single:
     :
     Medium:
     5:
     0.289,0.313,0.035,0.087,0.000:
0000
0000
0000
0000
,
0000
0000
0000
0000
,
0000
0000
0000
0000
,
0000
0000
0000
0000
,
0000
0000
0001
0000
1000
0001
1000
0000
,
0020
0000
0130
0000
,
0001
0010
0100
1000
,
0010
0000
0000
0000
0000
0000
1000
0001
,
0100
0010
0001
0000
,
1000
0000
0000
0000
0000
0100
0010
0001
,
0010
0100
1000
0000
,
0010
0000
0000
0000
1000
0000
0100
0010
,
0100
1000
0010
0000
0100
0001
0100
1000
,
0000
0000
0000
0000
0000
0000
0000
0010
,
1000
0000
0001
0010
0000
0100
0000
0000
,
0001
0010
0000
0010
0000
0001
0000
0001
,
0000
1000
0000
1000
0000
0010
0100
0010
,
0000
0100
0000
0100
0000
0010
0000
1000
,
0000
0100
0000
0010
0000
0001
0000
0010
,
0001
0100
0010
1000
,
0001
0000
1000
0000
0100
0000
0010
0001
,
0000
1000
0000
0010
0000
0100
0000
0001
,
0010
0010
0010
0000
,
0011
1000
0010
0100
,
1000
0100
0001
0100
,
1000
0010
1000
0000
0001
1000
0001
0000
,
1000
0000
0000
0010
0001
1000
0100
1000
,
0020
0000
0000
0000
,
1030
0000
0000
0000
0000
0010
0001
0000
,
0100
0000
0010
1000
0000
0000
0010
0000
,
0100
0010
0000
0001
0000
0001
1000
0100
,
0020
0000
0000
0030
,
2000
0000
0000
0000
0000
0000
3000
0001
,
0200
0000
0000
0300
,
0002
0000
0000
0003
,
1000
0100
0001
0010
,
0001
0100
1000
0010
,
0200
0000
0000
0000
,
0000
0000
0300
0000
,
0001
0000
0000
0020
0000
0000
0000
0000
,
0130
0000
0000
0000
0000
1000
0010
0000
,
1000
0100
0001
0000
,
0100
0000
0010
0000
1000
0100
0010
0001
,
0010
0100
0010
0100
,
0010
0000
0000
0000
0000
1000
0100
0010
,
0000
0001
0000
0010
0000
1000
0000
0010
,
0000
1000
0001
0000
,
0011
0010
1000
0100
,
0001
0010
0001
0100
,
1000
0010
0100
0001
,
0010
0000
0000
0000
1000
0100
0010
0001
,
0020
0000
0000
0000
0000
0000
0130
0010
,
0000
0000
0000
0110
,
0001
0100
0010
1000
0000
0000
0100
0010
,
0001
0010
0001
0000
1000
0000
0001
0000
,
1100
0000
0100
0000
0001
0000
0010
1000
,
0000
0000
0100
0000
0010
0000
0001
0100
,
0010
0000
1000
0000
0100
0000
0010
0001
,
0000
0000
0000
0000
1000
0100
0010
0001
,
0010
0001
0010
0001
,
0100
0000
0000
0000
,
0010
1000
0100
0010
0000
0000
0001
0010
,
0100
1000
0000
0010
1000
0001
0100
0001
,
0000
0020
0000
0000
0000
0000
0000
0000
,
0000
0000
0000
0000
,
0000
0030
0000
0000
;

//---------------dance-single - ----------------
#NOTES:
     dance-single:
     :
     Hard:
     9:
     0.583,0.598,0.689,0.105,0.122:
0000
0000
0000
0000
,
0000
0000
0000
0000
,
0000
0000
0000
0000
,
0000
0000
0000
0000
,
0000
0000
0000
0000
,
0101
0000
1100
0000
,
0001
0000
1000
0000
0001
1000
0100
0010
,
0001
0000
1000
0000
0010
0000
0100
0000
0001
0010
0001
0000
1000
0000
0000
0000
,
0100
0000
0010
0000
1000
0000
0010
0000
0001
0100
0001
0000
1000
0000
0000
0000
,
0010
0000
1000
0000
0100
0000
0001
0000
0100
0010
0100
0000
1000
0000
0000
0000
,
0001
0000
1000
0000
0010
0000
0100
0000
0001
0010
0001
0000
1000
0000
0000
0000
,
0010
0000
0100
0000
0010
0000
1000
0000
0001
0100
0010
0000
1000
0000
0000
0000
,
0100
0000
0010
0000
0001
0000
1000
0000
0010
0100
0001
0000
0010
0000
0000
0000
,
0100
0000
1000
0000
0001
0000
1000
0000
0100
0010
0001
0000
1000
0000
0000
0000
,
0010
0000
1000
0000
0100
0000
0001
0000
0100
1000
0010
0000
0100
0000
0000
0000
,
0001
0010
0100
1000
0010
1000
0100
0010
,
0001
0100
0010
0001
0010
1000
0100
0010
,
0001
0100
0001
0010
0100
1000
0001
1000
,
0100
0010
0100
1000
0010
0100
0001
0000
,
1010
1010
1001
0101
,
0011
0011
1001
1100
,
0001
0010
0100
1000
0001
0010
0100
1000
,
0001
0000
0000
0000
0000
0010
0000
0000
0000
0000
0100
0000
0000
0000
0000
0000
1000
0000
0000
0000
0000
0001
0000
0000
0000
0000
0010
0000
0000
0000
0000
0000
0100
0000
0000
0000
0000
1000
0000
0000
0000
0000
0001
0000
0000
0000
0000
0000
1000
0000
0000
0000
0000
0000
0000
0000
0001
0000
0000
0000
1000
0000
0000
0000
,
0001
0000
0010
0001
0100
1000
0100
0101
,
0000
0000
0010
1000
0100
0001
0100
1100
,
0000
0000
0001
0010
1000
0010
0001
1100
,
0000
1100
0000
1100
0100
0010
0001
1000
,
1010
1010
1001
0101
,
0011
0011
1001
1100
,
0001
0100
0010
1000
0001
0100
0010
1000
,
0001
0000
0000
0000
0000
0100
0000
0000
0000
0000
0010
0000
0000
0000
0000
0000
1000
0000
0000
0000
0000
0001
0000
0000
0000
0000
0100
0000
0000
0000
0000
0000
0010
0000
0000
0000
1000
0000
0000
0000
0010
0000
0000
0000
0000
0000
0000
0000
0100
0000
0000
0000
0000
0000
0000
0000
0001
0000
0000
0000
2000
0000
0000
0000
,
0001
0001
0001
3001
,
0102
0000
1000
0000
1000
1000
1003
0000
,
1100
1100
0101
0101
,
0011
0011
1010
1010
,
1001
0100
0001
0010
1001
0100
1000
0010
,
1001
0000
0110
0000
1001
0100
0010
0100
,
0220
0000
0000
0000
0000
0030
0000
0302
,
0000
0000
0000
2003
0000
0000
3000
0000
,
1000
0000
0100
0000
0001
0000
0100
0000
1000
0010
1000
0000
0001
0000
0000
0000
,
1000
0000
0010
0000
0001
0000
0010
0000
1000
0100
1000
0000
0001
0000
0000
0000
,
0010
0000
0001
0000
1000
0000
0100
0000
0001
0100
1000
0000
0010
0000
0000
0000
,
0100
0000
0001
0000
1000
0000
0010
0000
0001
0010
1000
0000
0001
0000
0000
0000
,
1100
1100
0101
0101
,
1010
0000
0011
0000
1010
0000
0011
0100
,
1000
0010
0110
0100
0001
1000
1001
0001
,
0110
1000
1100
0001
0101
1000
1001
0001
,
0110
0000
1000
0010
0100
0001
1000
0011
,
0000
0100
0001
0010
0100
1000
0010
0101
,
0000
1000
0010
0100
0001
0010
0100
1001
,
0000
1001
0000
1001
0100
0010
0001
0100
,
1000
0100
0010
0100
0001
0100
0010
0100
,
1000
0100
0001
0010
0100
1000
0001
0000
,
1000
0000
0100
0000
1000
0000
0001
0000
0000
0000
0100
0001
0100
0000
0001
0000
,
1000
0100
0110
0000
1001
0000
1100
0101
,
1000
0000
0200
0000
0310
0000
0011
1001
,
0000
0000
0020
0000
0130
0000
1010
1001
,
0000
0000
0002
0000
0103
0000
1010
1001
,
0000
1100
0000
1001
0100
0010
0001
1000
,
1001
1100
1001
0101
,
1001
0000
1010
0000
1001
0000
0011
0100
,
1000
0010
1000
0000
0001
0000
0200
0000
0000
0000
0301
0000
0010
0001
0010
0000
,
0100
1000
0010
0100
1000
0100
0001
0010
,
2002
0000
0000
0000
,
0000
0000
0000
0000
,
0000
3003
0000
0000
;

//---------------dance-double - ----------------
#NOTES:
     dance-double:
     :
     Beginner:
     2:
     0.135,0.192,0.009,0.026,0.000:
00000000
00000000
00000000
00000000
,
00000000
00000000
00000000
00000000
,
00000000
00000000
00000000
00000000
,
00000000
00000000
00000000
00000000
,
00000000
00000000
00000000
00000000
,
00001000
00000000
00000000
00000000
,
00000100
00000000
00000001
00000000
,
00001000
00000000
00000000
00000000
,
00000100
00000000
00000000
00000000
,
00010000
00000000
00000000
00000000
,
00001000
00000000
00000000
00000000
,
00100000
00000000
00000000
00000000
,
00010000
00000000
00000000
00000000
,
10000000
00000000
00000000
00000000
,
10000000
00000000
00000000
00000000
,
00100000
00000000
01000000
00000000
,
00010000
00000000
00100000
00000000
,
00001000
00000000
00010000
00000000
,
00000100
00000000
00000010
00000000
,
00001000
00000000
00000010
00000000
,
00000100
00000000
00000001
00000000
,
00001000
00001000
00001000
00001000
,
00001000
00000000
00000000
00000000
,
00000010
00000000
00010000
00000000
,
00001000
00000000
00100000
00000000
,
00010000
00000000
01000000
00000000
,
00100000
00000000
01000000
00000000
,
10000000
00000000
00000000
00000000
,
00010000
00000000
00000000
00000000
,
00100000
00100000
00100000
00000000
,
00001000
00001000
00001000
00000000
,
00020000
00000000
00000000
00030000
,
00000000
00000000
00000000
00000000
,
00000200
00000000
00000000
00000300
,
00000000
00000000
00000000
00000000
,
00000010
00000010
00000010
00000010
,
00000010
00000000
00000010
00000000
,
00002000
00000000
00000000
00003000
,
00000000
00000000
00000000
00000000
,
00000001
00000000
00000001
00000000
,
00000010
00000000
00000010
00000000
,
00001000
00000000
00001000
00000000
,
00000100
00000000
00000100
00000000
,
00010000
00000000
00001000
00000000
,
00100000
00000000
00010000
00000000
,
10000000
00000000
00100000
00000000
,
10000000
00000000
00000000
00000000
,
00010000
00010000
00010000
00000000
,
01000000
00000000
01000000
00000000
,
00001000
00001000
00001000
00000000
,
00010000
00000000
00010000
00000000
,
00000100
00000000
00000000
00000000
,
00001000
00000000
00000000
00000000
,
00000010
00000010
00000010
00000000
,
00000010
00000010
00000010
00000010
,
00000010
00000000
00000001
00000000
,
00001000
00000000
00000100
00000000
,
00010000
00000000
00001000
00000000
,
00100000
00000000
01000000
00000000
,
10000000
10000000
10000000
00000000
,
00010000
00010000
00010000
00000000
,
01000000
00000000
00000000
00000000
,
00001000
00000000
00000000
00000000
,
00011000
00000000
00000000
00000000
;

//---------------dance-double - ----------------
#NOTES:
     dance-double:
     :
     Easy:
     3:
     0.259,0.285,0.079,0.035,0.000:
00000000
00000000
00000000
00000000
,
00000000
00000000
00000000
00000000
,
00000000
00000000
00000000
00000000
,
00000000
00000000
00000000
00000000
,
00000000
00000010
00001000
00000100
,
00010000
00000000
00000000
00000000
,
00001000
00010000
00001000
00010000
,
01000000
00000000
00010000
00001000
,
00000100
00000010
00000100
00000010
,
00001000
00000000
00000100
00000010
,
00000001
00000100
00001000
01000000
,
00100000
00000000
10000000
00010000
,
00100000
00010000
10000000
01000000
,
10000000
01000000
00100000
00010000
,
00000010
00000100
00000001
00001000
,
00000010
00000000
00000100
00000000
,
00000001
00001000
00000100
00010000
,
00010000
00010000
00001000
00001000
,
00100000
00100000
01000000
01000000
,
10000000
00000000
00100000
00000000
,
01000000
00001000
00010000
00001000
,
00100000
00010000
00001000
00010000
,
00011000
00000100
00000100
00000100
,
00001000
00000000
00000010
00000000
,
00000010
00001000
00000100
00000010
,
00000001
00000100
00000010
00010000
,
00001000
01000000
00100000
10000000
,
01000000
00000000
00100000
00000000
,
10000000
00010000
10000000
00010000
,
00100000
00000000
00001000
00000000
,
00010000
00010000
00001000
00001000
,
00011000
00000000
00000000
00000000
,
00000100
00000100
00000010
00000010
,
00001001
00000000
00001001
00000000
,
00001001
00000000
00001001
00000000
,
00000010
00000010
00000010
00000010
,
00001000
00001000
00001000
00001000
,
00000200
00000000
00000000
00000300
,
00020000
00000000
00000000
00030000
,
00001000
01000000
00100000
10000000
,
01000000
10000000
00100000
01000000
,
00100000
00010000
10000000
00010000
,
00100000
00001000
00100000
00001000
,
00010000
00000000
00010000
00000000
,
00000100
00000100
00000010
00000010
,
00001000
00000001
00001000
00000001
,
00001001
00000100
00000100
00000100
,
00000001
00000000
00001000
00000000
,
00000100
00000100
00000010
00000100
,
00010000
00010000
00001000
01000000
,
00100000
10000000
01000000
00100000
,
00010000
00100000
00000000
00000000
,
01000000
10000000
00010000
10000000
,
00100000
00000000
01000000
00000000
,
00001000
00010000
00001000
00010000
,
00011000
01000000
01000000
01000000
,
00010000
00000000
00100000
00000000
,
00001000
00010000
00000100
00000010
,
00000001
00001000
00000100
00000010
,
00000001
00000000
00000100
00000000
,
00000010
00000010
00001000
00001000
,
00000001
00000100
00001000
00010000
,
00100000
10000000
00010000
10000000
,
20020000
00000000
00000000
00000000
,
00000000
00000000
00000000
00000000
,
00000000
30030000
00000000
00000000
;

//---------------dance-double - ----------------
#NOTES:
     dance-double:
     :
     Medium:
     5:
     0.289,0.313,0.035,0.087,0.000:
00000000
00000000
00000000
00000000
,
00000000
00000000
00000000
00000000
,
00000000
00000000
00000000
00000000
,
00000000
00000000
00000000
00000000
,
00000000
00000000
00000010
00000000
00000100
00000010
00000100
00000000
,
00000002
00000000
00001003
00000000
,
00000001
00000100
00001000
00010000
,
00100000
00000000
00000000
00000000
00000000
00000000
01000000
00010000
,
00100000
01000000
10000000
00000000
,
00010000
00000000
00000000
00000000
00000000
10000000
00100000
01000000
,
00010000
10000000
01000000
00000000
,
00010000
00000000
00000000
00000000
00100000
00000000
00001000
00010000
,
00001000
00000100
00000010
00000000
00000001
00000010
00000100
00001000
,
00000000
00000000
00000000
00000000
00000000
00000000
00000000
00000001
,
00000100
00000000
00000001
00000010
00000000
00000100
00000000
00000000
,
00001000
00000100
00000000
00010000
00000000
00001000
00000000
00001000
,
00000000
00100000
00000000
00100000
00000000
00010000
01000000
00010000
,
00000000
10000000
00000000
10000000
00000000
01000000
00000000
00010000
,
00000000
01000000
00000000
10000000
00000000
00100000
00000000
01000000
,
00010000
00100000
00001000
00010000
,
00000100
00000000
00000010
00000000
00000001
00000000
00000010
00000100
,
00000000
00000010
00000000
00000001
00000000
00000100
00000000
00000010
,
00001000
00001000
00001000
00000000
,
00011000
00001000
01000000
00100000
,
10000000
00010000
00100000
01000000
,
10000000
00010000
10000000
00000000
00100000
10000000
00100000
00000000
,
01000000
00000000
00000000
00001000
00010000
00001000
00010000
00001000
,
00020000
00000000
00000000
00000000
,
00030100
00000000
00000000
00000000
00000000
00001000
00000010
00000000
,
00000100
00000000
00000001
00001000
00000000
00000000
00000001
00000000
,
00000100
00000010
00000000
00001000
00000000
00001000
00000010
00000100
,
00000002
00000000
00000000
00000003
,
00002000
00000000
00000000
00000000
00000000
00000000
00003000
00000100
,
00020000
00000000
00000000
00030000
,
00002000
00000000
00000000
00003000
,
00100000
00010000
01000000
00100000
,
10000000
01000000
10000000
00100000
,
00020000
00000000
00000000
00000000
,
00000000
00000000
00030000
00000000
,
10000000
00000000
00000000
02000000
00000000
00000000
00000000
00000000
,
03100000
00000000
00000000
00000000
00000000
00001000
00010000
00000000
,
00001000
00000100
00000010
00000000
,
00001000
00000000
00000100
00000000
00000010
00000001
00000010
00000100
,
00000010
00001000
00000001
00001000
,
00000001
00000000
00000000
00000000
00000000
00000001
00000100
00001000
,
00000000
00000010
00000000
00010000
00000000
00001000
00000000
00100000
,
00000000
01000000
00100000
00000000
,
10100000
00010000
01000000
00100000
,
10000000
01000000
10000000
00010000
,
00100000
00010000
01000000
00100000
,
01000000
00000000
00000000
00000000
00001000
00010000
00001000
00010000
,
00002000
00000000
00000000
00000000
00000000
00000000
00013000
00000100
,
00000000
00000000
00000000
00011000
,
00001000
00000100
00000010
00001000
00000000
00000000
00000100
00000010
,
00000001
00000010
00000001
00000000
00001000
00000000
00000010
00000000
,
00001100
00000000
00000001
00000000
00000100
00000000
00000010
00001000
,
00000000
00000000
00000100
00000000
00010000
00000000
00001000
00010000
,
01000000
00000000
00100000
00000000
00010000
00000000
01000000
00100000
,
00000000
00000000
00000000
00000000
01000000
00100000
01000000
00010000
,
00100000
01000000
00100000
01000000
,
10000000
00000000
00000000
00000000
,
00010000
00100000
00001000
00010000
00000000
00000000
00000100
00000010
,
00000001
00000010
00000000
00000100
00001000
00000001
00001000
00000010
,
00000000
00000200
00000000
00000000
00000000
00000000
00000000
00000000
,
00000000
00000000
00000000
00000000
,
00000000
00000300
00000000
00000000
;

//---------------dance-double - ----------------
#NOTES:
     dance-double:
     :
     Hard:
     9:
     0.528,0.569,0.201,0.113,0.214: // measure 1
00000000
00000000
00000000
00000000
,  // measure 2
00000000
00000000
00000000
00000000
,  // measure 3
00000000
00000000
00000000
00000000
,  // measure 4
00000000
00000000
00000000
00000000
,  // measure 5
00000000
00000000
00000000
00000000
,  // measure 6
10010000
00000000
00101000
00000000
,  // measure 7
00011000
00000000
00000000
00000000
00010010
00000000
00000000
00000000
00000010
00001000
00000010
00001000
00000100
00000000
00000000
00000000
,  // measure 8
00000010
00001000
00000100
00010000
00001000
01000000
00100000
00000000
,  // measure 9
10000000
00100000
01000000
00010000
00100000
01000000
10000000
00000000
,  // measure 10
00010000
01000000
00100000
00010000
00001000
00000100
00000010
00000000
,  // measure 11
00001000
00000000
00000000
00000010
00000000
00000000
00000100
00000000
00000000
00000000
00000001
00000000
00001000
00000000
00000001
00000000
,  // measure 12
00000010
00000100
00001000
00000001
00000100
00001000
00010000
00000000
,  // measure 13
00001000
01000000
00010000
00100000
01000000
10000000
00100000
00000000
,  // measure 14
01000000
00010000
01000000
00000000
00100000
10000000
00100000
00000000
,  // measure 15
10000000
00000000
01000000
00000000
00010000
00000000
00001000
00000000
00000100
00000001
00000100
00000000
00000010
00001000
00000010
00000000
,  // measure 16
00001000
00000000
00000001
00000100
00000000
00001000
00010000
00100000
,  // measure 17
10000000
00100000
01000000
00010000
00000000
00100000
01000000
00100000
,  // measure 18
00010000
10000000
01000000
00010000
00000000
00001000
00000100
00000001
,  // measure 19
00000100
00000010
00001000
00000010
00000100
00000001
00001000
00000000
,  // measure 20
00000101
00000000
00000000
00000001
00000100
00000000
00000000
00000100
00000010
00000000
00000000
00000010
00001000
00000000
00000000
00001000
,  // measure 21
00000100
00000000
00000000
00000100
00010000
00000000
00000000
00010000
00001000
00000000
00000000
00001000
00100000
00000000
00010000
00000000
,  // measure 22
01000000
00100000
10000000
00100000
01000000
00010000
00100000
00001000
,  // measure 23
00010000
00000000
00000000
00000000
00000000
00000100
00000000
00000000
00000000
00000000
00001000
00000000
00000000
00000000
00000000
00000000
00000010
00000000
00000000
00000000
00000000
00001000
00000000
00000000
00000000
00000000
00000001
00000000
00000000
00000000
00000000
00000000
00000100
00000000
00000000
00000000
00000000
00000001
00000000
00000000
00000000
00000000
00001000
00000000
00000000
00000000
00000000
00000000
00000100
00000000
00000000
00000000
00000000
00000000
00000000
00000000
00010000
00000000
00000000
00000000
00001000
00000000
00000000
00000000
,  // measure 24
00010000
00000000
00001000
00000000
00100000
00010000
10000000
01000000
,  // measure 25
00100000
00000000
00001000
00000000
00010000
00000010
00000100
00000001
,  // measure 26
00001000
00000000
00000100
00010000
00001000
00010000
00001000
00100000
,  // measure 27
00000000
00010000
00000000
10000000
01000000
00100000
00010000
10000000
,  // measure 28
10100000
00000000
00000000
10000000
00100000
00000000
00000000
00100000
01000000
00000000
00000000
01000000
00010000
00000000
00000000
00010000
,  // measure 29
00100000
00000000
00000000
00100000
00001000
00000000
00000000
00001000
00010000
00000000
00000000
00010000
00000010
00000000
00001000
00000000
,  // measure 30
00000100
00000010
00000001
00000010
00000100
00001000
00000010
00010000
,  // measure 31
00001000
00000000
00000000
00000000
00000000
01000000
00000000
00000000
00000000
00000000
00010000
00000000
00000000
00000000
00000000
00000000
00100000
00000000
00000000
00000000
00000000
00010000
00000000
00000000
00000000
00000000
10000000
00000000
00000000
00000000
00000000
00000000
01000000
00000000
00000000
00000000
00000000
10000000
00000000
00000000
00000000
00000000
00010000
00000000
00000000
00000000
00000000
00000000
01000000
00000000
00000000
00000000
00000000
00000000
00000000
00000000
00001000
00000000
00000000
00000000
00010000
00000000
00000000
00000000
,  // measure 32
00001000
00011000
00010100
00011000
,  // measure 33
00000010
00001000
00000000
00000000
00001100
00000000
00000000
00000000
00000010
00000000
00000010
00000000
00000010
00000000
00000000
00000000
,  // measure 34
00000001
00000100
00000000
00000000
00000110
00000000
00000000
00001000
00000100
00000000
00000100
00000000
00010000
00001000
00000000
00001000
,  // measure 35
00100000
00000000
00000000
00000000
00110000
00000000
00000000
00000000
00010000
01000000
00000000
00000000
00100000
00000000
10000000
00000000
,  // measure 36
10100000
01000000
00010000
10000000
10010000
01000000
00010000
00001000
,  // measure 37
00011000
00000000
00010010
00000000
00001010
00000000
00000110
00000100
,  // measure 38
00000220
00000000
00000000
00000000
00000000
00000000
00000030
00000302
,  // measure 39
00000000
00000000
00000000
00002003
00000000
00000000
00000000
00003000
,  // measure 40
00000001
00000010
00000001
00000100
00000001
00000001
00001000
00000000
,  // measure 41
00000100
00010000
00001000
00100000
00001000
00001000
00010000
00000000
,  // measure 42
00100000
01000000
00010000
01000000
00100000
10000000
00100000
00100000
,  // measure 43
01000000
00000000
00010000
00000000
00100000
00010000
01000000
00001000
,  // measure 44
00010000
00000000
00000010
00001000
00000000
00001000
00000100
00000010
,  // measure 45
00000100
00001000
00000001
00000100
00000000
00001000
00010000
01000000
,  // measure 46
00100000
00100000
00100000
00100000
01000000
01000000
01000000
01000000
,  // measure 47
00010000
00000000
00000000
00000000
00000000
01000000
00000000
00000000
00000000
00000000
00010000
00000000
00000000
00000000
00000000
00000000
00100000
00000000
00000000
00000000
00000000
00010000
00000000
00000000
00000000
00000000
10000000
00000000
00000000
00000000
00000000
00000000
01000000
00000000
00000000
00000000
00000000
10000000
00000000
00000000
00000000
00000000
00010000
00000000
00000000
00000000
00000000
00000000
01000000
00000000
00000000
00000000
00000000
00000000
00000000
00000000
00001000
00000000
00000000
00000000
00010000
00000000
00000000
00000000
,  // measure 48
00001000
00000000
00020000
00000000
00030020
00000000
00001030
00000200
,  // measure 49
00000000
00000000
00001300
00000000
00000001
00000000
00000100
00002000
,  // measure 50
00000000
00023000
00001000
00000000
00032000
00000000
00100000
00203000
,  // measure 51
00000000
00000000
00310000
00000000
00010000
01000000
00100000
10000000
,  // measure 52
10000000
00000000
01010000
00000000
00010000
00001000
00010000
00000000
,  // measure 53
00000100
00000000
00000110
00000000
00000001
00001000
00000001
00000000
,  // measure 54
00001000
00000000
00000100
00000000
00001000
00000000
00000100
00000000
00010000
00001000
00000000
00001000
00010000
00000000
00010000
00001000
,  // measure 55
00000000
00001000
00100000
00010000
00100000
01000000
10000000
00100000
,  // measure 56
01000000
00000000
01010000
00000000
00100000
10000000
01000000
00010000
,  // measure 57
00001000
00000000
00010000
00000000
00000010
00001000
00000001
00000100
,  // measure 58
00001000
00000000
00010000
00000000
00001000
00100000
00010000
01000000
,  // measure 59
00100000
00000000
10000000
00000000
00010000
01000000
00001000
00010000
,  // measure 60
00000010
00001000
00000001
00000100
,  // measure 61
00001000
00000000
00100000
00000000
00010000
00010000
00010000
00000000
,  // measure 62
10000000
01000000
00100000
00010000
00010000
01000000
00100000
10000000
,  // measure 63
10000000
01000000
00010000
00001000
00000100
00000001
00001000
00000001
,  // measure 64
00002002
00000000
00000000
00000000
,  // measure 65
00000000
00000000
00000000
00000000
,  // measure 66
00000000
00003003
00000000
00000000
;

//---------------dance-double - ----------------
#NOTES:
     dance-double:
     :
     Challenge:
     9:
     0.546,0.569,0.201,0.113,0.244: // measure 1
00000000
00000000
00000000
00000000
,  // measure 2
00000000
00000000
00000000
00000000
,  // measure 3
00000000
00000000
00000000
00000000
,  // measure 4
00000000
00000000
00000000
00000000
,  // measure 5
00000000
00000000
00000000
00000000
,  // measure 6
10010000
00000000
00101000
00000000
,  // measure 7
00011000
00000000
00000000
00000000
00010010
00000000
00000000
00000000
00000010
00001000
00000010
00001000
00000100
00000000
00000000
00000000
,  // measure 8
00000010
00001000
00000100
00010000
00001000
01000000
00100000
00000000
,  // measure 9
10000000
00100000
01000000
00010000
00100000
01000000
10000000
00000000
,  // measure 10
00010000
01000000
00100000
00010000
00001000
00000100
00000010
00000000
,  // measure 11
00001000
00000000
00000000
00000010
00000000
00000000
00000100
00000000
00000000
00000000
00000001
00000000
00001000
00000000
00000001
00000000
,  // measure 12
00000010
00000100
00001000
00000001
00000100
00001000
00010000
00000000
,  // measure 13
00001000
01000000
00010000
00100000
01000000
10000000
00100000
00000000
,  // measure 14
01000000
00010000
01000000
00000000
00100000
10000000
00100000
00000000
,  // measure 15
10000000
00000000
01000000
00000000
00010000
00000000
00001000
00000000
00000100
00000001
00000100
00000000
00000010
00001000
00000010
00000000
,  // measure 16
00001000
00000000
00000001
00000100
00000000
00001000
00010000
00100000
,  // measure 17
10000000
00100000
01000000
00010000
00000000
00100000
01000000
00100000
,  // measure 18
00010000
10000000
01000000
00010000
00000000
00001000
00000100
00000001
,  // measure 19
00000100
00000010
00001000
00000010
00000100
00000001
00001000
00000000
,  // measure 20
00000101
00000000
00000000
00000001
00000100
00000000
00000000
00000100
00000010
00000000
00000000
00000010
00001000
00000000
00000000
00001000
,  // measure 21
00000100
00000000
00000000
00000100
00010000
00000000
00000000
00010000
00001000
00000000
00000000
00001000
00100000
00000000
00010000
00000000
,  // measure 22
01000000
00100000
10000000
00100000
01000000
00010000
00100000
00001000
,  // measure 23
00010000
00000000
00000000
00000000
00000000
00000100
00000000
00000000
00000000
00000000
00001000
00000000
00000000
00000000
00000000
00000000
00000010
00000000
00000000
00000000
00000000
00001000
00000000
00000000
00000000
00000000
00000001
00000000
00000000
00000000
00000000
00000000
00000100
00000000
00000000
00000000
00000000
00000001
00000000
00000000
00000000
00000000
00001000
00000000
00000000
00000000
00000000
00000000
00000100
00000000
00000000
00000000
00000000
00000000
00000000
00000000
00010000
00000000
00000000
00000000
00001000
00000000
00000000
00000000
,  // measure 24
00010000
00000000
00001000
00000000
00100000
00010000
10000000
01000000
,  // measure 25
00100000
00000000
00001000
00000000
00010000
00000010
00000100
00000001
,  // measure 26
00001000
00000000
00000100
00010000
00001000
00010000
00001000
00100000
,  // measure 27
00000000
00010000
00000000
10000000
01000000
00100000
00010000
10000000
,  // measure 28
10100000
00000000
00000000
10000000
00100000
00000000
00000000
00100000
01000000
00000000
00000000
01000000
00010000
00000000
00000000
00010000
,  // measure 29
00100000
00000000
00000000
00100000
00001000
00000000
00000000
00001000
00010000
00000000
00000000
00010000
00000010
00000000
00001000
00000000
,  // measure 30
00000100
00000010
00000001
00000010
00000100
00001000
00000010
00010000
,  // measure 31
00001000
00000000
00000000
00000000
00000000
01000000
00000000
00000000
00000000
00000000
00010000
00000000
00000000
00000000
00000000
00000000
00100000
00000000
00000000
00000000
00000000
00010000
00000000
00000000
00000000
00000000
10000000
00000000
00000000
00000000
00000000
00000000
01000000
00000000
00000000
00000000
00000000
10000000
00000000
00000000
00000000
00000000
00010000
00000000
00000000
00000000
00000000
00000000
01000000
00000000
00000000
00000000
00000000
00000000
00000000
00000000
00001000
00000000
00000000
00000000
00010000
00000000
00000000
00000000
,  // measure 32
00001000
00011000
00010100
00011000
,  // measure 33
00000010
00001000
00000000
00000000
00001100
00000000
00000000
00000000
00000010
00000000
00000010
00000000
00000010
00000000
00000000
00000000
,  // measure 34
00000001
00000100
00000000
00000000
00000110
00000000
00000000
00001000
00000100
00000000
00000100
00000000
00010000
00001000
00000000
00001000
,  // measure 35
00100000
00000000
00000000
00000000
00110000
00000000
00000000
00000000
00010000
01000000
00000000
00000000
00100000
00000000
10000000
00000000
,  // measure 36
10100000
01000000
00010000
10000000
10010000
01000000
00010000
00001000
,  // measure 37
00011000
00000000
00010010
00000000
00001010
00000000
00000110
00000100
,  // measure 38
00000220
00000000
00000000
00000000
00000000
00000000
00000030
00000302
,  // measure 39
00000000
00000000
00000000
00002003
00000000
00000000
00000000
00003000
,  // measure 40
00000001
00000010
00000001
00000100
00000001
00000001
00001000
00001000
,  // measure 41
00000100
00010000
00001000
00100000
00001000
00001000
00010000
00010000
,  // measure 42
00100000
01000000
00010000
01000000
00100000
00100000
10000000
10000000
,  // measure 43
00100000
01000000
00010000
00100000
00010000
00010000
01000000
01000000
,  // measure 44
00001000
00010000
00000010
00001000
00000001
00000001
00001000
00001000
,  // measure 45
00000100
00000010
00000100
00001000
00000001
00000001
00000100
00000100
,  // measure 46
00001000
00001000
00010000
00010000
00100000
00100000
01000000
01000000
,  // measure 47
00010000
00000000
00000000
00000000
00000000
01000000
00000000
00000000
00000000
00000000
00010000
00000000
00000000
00000000
00000000
00000000
00100000
00000000
00000000
00000000
00000000
00010000
00000000
00000000
00000000
00000000
10000000
00000000
00000000
00000000
00000000
00000000
01000000
00000000
00000000
00000000
00000000
10000000
00000000
00000000
00000000
00000000
00010000
00000000
00000000
00000000
00000000
00000000
01000000
00000000
00000000
00000000
00000000
00000000
00000000
00000000
00001000
00000000
00000000
00000000
00010000
00000000
00000000
00000000
,  // measure 48
00001000
00000000
00020000
00000000
00030020
00000000
00001030
00000200
,  // measure 49
00000000
00000000
00001300
00000000
00000001
00000000
00000100
00002000
,  // measure 50
00000000
00023000
00001000
00000000
00032000
00000000
00100000
00203000
,  // measure 51
00000000
00000000
00310000
00000000
00010000
01000000
00100000
10000000
,  // measure 52
10000000
00000000
01010000
00000000
00010000
00001000
00010000
00000000
,  // measure 53
00000100
00000000
00000110
00000000
00000001
00001000
00000001
00000000
,  // measure 54
00001000
00000000
00000100
00000000
00001000
00000000
00000100
00000000
00010000
00001000
00000000
00001000
00010000
00000000
00010000
00001000
,  // measure 55
00000000
00001000
00100000
00010000
00100000
01000000
10000000
00100000
,  // measure 56
01000000
00000000
01010000
00000000
00100000
10000000
01000000
00010000
,  // measure 57
00001000
00000000
00010000
00000000
00000010
00001000
00000001
00000100
,  // measure 58
00001000
00000000
00010000
00000000
00001000
00100000
00010000
01000000
,  // measure 59
00100000
00000000
10000000
00000000
00010000
01000000
00001000
00010000
,  // measure 60
00000010
00000000
00000000
00000010
00001000
00000000
00000000
00001000
00000001
00000000
00000000
00000001
00000100
00000000
00000000
00000100
,  // measure 61
00001000
00000000
00000000
00001000
00100000
00000000
00000000
00100000
00010000
00000000
00000000
00010000
10000000
00000000
10000000
00000000
,  // measure 62
10000000
01000000
00100000
00010000
00010000
01000000
00100000
10000000
,  // measure 63
10000000
01000000
00010000
00001000
00000100
00000001
00001000
00000001
,  // measure 64
00002002
00000000
00000000
00000000
,  // measure 65
00000000
00000000
00000000
00000000
,  // measure 66
00000000
00003003
00000000
00000000
;
