#TITLE:Brazilian Anthem;
#SUBTITLE:;
#ARTIST:Berimbau '66;
#TITLETRANSLIT:;
#SUBTITLETRANSLIT:;
#ARTISTTRANSLIT:;
#CREDIT:;
#BANNER:Brazilian Anthem.png;
#BACKGROUND:Brazilian Anthem-bg.png;
#LYRICSPATH:;
#CDTITLE:Dance Dance Revolution Ultramix 3 Song Pack 13.png;
#MUSIC:Brazilian Anthem.ogg;
#OFFSET:0.000;
#SAMPLESTART:1.023;
#SAMPLELENGTH:15.000;
#SELECTABLE:YES;
#DISPLAYBPM:130.000;
#BPMS:0.000=130.435,4.000=129.993;
#STOPS:;
#BGCHANGES:;

//---------------dance-single - ----------------
#NOTES:
     dance-single:
     :
     Beginner:
     1:
     0.123,0.146,0.000,0.000,0.000:
0000
0000
0000
0000
,
0000
0000
0000
0000
,
0001
0000
0100
0000
,
0000
0000
0001
0000
,
1000
0000
1000
0000
,
0001
0000
0100
0100
,
0100
0000
0100
0000
,
0000
0000
0001
0000
,
0000
0000
1000
0000
,
1000
0000
0001
0000
,
0001
0000
0000
0000
,
0010
0000
0010
0000
,
0100
0000
0100
0000
,
1000
1000
1000
0000
,
1000
0000
0000
0000
,
0001
0000
0000
0000
,
1000
1000
0000
0000
,
0001
0001
0000
0000
,
0010
0010
0000
0000
,
0010
0000
0100
0000
,
0010
0000
0100
0000
,
1000
0000
1000
0000
,
0001
0000
0001
0000
,
0100
0000
0100
0000
,
0010
0000
0100
0000
,
0010
0000
0100
0000
,
0001
0000
0001
0001
,
0001
0000
0000
0000
,
1000
0000
1000
1000
,
1000
0000
0000
0000
,
0100
0000
0100
0100
,
0100
0000
0000
0000
,
1000
0000
0001
0000
,
1000
0000
0000
0000
,
0001
0000
0000
0000
,
1000
0000
0000
0000
,
0010
0010
0010
0000
,
1000
0000
0000
0000
,
0001
0001
0001
0000
,
0100
0000
0000
0000
,
0001
0000
0000
0000
,
1000
0000
0000
0000
,
0010
0000
0000
0000
,
0100
0000
0001
0001
,
0001
0000
1000
0000
,
1000
0000
0001
0001
,
0001
0000
1000
0000
,
1000
0000
0001
0000
;

//---------------dance-single - ----------------
#NOTES:
     dance-single:
     :
     Easy:
     4:
     0.273,0.296,0.215,0.112,0.000:
0000
0000
0000
0000
,
0000
0000
0000
0000
,
0010
0010
0110
0000
,
0000
0000
0001
1000
,
0001
0010
0001
1000
,
0100
1000
0020
0030
,
0010
1000
0100
1000
,
0100
0010
0001
0010
,
0002
0000
0103
0100
,
0110
0000
0001
0001
,
1001
0000
0000
0000
,
0001
1000
0010
0100
,
0001
0100
0001
1000
,
0001
0010
0100
0010
,
0100
1000
0100
1000
,
0001
0100
1001
0000
,
0001
0100
0001
0100
,
0010
1000
0010
1000
,
0100
0001
0010
1000
,
0100
1000
0100
0010
,
0001
0010
0100
0010
,
0001
1000
0100
0001
,
1000
0010
0100
0010
,
0001
0100
0010
1000
,
0001
0100
0001
0100
,
0010
1000
0100
0000
,
0110
0000
0100
0100
,
1001
0000
1000
0001
,
1001
0000
0010
0100
,
0110
0000
1000
1000
,
1001
0000
1000
0001
,
1001
0000
0010
0100
,
2000
0000
3010
0100
,
0002
0000
1003
0100
,
1000
0010
2000
0000
,
3001
0010
0100
1000
,
1001
1001
0110
0000
,
0001
0010
0100
1000
,
1001
1001
0110
0000
,
0002
0000
1003
0001
,
2000
0000
3001
1000
,
0002
0000
0013
0100
,
0020
0000
0130
0010
,
0110
0000
1000
0001
,
1000
0001
0100
0100
,
1001
0000
0010
0100
,
0010
0100
0001
1000
,
1001
1001
0220
0000
,
0000
0330
0000
0000
;

//---------------dance-single - ----------------
#NOTES:
     dance-single:
     :
     Medium:
     6:
     0.384,0.394,0.204,0.307,0.000:
0000
0000
0000
0000
,
0000
0000
0000
0000
,
0010
0001
0010
0000
1010
0000
0000
0000
,
0000
0000
0000
0000
1000
0010
1000
0001
,
1000
0002
2003
3020
,
0230
0000
0301
1000
0001
0000
0020
0000
,
0230
0000
1300
0001
1000
0000
0100
0000
,
0010
0100
0010
0000
0001
0100
1000
0100
,
0001
0000
0000
0000
1000
0001
1000
0000
,
0110
0000
0000
0000
0010
0100
0010
0000
,
1001
0000
0000
0000
,
0001
0010
0001
1000
0001
0000
2000
0000
,
3002
0203
0320
1030
,
0000
1100
1100
0000
1002
0000
1003
0000
,
0010
0001
0010
0000
1000
0010
1000
0000
,
0001
0100
0001
0000
1100
0000
0000
0000
,
0010
1000
0100
0000
0002
0000
0000
0000
,
0103
1000
0010
0000
0200
0000
0000
0000
,
0301
1000
0001
0000
1100
0000
0101
0000
,
1000
0100
1000
0000
0200
0000
0000
0000
,
0310
0001
0010
0000
0002
0000
0000
1003
,
0010
0100
0001
0000
1000
0100
0001
0000
,
0001
0100
1000
0000
0020
0000
0000
1030
,
0001
0100
0010
0000
2000
0000
0000
3001
,
1000
0010
0100
0000
0010
0100
0001
0000
,
1000
0001
1000
0100
1001
0000
0000
0000
,
1000
0100
0000
0001
0100
0000
0101
0000
,
0010
0001
0000
0010
1000
0000
1010
0000
,
0010
0100
0000
1000
0001
0000
1001
0000
,
1100
0000
0000
0000
0001
1000
0001
0010
,
0001
1000
0000
0010
0100
0000
0110
0000
,
1000
0100
0000
0001
0100
0000
0101
0000
,
0000
1100
1100
0000
0010
0000
0100
0000
,
0010
0001
0010
0000
1000
0010
1000
0000
,
0001
0100
0001
0000
1100
0000
0000
0000
,
0010
1000
0100
0000
1000
0100
0001
0100
,
2000
3002
0023
0030
,
1000
0010
0100
0000
0001
0010
1000
0010
,
0002
2003
3200
0300
,
0001
1000
0000
0010
0100
0000
0000
0000
,
0001
0100
0000
1000
0010
0000
0000
0000
,
0001
1000
0000
0010
0100
0000
0000
0000
,
0001
0100
0000
1000
0010
0000
0000
0000
,
1001
0000
2000
3002
,
2003
0000
3010
0000
0100
0001
0100
0001
,
0100
0000
0020
0230
,
0320
0000
1030
0000
0001
1000
0001
1000
,
0001
0000
1000
0100
0020
0000
0000
0000
,
0000
0030
0000
0000
;

//---------------dance-single - ----------------
#NOTES:
     dance-single:
     :
     Hard:
     8:
     0.447,0.444,0.255,0.123,0.399:
0000
0000
0000
0000
,
0000
0000
0000
0000
,
0110
0000
0000
0000
0100
0000
0000
1001
0000
0000
0000
0000
0000
0000
0000
0000
,
0000
0000
0000
0000
0001
1000
0001
0010
,
0001
1000
0000
0001
0000
0100
0000
0020
0000
0000
0000
0000
0000
0000
0000
0000
,
0030
0000
0100
0010
0100
1000
0100
0010
,
0100
0000
0001
0100
0000
1000
0000
0100
0000
0000
0000
0000
0001
0000
1000
0000
,
0100
0000
0000
0000
0001
0000
1000
0000
0010
0000
0000
0000
0001
1000
0000
1000
,
0000
0000
0000
0000
0000
0000
0000
0000
1010
0000
0000
0000
1000
0000
0000
0011
,
0000
0000
0000
0000
0000
0000
0000
0000
0110
0000
0000
0000
0001
0000
0000
1001
,
0000
0000
0000
0000
,
1000
0000
0100
0000
1000
0000
0010
0000
1000
0001
0000
0100
0000
0100
0000
0002
,
0000
1003
0100
0100
,
0000
0000
0000
0000
1000
0000
0000
0000
0001
0000
0000
0000
1001
0000
0000
0000
0000
0000
0000
0000
0000
0000
0000
0000
0110
0000
0000
0000
0000
0000
0010
0000
0000
1000
0000
0000
0000
0000
0000
1000
0000
0000
0000
0000
0000
0001
0000
0000
,
0000
0000
0000
0000
0001
0000
1000
0100
0000
0000
0000
0000
1000
0000
0001
0100
,
0000
0000
0000
0000
0010
0000
1000
0100
0000
0000
0000
0000
0000
0000
0000
0000
,
0010
0000
0001
1000
0000
1000
0000
1001
0000
0000
0000
0000
0001
0000
1000
0000
,
0100
0000
0010
0001
0000
0001
0000
0101
0000
0000
0100
0000
0010
0000
1000
0000
,
0100
0000
1000
0001
0000
0000
1000
0000
0010
0000
0100
0001
0000
0000
0000
0010
,
0100
1000
0100
0010
0100
0001
0100
1000
,
0010
0100
0010
0001
0010
1000
0010
0100
,
0001
0010
0001
1000
0001
0100
0001
0010
,
0100
1000
0010
1000
0001
1000
0100
1000
,
0100
0010
0001
0010
1000
0010
0100
1000
,
0100
0010
0001
0100
1000
0100
0001
0010
,
1000
0000
0010
0001
0000
0001
0000
1001
0000
0000
0000
0000
0000
0000
0000
0000
,
1000
0100
1000
0010
2000
0000
3001
0000
,
0010
0100
1000
0100
0020
0000
0130
0000
,
1000
0001
1000
0001
0020
0000
0001
0000
,
1030
0000
0000
0000
0000
0000
0000
0000
0010
0001
0000
0001
0000
1000
0000
0110
,
0000
0000
1000
0010
0020
0000
1000
0000
,
0130
0000
0000
0000
0001
0000
1000
0000
2000
0000
0000
0000
0100
0000
0000
3000
,
0000
0000
0000
0000
0001
0000
0000
0000
1000
0000
0000
0000
1001
0000
0000
0000
0000
0000
0000
0000
0000
0000
0000
0000
0110
0000
0000
0000
0000
0000
0010
0000
0000
0001
0000
0000
0000
0000
0000
0001
0000
0000
0000
0000
0000
1000
0000
0000
,
0000
0000
0000
0000
1000
0000
0001
0100
0000
0000
0000
0000
0001
0000
1000
0100
,
0000
0000
0000
0000
0010
0000
0001
0100
0000
0000
0000
0000
0000
0000
0000
0000
,
1000
0000
0010
0100
0010
0100
0000
0100
0000
0001
0000
0001
0000
1000
0000
0000
,
1010
0000
0000
0000
0100
0000
0000
0101
0000
0000
0000
0000
0000
0000
0000
0000
,
0010
0000
0001
1000
0001
1000
0000
1000
0000
0010
0000
0010
0000
0100
0000
0000
,
0110
0000
0000
0000
0010
0000
0000
1001
0000
0000
0000
0000
0000
0000
0000
0000
,
1000
0000
2000
0000
0000
0001
0000
3001
0000
0000
0000
0000
0010
0000
0100
0000
,
0010
0000
0020
0000
0000
1000
0000
1030
0000
0000
0000
0000
0100
0000
0001
0000
,
0100
0000
0200
0000
0000
0001
0000
0301
0000
0000
0000
0000
0001
0000
1000
0000
,
0001
0000
0002
0000
0000
0010
0000
0013
0000
0000
0100
0000
1000
0000
0010
0000
,
0110
0000
0000
0000
0000
0000
0000
0000
0011
0000
0000
0000
0100
0000
0000
1100
,
0000
0000
1000
0000
0100
0000
1000
0000
0010
0000
1000
0000
0001
0100
0000
0101
,
0000
0000
0000
0000
0000
0000
0000
0000
0110
0000
0000
0000
0100
0000
0000
1001
,
0000
0000
0010
0000
0100
0000
0010
0000
0001
0000
0010
0000
1000
0100
0000
1100
,
0000
0000
0000
0000
0000
0010
0001
0010
0002
0000
0000
0000
0000
0000
0000
0000
,
0000
0003
0000
0000
;

//---------------dance-double - ----------------
#NOTES:
     dance-double:
     :
     Easy:
     4:
     0.258,0.271,0.123,0.092,0.000:
00000000
00000000
00000000
00000000
,
00000000
00000000
00000000
00000000
,
00010000
00010000
00001000
00000000
,
00000000
00000000
00100000
00100000
,
10000000
10000000
00010000
00010000
,
01000000
01000000
00010000
00000000
,
00011000
00000000
00001000
00000100
,
00001000
00000100
00000001
00001000
,
00000001
00000000
00000001
00000001
,
00001000
00000000
00010000
00010000
,
00001000
00000000
00000000
00000000
,
00000100
00000100
00001000
00001000
,
00010000
00010000
00100000
00100000
,
10000000
00000000
10010000
00000000
,
00010000
01000000
00010000
01000000
,
10000000
00010000
10000000
00000000
,
10000000
01000000
00010000
00001000
,
00000010
00000001
00000010
00001000
,
00010000
01000000
10000000
01000000
,
00100000
00001000
00100000
00001000
,
00010000
00000100
00010000
00000100
,
00001000
00000100
00000010
00000001
,
00000001
00000100
00001000
00010000
,
00100000
10000000
00100000
00010000
,
00001000
00000100
00000001
00000010
,
00000100
00001000
00001001
00000000
,
00000001
00000001
00000100
00001000
,
00020000
00000000
01030000
01000000
,
20000000
00000000
30100000
00100000
,
00020000
00000000
00031000
00001000
,
00000020
00000000
00000031
00000001
,
00002000
00000000
00003100
00000100
,
00020000
00000000
00032000
00000000
,
01003000
00100000
01000000
00100000
,
10000000
00010000
10010000
00000000
,
10000000
01000000
00100000
00001000
,
00011000
00010000
00011000
00000000
,
00001000
00000100
00000010
00000001
,
00001001
00001000
00001001
00000000
,
00000001
00000001
00001000
00001000
,
00000100
00000100
00010000
00010000
,
00001000
00001000
00100000
00100000
,
00010000
00010000
10000000
10000000
,
10010000
00000000
10000000
01000000
,
00010000
00001000
00000100
00000001
,
00001001
00000000
00000001
00000010
,
00001000
00010000
00100000
10000000
,
10010000
00000000
02200000
00000000
,
00000000
03300000
00000000
00000000
;

//---------------dance-double - ----------------
#NOTES:
     dance-double:
     :
     Medium:
     6:
     0.339,0.345,0.204,0.112,0.000:
00000000
00000000
00000000
00000000
,
00000000
00000000
00000000
00000000
,
00001000
00001000
00011000
00000000
,
00000000
00000000
00000000
00000000
00000100
00000001
00000100
00000001
,
00000010
00000001
00000010
00000100
,
00001000
00000000
00000100
00000000
00010000
00001000
00010000
00000000
,
00001000
00010000
00100000
10000000
,
10000000
00000000
00010000
00000000
00100000
01000000
00100000
00000000
,
10010000
00000000
00010000
00010000
,
00011000
00000000
00000100
00000100
,
00001001
00000000
00000000
00000000
,
00000100
00001000
00010000
00000000
01000000
00000000
10000000
00000000
,
01000000
00010000
00001000
00000100
,
00000100
00001000
00010000
00000000
01000000
00000000
10000000
00000000
,
01000000
00000000
00010000
00001000
00000010
00000000
00001000
00010000
,
01000000
00000000
00010000
00001000
00000100
00000000
00000000
00000000
,
00000001
00001000
00000001
00001000
00000001
00000000
00000000
00000000
,
00001000
00010000
00001000
00010000
00001000
00000000
00000000
00000000
,
10000000
00010000
10000000
00000000
00100000
01000000
00100000
00000000
,
11000000
00010000
01000000
00100000
,
01010000
10000000
01000000
00010000
,
00010000
00001000
00000100
00000000
00001000
00000100
00000001
00000000
,
00000100
00000001
00000010
00000000
00000001
00000010
00001000
00000000
,
00011000
00001000
00010000
01000000
,
10100000
01000000
00010000
10000000
,
00010000
01000000
00010000
01000000
00001000
00000000
00000000
00000000
,
00011000
00000000
00010100
00000000
00000100
00001000
00000001
00000000
,
00002000
00000000
00000000
00000000
00003001
00000010
00000001
00000000
,
00000002
00000000
00000000
00000000
00001003
00000100
00001000
00000000
,
00000200
00000000
00000000
00000000
00010300
00001000
00010000
01000000
,
20000000
00000000
00000000
00000000
30010000
01000000
00010000
00000000
,
02000000
00000000
00000000
00000000
03010000
00100000
00001000
00000000
,
00010000
00001000
00010000
00000000
00011000
00000000
00010100
00000000
,
00000100
00001000
00000001
00000000
00001000
00000100
00010000
00000000
,
01000000
10000000
01000000
10000000
01000000
00000000
00000000
00000000
,
10000000
01000000
00010000
01000000
00010000
01000000
00010000
00000000
,
00011000
00001000
00001100
00000000
,
00000010
00000100
00000001
00000100
00000001
00000100
00000001
00000000
,
00001001
00000001
00001100
00000000
,
00002000
00000000
00000000
00013000
01000000
00000000
00000000
00000000
,
20000000
00000000
00000000
31000000
00010000
00000000
00000000
00000000
,
00002000
00000000
00000000
00003010
00000001
00000000
00000000
00000000
,
00000200
00000000
00000000
00001300
00010000
00000000
00000000
00000000
,
01100000
00000000
01010000
00010000
,
00100000
00000000
00010000
00000000
10000000
01000000
00010000
00001000
,
00000100
00000000
00001010
00000100
,
00000001
00000000
00000100
00000000
00000001
00000100
00001000
00010000
,
01000000
00000000
00100000
00010000
20020000
00000000
00000000
00000000
,
00000000
30030000
00000000
00000000
;

//---------------dance-double - ----------------
#NOTES:
     dance-double:
     :
     Hard:
     8:
     0.450,0.419,0.194,0.072,0.097:
00000000
00000000
00000000
00000000
,
00000000
00000000
00000000
00000000
,
00010000
00000000
01000000
00000000
10000000
00000000
10000000
00010000
00000000
00000000
00000000
00000000
00000000
00000000
00000000
00000000
,
00000000
00000000
00000000
00000000
10000000
00100000
10000000
01000000
,
00010000
00001000
00010000
00000100
00010000
00001000
00010000
00000010
,
00000100
00000001
00001000
00000010
00000100
00000000
00001001
00000000
,
00000110
00000000
00001001
00000000
00000001
00000010
00000001
00001000
,
00000001
00000000
00000100
00000000
00001000
00000000
00010000
00000000
01000000
00000000
10000000
00000000
00100000
00000000
10000000
01000000
,
00000000
00000000
00000000
00000000
00000000
00000000
00000000
00000000
00001000
00000000
00010000
00000000
01000000
00000000
01000000
00200000
,
00000000
00000000
00300000
00000000
00000000
00000000
00000000
00000000
00001000
00000000
00000100
00000000
00000001
00000000
00000001
00002000
,
00000000
00000000
00003000
00000000
,
00000010
00000001
00000010
00001000
00010000
00001000
00100000
00010000
,
00100000
01000000
00100000
10000000
00100000
01000000
00100000
00010000
,
00000000
00000000
00000000
00000000
01000000
00000000
00000000
00000000
00100000
00000000
00000000
00000000
01100000
00000000
00000000
00000000
00000000
00000000
00000000
00000000
00000000
00000000
00000000
00000000
10000000
00000000
00000000
00000000
00000000
00000000
00010000
00000000
00000000
10000000
00000000
00000000
00000000
00000000
00000000
00010000
00000000
00000000
00000000
00000000
00000000
00000000
00000000
00000000
,
10000000
00100000
10000000
01000000
00010000
00000100
00010000
00001000
,
00010000
00000000
00000010
00000000
00000100
00000000
00000100
00000001
00000000
00000000
00000000
00000000
00000000
00000000
00000000
00000000
,
00000010
00000001
00001000
00000000
00000010
00001000
00000100
00000000
,
01000000
00010000
00100000
00000000
00001000
00010000
01000000
00000000
,
10000000
00100000
01000000
00000000
00010000
00100000
10000000
00000000
,
00100000
00001000
00010000
00000000
00000100
00000010
00000100
00000001
,
00000100
00001000
00000100
00000000
00010000
00000010
00010000
00001000
,
00010000
00000100
00010000
00000000
00001000
00100000
00001000
00010000
,
00001000
01000000
00001000
00000000
01000000
10000000
01000000
00100000
,
01000000
00010000
01000000
00000000
00100000
10000000
01000000
00010000
,
00001000
00000010
00000001
00000000
00000010
00000100
00001000
00000001
,
00000100
00000000
00001000
00000000
00000100
00000000
00000001
00001000
00000000
00000000
00000000
00000000
00000000
00000000
00000000
00000000
,
00000001
00001000
00000010
00001000
00000020
00000000
00020030
00000000
,
00031000
01000000
00010000
01000000
00020000
00000000
20030000
00000000
,
30100000
10000000
00010000
10000000
00010000
00000000
01100000
00000000
,
00011000
00000000
00010100
00000000
00010000
00000010
00010000
00000100
,
00000001
00000100
00001000
00000010
00001000
00000000
00000101
00000000
,
00001000
00000001
00001000
00000100
00001000
00000000
00011000
00000000
,
00000000
00000000
00000000
00000000
00100000
00000000
00000000
00000000
01000000
00000000
00000000
00000000
01100000
00000000
00000000
00000000
00000000
00000000
00000000
00000000
00000000
00000000
00000000
00000000
10000000
00000000
00000000
00000000
00000000
00000000
00010000
00000000
00000000
10000000
00000000
00000000
00000000
00000000
00000000
00010000
00000000
00000000
00000000
00000000
00000000
00000000
00000000
00000000
,
10000000
00100000
10000000
01000000
00010000
00000100
00010000
00001000
,
00010000
00000000
00000010
00000000
00000100
00000000
00000100
00000001
00000000
00000000
00000000
00000000
00000000
00000000
00000000
00000000
,
00000001
00000010
00000001
00001000
00000001
00000100
00001000
00010000
,
01100000
00000000
00000000
00000000
10010000
00000000
00000000
11000000
00000000
00000000
00000000
00000000
00000000
00000000
00000000
00000000
,
10000000
00100000
10000000
00010000
10000000
01000000
00010000
00001000
,
00001100
00000000
00000000
00000000
00000101
00000000
00000000
00000110
00000000
00000000
00000000
00000000
00000000
00000000
00000000
00000000
,
00000001
00001000
00000000
00000100
00000010
00000000
00001000
00010000
,
00100000
10000000
00000000
00010000
00100000
00000000
00001000
00010000
,
00000010
00001000
00000000
00000100
00000001
00000000
00000100
00010000
,
00001000
00000100
00000000
00000010
00010000
00000000
00100000
10000000
,
10010000
00000000
00000000
00000000
00010000
00001000
00010000
00000010
,
00010000
00001000
00010000
00000100
00001000
00000010
00000100
00000001
,
00000110
00000000
00000000
00000000
00001000
00010000
00001000
01000000
,
00001000
00010000
00001000
00100000
00010000
01000000
00100000
10000000
,
10010000
00000000
00000000
00000000
00000000
10000000
01000000
00010000
02000000
00000000
00000000
00000000
00000000
00000000
00000000
00000000
,
00000000
03000000
00000000
00000000
;

//---------------dance-double - SaxxonPike----------------
#NOTES:
     dance-double:
     SaxxonPike:
     Beginner:
     1:
     0.126,0.149,0.010,0.000,0.000:
00000000
00000000
00000000
00000000
,
00000000
00000000
00000000
00000000
,
00000001
00000000
00000001
00000000
,
00001000
00000000
00001000
00000000
,
00000000
00000000
00100000
00000000
,
00000000
00000000
10000000
00000000
,
10000000
00000000
00010000
00000000
,
00010000
00010000
00010000
00000000
,
00000000
00000000
00001000
00000000
,
00000000
00000000
00000010
00000000
,
00000000
00000000
00000001
00000000
,
00000000
00000000
00000000
00000000
,
10000000
00000000
10000000
00000000
,
00010000
00000000
00010000
00000000
,
00010000
00010000
00010000
00000000
,
10000000
00000000
01000000
00000000
,
00010000
00000000
00001000
00000000
,
00001000
00000000
00000100
00000000
,
00000100
00000000
00000000
00000000
,
00000001
00000000
00000100
00000000
,
00001000
00000000
00000000
00000000
,
00100000
00000000
00000000
00000000
,
10000000
00000000
00000000
00000000
,
00001000
00000000
00001000
00000000
,
00000100
00000000
00000100
00000000
,
00000001
00000000
00001000
00000000
,
00001000
00000000
00010000
00000000
,
00010000
00000000
00000000
10000000
,
10000000
00000000
00000000
00010000
,
00010000
00000000
00000000
00000010
,
00000010
00000000
00000000
00010000
,
00010000
00000000
00000000
00000100
,
00000100
00000000
00000000
01000000
,
01000000
00000000
00100000
00000000
,
00100000
00000000
00000000
10000000
,
10000000
00000000
10000000
00000000
,
00010000
00000000
00000000
00000100
,
00000100
00000100
00000100
00000000
,
00000100
00000000
00000000
00000001
,
00000001
00000000
00001000
00000000
,
00001000
00000000
00000000
00100000
,
00100000
00000000
00000000
00001000
,
00001000
00000000
00000000
00010000
,
00010000
00000000
00000000
00000000
,
00000100
00000000
00000000
00000000
,
00001000
00000000
00001000
00000000
,
00010000
00000000
00010000
00000000
,
01000000
00000000
01000000
01000000
,
01000000
00000000
10010000
00000000
;

//---------------dance-single - ----------------
#NOTES:
     dance-single:
     :
     Challenge:
     8:
     0.539,0.747,0.347,0.378,0.705: // measure 1
0000
0000
0000
0000
,  // measure 2
0101
0000
0000
0000
0101
0000
0000
0101
0000
0000
0000
0000
0000
0000
0000
0000
,  // measure 3
1010
0000
0000
0000
1010
0000
0000
1010
0000
1000
0000
0001
0000
0100
0000
0010
,  // measure 4
0000
1000
0000
0001
0000
0020
0000
0000
0200
0000
0000
0000
0330
0000
0000
0000
,  // measure 5
0100
0010
0000
0001
0000
1000
0000
0002
0000
0000
0000
0010
0000
0010
0000
0013
,  // measure 6
0000
0000
0000
0001
0010
0000
0100
0000
0001
0100
0000
0000
1100
0000
0000
0000
,  // measure 7
1002
0000
0000
0100
0000
0100
0000
0203
0000
0000
0010
0000
0000
0000
1000
0000
,  // measure 8
0000
0010
0000
1000
0000
0310
0000
0000
,  // measure 9
0000
0001
0100
0001
1000
0100
0010
0001
1000
1000
0010
0100
0001
0001
1000
0010
,  // measure 10
0000
1000
0100
1000
0001
0100
0010
1000
0001
0001
0010
0100
1000
1000
0001
0010
,  // measure 11
0000
0001
0000
0100
0000
1000
0000
0100
0000
0010
0000
0100
0000
0020
0000
0000
,  // measure 12
2000
0000
0000
0000
3030
0000
0000
0000
0001
0100
0000
0001
0000
1000
0000
0200
,  // measure 13
0000
0000
0000
0001
0000
0001
0000
0301
0000
0000
0000
0001
0100
0000
1000
0000
,  // measure 14
0000
0000
0000
0000
0001
0000
0000
0000
0010
0000
0000
0000
0100
0000
0000
0000
0000
0000
0000
0000
0000
0000
0000
0000
1000
0000
0000
0001
0000
0000
0000
0000
0000
0100
0000
0000
0000
0000
0000
0010
0000
0000
0000
0000
0000
0020
0000
0000
,  // measure 15
0000
0001
0000
0100
0000
0001
0000
0100
,  // measure 16
0030
0000
0001
0000
0000
0000
0000
0000
0000
0001
0010
0100
1000
0001
1000
0010
,  // measure 17
0100
0000
0001
0010
0000
0010
0000
0020
0000
0000
0000
0030
0000
0000
0000
0000
,  // measure 18
0100
0000
0001
0010
0000
0010
0000
0020
0000
0000
0000
0030
0000
0000
0000
0000
,  // measure 19
0100
0000
0001
0010
0000
0000
0000
0100
1000
0010
0100
0001
1000
0001
0100
0010
,  // measure 20
1000
0000
0001
0100
0000
0010
0000
1000
0000
0000
0000
0000
0000
0000
0000
1000
,  // measure 21
0000
0000
0001
0001
0000
0010
0000
1000
0000
0000
0000
0000
0000
0000
0000
0010
,  // measure 22
1000
0000
0100
0010
0100
0000
1000
0001
0010
0000
0001
1000
0010
0000
0100
0001
,  // measure 23
0000
0010
1000
0010
0001
0100
1000
0100
,  // measure 24
0001
0010
0100
1000
0010
0100
0010
0100
,  // measure 25
0001
0010
1000
0010
0100
0001
0100
1000
,  // measure 26
0010
0000
0100
0001
0000
0001
0000
0001
1000
0010
0000
1000
0000
0100
0000
0020
,  // measure 27
0000
0000
0001
0000
0001
0000
0001
0000
0032
0000
0000
0000
0100
0000
0000
2003
,  // measure 28
0000
0000
0010
0000
0010
0000
0010
0000
3020
0000
0000
0000
0001
0000
0000
0230
,  // measure 29
0000
0000
0001
0000
0001
0000
0001
0000
0302
0000
0000
0000
1000
0000
0000
0203
,  // measure 30
0000
0000
0001
0000
0301
0000
0001
0000
0001
0100
0000
1000
0000
0010
0000
0200
,  // measure 31
0000
0000
1000
0000
1000
0000
1000
0000
2300
0000
0000
0000
0001
0000
0000
3002
,  // measure 32
0000
0100
0100
0100
0203
0000
0320
0000
,  // measure 33
0030
0000
0000
0000
1000
0000
0000
0000
0001
0000
0000
0000
1001
0000
0000
0000
0000
0000
0000
0000
0000
0000
0000
0000
0100
0000
0000
0001
0000
0000
0000
0000
0000
1000
0000
0000
0000
0000
0000
0100
0000
0000
0000
0000
0000
2000
0000
0000
,  // measure 34
0000
0010
0000
0100
0000
0010
0000
0100
,  // measure 35
0000
0000
0010
0000
0000
3000
0100
1000
0000
0000
0000
0000
0000
0000
0000
0000
,  // measure 36
0010
0000
0100
1000
0001
0100
0000
0010
0000
1000
0000
0001
0000
0100
0000
0000
,  // measure 37
0101
0000
0000
0000
1010
0000
0000
2002
0000
0000
0000
3003
0000
0000
0000
0000
,  // measure 38
0110
0000
0001
1000
0100
0010
0000
0001
0000
0100
0000
1000
0000
0100
0000
0000
,  // measure 39
0101
0000
0000
0000
1100
0000
0000
0022
0000
0000
0000
0033
0000
0000
0000
0000
,  // measure 40
1010
0000
1010
0000
0000
1100
0000
2200
0000
0000
0000
3300
0000
0000
0000
0000
,  // measure 41
1100
0000
1100
0000
0000
0101
0000
0202
0000
0000
0000
0303
0000
0000
0000
0000
,  // measure 42
0101
0000
0101
0000
0000
0011
0000
0022
0000
0000
0000
0033
0000
0000
0000
0000
,  // measure 43
0011
0000
0011
0000
0000
1010
0000
2020
0000
0000
0000
3030
0000
0000
0000
0000
,  // measure 44
0000
0000
0000
0000
0000
0000
0000
0000
1000
0000
0000
0000
0100
0000
0000
0101
,  // measure 45
0000
0000
0000
0000
0000
0000
0000
0000
0010
0000
0010
0000
0100
0001
0000
0100
,  // measure 46
0000
0000
0000
0000
0000
0000
0000
0000
0010
0000
0000
0000
1000
0000
0000
0101
,  // measure 47
0000
0000
0000
0000
0000
0000
0000
0000
0010
0000
0010
0000
0100
1000
0000
0100
,  // measure 48
0000
0000
1000
0000
0001
0100
1000
0001
0020
0000
0000
0000
0000
0000
0000
0000
,  // measure 49
0000
0000
0000
0030
;

//---------------dance-double - ----------------
#NOTES:
     dance-double:
     :
     Challenge:
     10:
     0.654,0.751,0.255,0.215,0.940:
00000000
00000000
00000000
00000000
,
00011000
00000000
00000000
00000000
01010000
00000000
00000000
01100000
00000000
00000000
00000000
00000000
00000000
00000000
00000000
00000000
,
10010000
00000000
00000000
00000000
11000000
00000000
00000000
10100000
00000000
00100000
00000000
00010000
00000000
00001000
00000000
00000010
,
00000000
00000001
00000000
00000010
00000000
00000020
00000000
00000000
00000002
00000000
00000000
00000000
00000033
00000000
00000000
00000000
,
00001000
00000010
00000000
00000100
00000000
00000001
00000000
00002000
00000000
00000000
00000000
00000100
00000000
00000100
00000000
00003100
,
00000000
00000000
00000000
00000010
00000001
00000000
00000100
00000000
00000010
00010000
00000000
00000000
00001010
00000000
00000000
00000000
,
00000110
00000000
00000000
00000100
00000000
00000001
00000000
00002000
00000000
00000000
00003100
00000000
00000010
00000000
00000001
00001000
,
00000001
00000000
00000010
00000000
00000100
00000000
00010000
00000100
00010000
00000000
00001000
00010000
00000000
00010000
00000000
00010000
,
00000000
00010000
00000100
00000010
00000001
00000100
00000010
00001000
00000001
00000001
00001000
00001000
00000100
00000010
00000001
00001000
,
00000000
00001000
00000100
00000010
00000001
00000100
00000010
00001000
00000001
00000001
00001000
00001000
00000100
00000010
00000001
00001000
,
00000000
00000001
00000000
00000010
00000000
00001000
00000000
00010000
00000000
00100000
00000000
00010000
00000000
00200000
00000000
00000000
,
20000000
00000000
00000000
00000000
30300000
00000000
00000000
00000000
00010000
00100000
00000000
01000000
00000000
10000000
00000000
00020000
,
00000000
00000000
00000000
01000000
00000000
01000000
00000000
01030000
00000000
00000000
00000000
00100000
10000000
00000000
01000000
00000000
,
00000000
00000000
00000000
00000000
00100000
00000000
00000000
00000000
00001000
00000000
00000000
00000000
00110000
00000000
00000000
00000000
00000000
00000000
00000000
00000000
00000000
00000000
00000000
00000000
01100000
00000000
00000000
00000000
00000000
00000000
00000000
00000000
00000000
01000000
00000000
00000000
00000000
00000000
00000000
10000000
00000000
00000000
00000000
00000000
00000000
00020000
00000000
00000000
,
00000000
00000000
01030000
00000000
00100000
00000000
10000000
00010000
10000000
00000000
00100000
00000000
01000000
00000000
00010000
10000000
,
00010000
00000000
00100000
00000000
00000000
00000000
00100000
00010000
10000000
00000000
00000000
10000000
01000000
00000000
00100000
00000000
,
02200000
00000000
00000000
00000000
03300000
00000000
00100000
00000000
00000000
00000000
00001000
00000000
00000000
00010000
00000000
00000000
,
00001000
00000000
00000000
00100000
00000000
00000000
01000000
00000000
00000000
00010000
00000000
00010000
00000000
00010000
00000000
00000000
,
00001000
00000000
00000000
00000100
00000000
00000000
00000010
00000000
00000000
00001000
00000000
00001000
00000001
00001000
00000001
00000000
,
00000012
00000000
00001000
00000000
00000003
00000000
00000100
00000100
00000000
00000000
00000010
00000000
00000000
00000000
00000001
00000001
,
00000000
00000000
00000100
00000000
00000000
00000000
00000010
00000010
00000000
00000000
00000100
00001000
00010000
00001000
00000000
00000000
,
00022000
00000000
00000000
00000000
00033000
00000000
00001000
00000000
00000000
00000000
00010000
00000000
00000000
00100000
00000000
00000000
,
01000000
00000000
00000000
00010000
00000000
00000000
00100000
00000000
00000000
01000000
00000000
01000000
00000000
01000000
00000000
00000000
,
00010000
00000000
00000000
00001000
00000000
00000000
00000010
00000000
00000000
00000000
00000100
00000000
00000000
00001000
00000000
00000000
,
00000210
00000000
00000010
00000000
00000300
00000000
00001000
00001000
00000000
00000000
00000100
00000000
00000000
00000000
00000010
00000010
,
00000000
00000000
00000001
00000000
00000000
00000000
00000000
00001100
00000000
00001000
00000000
00001000
00000100
00000000
00000010
00000000
,
00000001
00000000
00000100
00001000
00000100
00000000
00001000
00010000
00001000
00000000
00010000
00100000
00010000
00000000
00100000
10000000
,
00100000
00000000
10000000
01000000
10000000
00000000
01000000
00100000
01000000
00000000
00010000
00001000
00010000
00000000
00000010
00001000
,
00000010
00000000
00000100
00000001
00000100
00000000
00000001
00000100
00000001
00000000
00000100
00001000
00000100
00000000
00001000
00010000
,
00001000
00000000
00010000
00100000
00010000
00000000
00100000
10000000
00100000
10000000
00000000
01000000
10000000
01000000
00000000
00010000
,
00001000
00000000
00010000
00001000
00010000
00000000
00001000
00000010
00001000
00000000
00000010
00000100
00000010
00000000
00000001
00000100
,
00000001
00000000
00000100
00001000
00000100
00000000
00001000
00010000
00001000
00000000
01000000
00100000
01000000
00000000
00100000
10000000
,
00100000
00000000
00000000
00000000
01100000
00000000
00000000
00000000
10010000
00000000
00000000
00000000
10010000
00000000
00000000
00000000
00000000
00000000
00000000
00000000
00000000
00000000
00000000
00000000
01000000
00000000
00000000
00100000
00000000
00000000
10000000
00000000
00000000
00010000
00000000
00000000
00000000
00000000
00000000
10000000
00000000
00000000
00010000
00000000
00000000
00000000
00000000
00000000
,
01100000
00000000
10000000
00000000
00010000
00000000
00100000
01000000
00100000
00000000
01000000
00000000
00010000
00000000
00001000
00000010
,
00001000
00000000
00000010
00000000
00000001
00000000
00000100
00000010
00000000
00000010
00001000
00000001
00000000
00000001
00000100
00000000
,
00000001
00000000
00000010
00000001
00001000
00000010
00000000
00000100
00000000
00001000
00000000
00010000
00100000
00000000
01000000
00000000
,
01010000
00000000
00100000
00000000
10010000
00010000
10000000
00100000
00000000
00000000
01000000
00010000
01000000
00010000
00000000
01000000
,
00100000
00000000
10000000
01000000
00100000
01000000
00000000
00010000
00000000
00001000
00000000
00000010
00000001
00000000
00000001
00000000
,
00001010
00000000
00000100
00000000
00001001
00001000
00000001
00000010
00000000
00000010
00000100
00001000
00000100
00001000
00000000
00000100
,
00000010
00000000
00000010
00000000
00000000
00000001
00000000
00000001
00000000
00000000
00000001
00000100
00001000
00000100
00000001
00000000
,
00001000
00000000
00001000
00000000
00000000
00010000
00000000
00010000
00000000
10000000
00100000
00010000
00100000
10000000
00100000
00000000
,
10000000
00000000
10000000
00000000
00000000
01000000
00000000
01000000
00000000
10000000
00000000
01000000
00100000
00001000
00010000
00000000
,
01000000
00000000
00000000
00000000
01000000
00000000
00000000
00000000
00000000
00000000
10000000
00000000
00000000
00000000
10000000
00000000
00000000
00000000
00100000
00000000
01000000
00000000
00010000
00000000
10000000
00010000
10000000
00000000
00010000
00000000
01000000
00000000
,
00200000
00000000
00000000
00000000
00300000
00000000
00000000
00000000
10000000
00000000
01000000
00000000
10000000
00100000
01000000
00010000
,
00000000
02020000
00000000
03030000
00010000
00000000
00100000
00000000
00001000
00000000
00001000
00000000
00000100
00000001
00001000
00000002
,
00000000
00000000
00000000
00000000
00000003
00000000
00000000
00000000
00000001
00000000
00000100
00000000
00000001
00000010
00000100
00001000
,
00000000
00002200
00000000
00003300
00001000
00000000
00000010
00000000
00010000
00000000
00010000
00000000
01000000
10000000
00100000
00010000
,
00000000
00010000
00100000
00000000
10000000
01000000
00010000
00001000
00000020
00000000
00000000
00000000
00000000
00000000
00000000
00000000
,
00000000
00000000
00000000
00000000
,
00000030
00000000
00000000
00000000
;

//---------------dance-double - Copied from----------------
#NOTES:
     dance-double:
     Copied from:
     Edit:
     9:
     0.531,0.601,0.092,0.204,0.736:
00000000
00000000
00000000
00000000
,
00000000
00000000
00000000
00000000
,
10010000
00000000
00000000
00000000
11000000
00000000
00000000
10100000
00000000
01000000
00000000
00010000
00000000
00100000
00000000
01000000
,
00000000
00010000
00000000
00001000
00000000
00000020
00000000
00000000
00000002
00000000
00000000
00000000
00000033
00000000
00000000
00000000
,
00001000
00000010
00000000
00000100
00000000
00000001
00000000
00002000
00000000
00000000
00000000
00000100
00000000
00000100
00000000
00003100
,
00000000
00000000
00000000
00010000
00001000
00000000
00100000
00000000
01000000
10000000
00000000
00000000
10010000
00000000
00000000
00000000
,
00110000
00000000
00000000
00100000
00000000
00010000
00000000
02000000
00000000
00000000
00000000
00000000
03100000
00000000
00000000
00000000
,
00010000
00000000
00000000
00000000
00001000
00000000
00000000
00000000
00002000
00000000
00000000
00010000
00000000
00010000
00000000
00013000
,
00000000
00010000
00000100
00000010
00000001
00000100
00000010
00001000
00000001
00000000
00000000
00000000
00001000
00000000
00000000
00000100
,
00000000
00000010
00000001
00000100
00000001
00001000
00000100
00001000
00000001
00000000
00001000
00000100
00010000
00001000
01000000
00010000
,
00000000
10000000
00000000
01000000
00000000
00010000
00000000
00001000
00000000
00000010
00000000
00000001
00000000
00002000
00000000
00000000
,
00000002
00000000
00000000
00000000
00003003
00000000
00000000
00000000
00001000
00000100
00000000
00010000
00000000
00001000
00000000
00200000
,
00000000
00000000
00000000
00010000
00000000
00010000
00000000
00310000
00000000
00000000
00000000
01000000
00001000
00000000
00010000
00000000
,
00000000
00000000
00000000
00000000
00000100
00000000
00000000
00000000
00001000
00000000
00000000
00000000
00000001
00000000
00000000
00000000
00000000
00000000
00000000
00000000
00000000
00000000
00000000
00000000
00000010
00000000
00000000
00000001
00000000
00000000
00000000
00000000
00000000
00001000
00000000
00000000
00000000
00000000
00000000
00001000
00000000
00000000
00000000
00000000
00000000
00000200
00000000
00000000
,
00000000
00000000
00000000
00000300
,
00000020
00000000
00000000
00000001
00000000
00000001
00000000
00000031
00000000
00001000
00000100
00000010
00000001
00001000
00000010
00000100
,
00000001
00000000
00001000
00000100
00000000
00000010
00000000
00000010
00000000
00000000
00000001
00000000
00000001
00000000
00000000
00000000
,
00000100
00000000
00001000
00010000
00000000
00100000
00000000
00100000
00000000
00000000
10000000
00000000
10000000
00000000
00000000
00000000
,
01000000
00000000
00100000
00001000
00000000
00000000
00000000
00010000
00001000
01000000
00001000
00010000
00000100
00000000
00001000
00000000
,
00000100
00000000
00010000
00001000
00000000
00000100
00000000
00000100
00000000
00000000
00000000
00000000
00000000
00000000
00000000
00000000
,
00000001
00000000
00000010
00000010
00000000
00001000
00000000
00010000
00000000
00000000
00000000
00000000
00000000
00000000
00000000
00100000
,
10000000
00000000
01000000
00000000
00010000
00000000
01000000
00000000
10000000
00000000
00100000
00000000
01000000
00000000
00010000
10000000
,
00000000
00010000
01000000
00001000
00010000
00000100
00001000
00000001
,
00000100
00000010
00001000
00000001
00000100
00000010
00001000
00000100
,
00010000
00001000
01000000
00100000
10000000
01000000
00100000
00010000
,
01000000
00000000
00001000
00010000
00000000
00010000
00000000
00010000
00001000
00010000
00000000
00000100
00000000
00000010
00000000
00000000
,
00000001
00000100
00001000
00000100
00000001
00000010
00001000
00010000
,
01000000
10000000
00100000
00001000
00100000
10000000
01000000
00010000
,
00001000
00000010
00000001
00000100
00000010
00010000
00001000
01000000
,
00100000
00000000
10000000
00000000
01000000
00000000
00100000
00000000
00010000
01000000
00000000
00010000
00000000
00100000
00000000
00000000
,
00001000
00000100
00001000
00010000
01000000
00010000
00001000
00000010
,
00000001
00000100
00000001
00000010
00000200
00000000
00002300
00000000
,
00003000
00000000
00000000
00000000
00000010
00000000
00000000
00000000
00010000
00000000
00000000
00000000
00001000
00000000
00000000
00000000
00000000
00000000
00000000
00000000
00000000
00000000
00000000
00000000
01000000
00000000
00000000
00100000
00000000
00000000
00000000
00000000
00000000
10000000
00000000
00000000
00000000
00000000
00000000
10000000
00000000
00000000
00000000
00000000
00000000
01000000
00000000
00000000
,
00000000
00000000
00000000
00100000
00010000
00000000
00000000
01000000
00001000
00000000
00000000
00010000
00000010
00000000
00000000
00001000
,
00000002
00000000
00000000
00000000
00001000
00000000
00000000
00001000
00000003
00000000
00000000
00000000
00000000
00000000
00000000
00000000
,
00000100
00000000
00000010
00000001
00001000
00000010
00000000
00000100
00000000
00001000
00000000
00010000
00000000
00100000
00000000
00000000
,
10000000
00000000
00000000
00000000
10010000
00000000
00000000
02020000
00000000
00000000
00000000
03030000
00000000
00000000
00000000
00000000
,
00100000
00000000
10000000
01000000
00100000
01000000
00000000
00010000
00000000
00001000
00000000
00000010
00000000
00000001
00000000
00000000
,
00001000
00000000
00000000
00000000
00001001
00000000
00000000
00002200
00000000
00000000
00000000
00003300
00000000
00000000
00000000
00000000
,
00000010
00000000
00000010
00000000
00000000
00000001
00000000
00000001
00000000
00000000
00000000
00000000
00000100
00000000
00000000
00000000
,
00001000
00000000
00001000
00000000
00000000
00010000
00000000
00010000
00000000
00000000
00000000
00010000
01000000
00000000
10000000
00000000
,
00100000
00000000
00100000
00000000
00000000
00010000
00000000
00010000
00000000
00000000
00000000
00010000
00001000
00000100
00000001
00000000
,
00000010
00000000
00000010
00000000
00000000
00001000
00000000
00001000
00000000
00000000
00010000
01000000
00001000
00000100
00000010
00000001
,
00001000
00000000
00000000
00000000
00000000
00000000
00000000
00000000
00000100
00000000
00000010
00000000
00000001
00001000
00000100
00000010
,
00000000
00000100
00010000
00001000
00010000
00000000
00001000
00000000
01000000
00000000
00100000
00000000
01000000
00001000
00010000
00000200
,
00000000
00000000
00000000
00000300
00000000
00000000
00000000
00000000
00000100
00000000
00000010
00000000
00000001
00001000
00000100
00000010
,
00000000
00000001
00001000
00000100
00000010
00000000
00000100
00000000
00010000
00000000
00001000
00000000
01000000
00010000
01000000
00100000
,
00000000
10000000
00010000
00000000
10000000
01000000
00010000
00001000
00000020
00000000
00000000
00000000
00000032
00000000
00000000
00000000
,
00000000
00000000
00000000
00000000
,
00000003
00000000
00000000
00000000
;
