#TITLE:AFRONOVA PRIMEVAL;
#SUBTITLE:;
#ARTIST:8 bit;
#TITLETRANSLIT:;
#SUBTITLETRANSLIT:;
#ARTISTTRANSLIT:;
#CREDIT:;
#BANNER:AFRONOVA PRIMEVAL.png;
#BACKGROUND:AFRONOVA PRIMEVAL-bg.png;
#LYRICSPATH:;
#CDTITLE:Dance Dance Revolution 5th Mix.png;
#MUSIC:AFRONOVA PRIMEVAL.ogg;
#OFFSET:0.000;
#SAMPLESTART:49.203;
#SAMPLELENGTH:15.000;
#SELECTABLE:YES;
#DISPLAYBPM:200.000;
#BPMS:0.000=200.000,4.000=199.987;
#STOPS:;
#BGCHANGES:0.000=AFRONOVA PRIMEVAL.avi=1.000=1=1=0,
326.000=AFRONOVA PRIMEVAL-bg.png=1.000=0=0=1,
99999=-nosongbg-=1.000=0=0=0 // don't automatically add -songbackground-
;

//---------------dance-single - ----------------
#NOTES:
     dance-single:
     :
     Beginner:
     2:
     0.239,0.320,0.127,0.000,0.000:
0000
0000
0000
0000
,
0000
0000
0000
0000
,
0000
0000
0000
0000
,
0000
0000
0000
0000
,
0000
0000
0000
0000
,
0100
0000
1000
0000
,
0001
0000
0001
0000
,
1000
0000
1000
0000
,
0001
0000
0001
0000
,
0010
0000
0100
0000
,
0001
0000
1001
0000
,
0010
0000
0100
0000
,
1000
0000
1001
0000
,
0010
0000
0010
0000
,
0010
0000
0110
0000
,
1000
0000
1000
0000
,
1000
0000
1001
0000
,
0000
0100
0000
0010
,
0000
1000
0000
0001
,
0000
1000
0000
0001
,
0000
0100
0000
0010
,
0000
1000
0000
1000
,
0000
0010
0000
0100
,
0000
0001
0000
0001
,
0001
0000
0000
0000
,
1000
0000
0000
0000
,
0100
0000
0000
0000
,
0000
0000
1001
0000
,
1001
0000
1001
0000
,
0110
0000
0100
0000
,
0010
0000
1000
0000
,
1000
0000
0100
0000
,
0010
0000
0001
0000
,
1000
0000
0001
0000
,
0010
0000
0001
0000
,
0100
0000
1000
0000
,
0010
0000
0001
0000
,
0100
0000
0010
0000
,
0100
0000
0010
0000
,
1000
0000
1000
0000
,
0100
0000
0001
0000
,
1000
0000
0100
0000
,
0001
0000
1001
0000
,
0001
0000
0001
0000
,
1000
0000
1001
0000
,
1000
0000
1000
0000
,
0001
0000
0110
0000
,
0001
0000
0100
0000
,
1000
0000
0110
0000
,
1000
0000
0100
0000
,
0100
0000
0001
0000
,
0001
0000
0100
0000
,
1000
0000
1000
0000
,
1000
0000
0100
0000
,
0001
0000
0001
0000
,
0001
0000
0100
0000
,
0100
0000
1000
1000
,
1000
0000
0001
0001
,
0001
0001
0001
0001
,
0000
0100
0000
0010
,
0010
0010
0010
0010
,
0000
0001
0000
1000
,
1000
1000
1000
1000
,
0000
0010
0000
0100
,
0000
0100
0100
0100
,
0000
1000
0000
0001
,
0000
1000
0000
0001
,
0000
1000
0000
0001
,
0000
0100
0000
0010
,
0000
0100
0000
0010
,
0000
1000
0000
1000
,
0000
0100
0000
0010
,
0000
0001
0000
0001
,
0000
0010
0000
1000
,
0000
0010
0000
0001
,
0000
0100
0000
0100
,
0000
1000
0000
1000
,
0000
0001
0000
0001
,
0000
0010
0000
1000
,
0000
0100
0000
0100
,
0000
0001
0000
0001
,
0000
0000
1001
0000
;

//---------------dance-single - ----------------
#NOTES:
     dance-single:
     :
     Easy:
     4:
     0.420,0.479,0.274,0.000,0.000:
0000
0000
0000
0000
,
0000
0000
0000
0000
,
0000
0000
0000
0000
,
0000
0000
0000
0000
,
0000
0000
0000
0000
,
0100
0100
1000
1000
,
0001
0100
0001
0100
,
1000
0000
1000
0000
,
0001
0000
0001
0000
,
0010
1000
0100
1000
,
0001
0100
1001
0000
,
0010
0001
0100
0001
,
1000
0100
1001
0000
,
0010
1000
0010
1000
,
0010
0001
0110
0000
,
0010
0001
0010
0001
,
0010
1000
0110
0000
,
0000
1000
0000
1000
,
0000
0010
1000
0001
,
0001
0000
0001
0000
,
0001
1000
1001
0000
,
1000
0000
1000
0000
,
0010
1000
0100
1000
,
0001
0000
0001
0000
,
1000
0001
1001
0000
,
1000
0010
0100
1000
,
0100
0001
0100
0010
,
1000
0100
1001
0000
,
1001
0000
1001
0000
,
0010
0001
0100
0100
,
0010
0010
1000
0100
,
1000
1000
0100
0100
,
1000
0100
1000
0100
,
1000
0100
1000
1000
,
0010
0100
0001
0001
,
0100
0010
1000
1000
,
0010
0100
0001
0001
,
0100
0001
0010
0001
,
0100
0100
0010
0010
,
1000
0100
1000
1000
,
0100
0100
1000
1000
,
1000
0100
1000
1100
,
0001
1000
1001
0000
,
0001
0100
0001
0101
,
1000
0001
1001
0000
,
1000
0100
1000
1100
,
0001
1000
1001
0000
,
0001
0100
0001
0101
,
1000
0001
1001
0000
,
1000
0010
0100
0001
,
0101
0101
0001
0010
,
0001
0010
0100
1000
,
1100
1100
1000
0010
,
1000
0010
0100
0001
,
0101
0101
0001
0010
,
0001
0010
0100
1000
,
1100
1100
1000
0010
,
1000
0100
0001
0100
,
1000
0010
1000
0010
,
1000
0100
0001
0100
,
1100
1100
0001
0100
,
0001
0100
1000
0100
,
0001
0010
0001
0010
,
0001
0000
0001
0000
,
1000
0000
1000
0000
,
1000
0100
1000
0001
,
0100
0100
0001
0010
,
0001
0100
0001
1000
,
0100
0100
1000
0010
,
0100
0100
0001
0010
,
0100
1000
0010
1000
,
0100
0100
1000
0010
,
0100
0001
0010
0001
,
1000
0000
1000
0000
,
1000
0010
0100
0001
,
1000
0100
0001
0100
,
0010
1000
0100
1000
,
0001
0000
0001
0000
,
0001
0010
0100
1000
,
0001
0100
1000
0100
,
0010
0001
0100
0001
,
1000
0000
1001
0000
;

//---------------dance-single - ----------------
#NOTES:
     dance-single:
     :
     Medium:
     6:
     0.527,0.599,0.529,0.000,0.000:
0000
0000
0000
0000
,
0000
0000
0000
0000
,
0000
0000
0000
0000
,
0000
0000
0000
0000
,
0000
0000
0000
0000
,
0100
1000
0100
0000
0100
1000
0100
0000
,
0101
0101
1000
1100
,
0001
0000
1000
0000
,
0001
0000
1000
0000
,
0010
0000
0010
1000
0100
0000
1000
0000
,
0001
0100
1000
0100
,
0001
0000
0001
0100
1000
0000
0100
0000
,
0010
1000
0100
0001
,
0010
0000
0010
0001
0100
0000
0001
0000
,
1000
0100
0001
0100
,
1000
0000
1000
0100
0001
0000
0100
0000
,
0010
0001
0100
1000
,
0000
0000
1000
0100
1000
0000
1000
0100
,
1000
0010
1000
0001
,
0001
0100
0001
0000
0001
0100
0001
0000
,
1100
0101
1001
0000
,
1000
0100
1000
0000
1000
0100
1000
0000
,
0010
1000
0001
0010
,
0001
0100
0001
0000
0001
0100
0001
0000
,
1100
0101
1001
0000
,
0001
0010
1000
0110
,
1000
0010
0001
0110
,
1000
0001
0101
1000
,
1100
0001
1001
0000
,
1000
0001
0100
0000
0001
1000
0100
0000
,
0010
1000
0100
0001
,
1000
0100
1000
0000
0001
0100
0001
0000
,
1001
1100
0101
1001
,
0010
1000
0100
0000
0010
0001
0100
0000
,
0010
1000
0100
0001
,
1000
0010
1000
0000
0001
0010
0001
0000
,
1001
1100
0101
1001
,
0001
0100
1000
0000
1000
0100
0001
0000
,
0010
1000
0100
0001
,
1000
0100
1000
0000
0001
0100
0001
0000
,
1001
1100
0101
1001
,
1000
0001
0000
0000
0100
0000
0001
0000
,
1100
0101
1001
0000
,
0001
1000
0000
0000
0100
0000
1000
0000
,
0101
1100
1001
0000
,
1000
0001
0000
0000
0100
0000
0001
0000
,
1100
0101
1001
0000
,
0001
1000
0000
0000
0100
0000
1000
0000
,
0101
1100
1001
0000
,
0010
0001
0010
0000
0001
0000
0100
0000
,
0010
1000
0010
0000
1000
0000
0100
0000
,
0010
0001
1000
0010
,
0100
0001
1000
0100
,
0010
0001
0010
0000
0001
0000
0100
0000
,
0010
1000
0010
0000
1000
0000
0100
0000
,
0010
0001
0100
0001
,
0101
1001
1100
1001
,
0010
0100
0001
0000
1000
0000
0100
0000
,
0010
0100
1000
0000
0001
0000
0100
0000
,
0010
0001
0100
0001
,
0101
1001
1100
1001
,
0001
0100
1000
0000
0100
0000
0001
0000
,
1000
0100
0001
0000
0100
0000
1000
0000
,
0001
0000
1000
0000
,
0001
0000
1000
0000
,
1100
0001
0010
1000
,
0001
0100
1000
0000
0100
0000
0001
0000
,
1010
0001
0100
1000
,
0001
0100
1000
0000
0110
0000
0000
0000
,
0101
1000
0010
0001
,
1000
0100
0001
0000
0100
0000
1000
0000
,
0011
1000
0100
0001
,
1000
0100
0001
0000
0110
0000
0000
0000
,
0001
0000
1000
0000
,
0001
0000
1000
0000
,
0001
0100
1000
0000
0100
0000
1000
0000
,
1000
0100
0001
0000
0100
0000
0001
0000
,
0001
0000
1000
0000
,
0001
0000
1000
0000
,
0001
0100
0001
0000
1000
0000
0100
0000
,
1000
0100
1000
0000
0001
0000
0100
0000
,
1001
0000
1001
0000
;

//---------------dance-single - ----------------
#NOTES:
     dance-single:
     :
     Hard:
     9:
     0.665,0.639,0.510,0.000,0.000:
0000
0000
0000
0000
,
0000
0000
0000
0000
,
0000
0000
0000
0000
,
0000
0000
0000
0000
,
0000
0000
0000
0000
,
0010
0001
0010
0000
0100
1000
0010
0000
,
0001
0100
1000
0100
0001
0100
1000
0000
,
0001
0100
0000
0000
1000
0100
0000
0000
,
0001
0100
0000
0000
1000
0100
0000
0000
,
1001
0000
0001
1000
0100
0000
0101
0000
,
1100
0000
0010
0001
0100
0000
1001
0000
,
0110
0000
1000
0010
0001
0000
1010
0000
,
0101
0000
1000
0100
0001
0000
0110
0000
,
1001
0000
1000
0001
0100
0000
1100
0000
,
0101
0000
0010
1000
0100
0000
1001
0000
,
0110
0000
0001
0010
1000
0000
0011
0000
,
1100
0000
0001
0100
1000
0000
0110
0000
,
0000
0000
0001
0010
0100
1000
0001
0100
,
1000
0100
0010
1000
0001
0010
0100
0000
,
1000
0100
0010
0001
1000
0010
0100
0000
,
0001
0100
1000
0000
1001
0000
0000
0000
,
0001
0010
0100
1000
0010
0100
0001
1000
,
0100
0010
0001
1000
0010
0100
0001
0000
,
1000
0001
0100
0001
0010
0100
1000
0000
,
0001
0100
1000
0000
1001
0000
0000
0000
,
0001
0100
0010
0000
0100
0001
0000
1000
,
0100
1000
0010
0000
1000
0100
0001
0000
,
0001
0100
0010
0000
0100
0001
0000
1000
,
0100
1000
0010
0000
1000
0100
0001
0000
,
1000
0010
0001
0000
0010
1000
0001
0010
,
0100
1100
0001
1100
,
1000
0010
0001
0000
0010
1000
0001
0010
,
0100
1100
0001
1100
,
0001
1000
0100
0000
0001
0100
1000
0010
,
0001
0110
0001
1100
,
0001
1000
0100
0000
0001
0100
1000
0010
,
0001
0110
0001
1100
,
0001
1100
0010
1001
,
0010
1000
0100
0000
0001
0100
0000
1000
,
0100
0000
0001
0100
0000
1000
0100
0000
,
0001
0100
0000
1000
0100
0000
0001
0000
,
0010
0001
0000
0100
0001
1000
0100
0000
,
0010
0001
1000
0000
1001
0000
0000
0000
,
0010
1000
0000
0100
1000
0001
0100
0000
,
0010
1000
0001
0000
1001
0000
0000
0000
,
0010
0001
0000
0100
0001
1000
0100
0000
,
0010
0001
1000
0000
1001
0000
0000
0000
,
0010
1000
0000
0100
1000
0001
0100
0000
,
0010
1000
0001
0000
1001
0000
0000
0000
,
0100
1000
0001
0000
0100
0001
0010
0001
,
0100
0000
1000
0100
0001
0010
1000
0000
,
0010
0001
1000
0000
0010
1000
0100
1000
,
0010
0000
0001
0010
1000
0100
0001
0000
,
0100
1000
0001
0000
0100
0001
0010
0001
,
0100
0000
1000
0100
0001
0010
1000
0000
,
0010
0001
1000
0000
0010
1000
0100
1000
,
0010
0000
0001
0010
1000
0100
0001
0000
,
1000
0100
0010
0001
1000
0100
0010
0000
,
1000
0100
0001
0000
0001
0100
1000
0000
,
1000
0100
1000
0000
0001
0100
1000
0000
,
0001
0100
1000
0000
1000
0100
0001
0000
,
1000
0100
0000
0101
0000
1000
0000
0100
,
1000
0001
0000
0101
0000
1000
0000
0010
,
0100
0001
0000
1100
0000
0001
0100
0000
,
0000
1000
0000
0100
0000
0001
0000
0100
,
0001
1000
0100
0000
1001
0000
0110
0000
,
1000
0100
0001
0000
0110
0000
1100
0000
,
1000
0100
0010
0001
0100
0010
0001
0000
,
1000
0010
0001
0000
0110
0000
0000
0000
,
0001
0100
1000
0000
0110
0000
0001
0000
,
0010
1000
0001
0000
0011
0000
1100
0000
,
0001
0010
0100
1000
0010
0100
1000
0000
,
0001
0010
1000
0000
0110
0000
0000
0000
,
0001
1000
0100
1001
,
0010
1000
0100
0000
0011
0000
1001
0000
,
0010
1000
0001
0000
0010
0100
1000
0000
,
0010
1000
0010
0100
0001
0100
0010
0000
,
1000
0001
0100
1001
,
0010
0001
0100
0000
1010
0000
1001
0000
,
0010
0001
1000
0000
0010
0100
0001
0000
,
0010
0001
0010
0100
1000
0100
0010
0000
,
1001
0000
1001
0000
;

//---------------dance-double - ----------------
#NOTES:
     dance-double:
     :
     Easy:
     4:
     0.436,0.559,0.235,0.000,0.000:
00000000
00000000
00000000
00000000
,
00000000
00000000
00000000
00000000
,
00000000
00000000
00000000
00000000
,
00000000
00000000
00000000
00000000
,
00000000
00000000
00000000
00000000
,
10000000
10000000
01000000
00010000
,
00001000
00001000
00000100
00000001
,
00001000
00000000
00001000
00000000
,
00000001
00000000
00000001
00000000
,
00001000
00000100
00000001
00000100
,
00001000
00010000
01000000
10000000
,
00010000
01000000
10000000
01000000
,
00010000
00001000
00000100
00000001
,
00000010
00000001
00000100
00000010
,
00001000
00000100
00010000
00001000
,
00010000
00001000
01000000
00010000
,
00100000
01000000
10000000
00100000
,
00000000
10000000
10000000
01000000
,
01000000
00010000
00010000
00001000
,
00000100
00000100
00000001
00000001
,
00000010
00000001
00000100
00000001
,
00000001
00000001
00000100
00000100
,
00001000
00001000
00010000
00010000
,
01000000
01000000
10000000
10000000
,
00100000
10000000
01000000
10000000
,
01000000
10000000
01000000
10000000
,
01000000
00100000
01000000
00100000
,
01000000
00010000
01000000
00010000
,
00001000
00010000
00001000
00010000
,
00010010
00011000
00000100
00001000
,
00010010
00011000
00000100
00001000
,
00010010
00011000
00000100
00001000
,
00010010
00011000
00000100
00001000
,
00010000
01000000
00010000
00001000
,
00010000
01000000
00010000
00001000
,
00010000
00100000
00010000
00001000
,
00010000
01000000
00010000
00001000
,
00010000
00001000
00010000
00001000
,
00000100
00001000
00000100
00001000
,
00000100
00000010
00000100
00000010
,
00000100
00000001
00000100
00000001
,
00000001
00000100
00001000
00010000
,
01000000
10000000
10010000
00000000
,
10000000
01000000
00010000
00001000
,
00000100
00000001
00001001
00000000
,
00000001
00000100
00001000
00010000
,
01000000
10000000
10010000
00000000
,
10000000
01000000
00010000
00001000
,
00000100
00000001
00001001
00000000
,
00000010
00001000
00010000
00001000
,
00000010
00000001
00000100
00001000
,
00010000
01000000
10000000
00100000
,
10000000
01000000
10000000
10010000
,
00100000
00010000
00001000
00010000
,
00100000
10000000
01000000
00010000
,
00001000
00000100
00000001
00000010
,
00000001
00000100
00000001
00001001
,
00000010
00001001
00001001
00000100
,
00001000
00000100
00000001
00000100
,
00000010
00000110
00000110
00000100
,
00001000
00010000
01000000
10000000
,
00100000
10000000
00010000
00100000
,
00010000
10000000
00100000
10000000
,
01000000
10000000
00010000
01000000
,
00010000
01010000
00010000
01010000
,
00100000
10000000
01000000
10000000
,
01000000
10000000
00010000
01000000
,
00100000
00010000
00001000
00000100
,
00000001
00001000
00001001
00000000
,
00000010
00000001
00000100
00000001
,
00000100
00000001
00001000
00000100
,
00000010
00001000
00010000
01000000
,
10000000
00010000
10010000
00000000
,
00010000
00000000
00010000
00000000
,
10000000
00000000
10000000
00000000
,
10000000
01000000
00010000
00001000
,
00000100
00000001
00001000
00000001
,
00001000
00000000
00001000
00000000
,
00000001
00000000
00000001
00000000
,
00000001
00000100
00001000
00010000
,
01000000
10000000
00010000
10000000
,
10010000
00000000
10010000
00000000
;

//---------------dance-double - ----------------
#NOTES:
     dance-double:
     :
     Medium:
     6:
     0.520,0.559,0.382,0.000,0.000:
00000000
00000000
00000000
00000000
,
00000000
00000000
00000000
00000000
,
00000000
00000000
00000000
00000000
,
00000000
00000000
00000000
00000000
,
00000000
00000000
00000000
00000000
,
00000001
00001001
00000001
00001001
,
00000001
00000100
00001000
00010000
,
01000000
00000000
01000000
00000000
,
10000000
00000000
10000000
00000000
,
00100000
00000000
00010000
10000000
00010000
00000000
01000000
00000000
,
01010000
00010000
01000000
00100000
,
00010000
00000000
00001000
00010000
00001000
00000000
00000100
00000000
,
00001000
00010000
00001000
00000010
,
00000110
00000000
00000001
00000100
00001000
00000000
00001001
00000000
,
00000100
00001000
00010000
00001000
,
00000010
00001000
00010000
01000000
,
00010000
00001000
00010000
01000000
,
00000000
00000000
00100000
01000000
10000000
00000000
00100000
01000000
,
10000000
00100000
10000000
01000000
,
00100000
01000000
10000000
00000000
00100000
01000000
10000000
00000000
,
00010000
00001000
00000100
00000001
,
00000010
00000100
00000001
00000000
00000010
00000100
00000001
00000000
,
00000001
00000010
00000001
00000100
,
00000010
00000100
00000001
00000000
00000010
00000100
00000001
00000000
,
00001000
00010000
01000000
10000000
,
00100000
10000000
01000000
10000000
,
01000000
00010000
01000000
00010000
,
00001000
00010000
00001000
00000100
,
00001000
00000100
00000001
00000100
,
00001000
00000100
00000001
00000000
00000001
00000100
00001000
00000000
,
00000110
00001000
00010000
01000000
,
10000000
01000000
00010000
00000000
00001000
00010000
01000000
00000000
,
11000000
00010000
00110000
10000000
,
00100000
10000000
00010000
00000000
00100000
00010000
10000000
00000000
,
01100000
00010000
00001000
00000100
,
00000001
00000100
00001000
00000000
00010000
00001000
00000100
00000000
,
00000101
00001000
00001010
00000001
,
00000100
00001000
00010000
00000000
00001000
00000100
00000001
00000000
,
00000010
00001000
00010000
00001000
,
00000100
00000001
00000010
00000000
00000010
00000001
00000100
00000000
,
00001000
00010000
00001000
00000100
,
00001000
00000100
00000000
00000001
00000100
00000000
00001000
00000000
,
00010000
01000000
01100000
00000000
,
00010000
01000000
00000000
10000000
01000000
00000000
00010000
00000000
,
00001000
00000100
00000110
00000000
,
00001000
00000100
00000000
00000001
00000100
00000000
00001000
00000000
,
00010000
01000000
01100000
00000000
,
00010000
01000000
00000000
10000000
01000000
00000000
00010000
00000000
,
00001000
00000100
00000110
00000000
,
00000100
00001000
00010000
00000000
00001000
00000000
00000100
00000000
,
00001000
00010000
01000000
00000000
00010000
00000000
00001000
00000000
,
00101000
00010000
00000100
00001000
,
00010000
01000000
10000000
11000000
,
01000000
00010000
00001000
00000000
00010000
00000000
01000000
00000000
,
00010000
00001000
00000100
00000000
00001000
00000000
00010000
00000000
,
00010010
00011000
00010100
00011000
,
00000100
00000001
00001010
00000001
,
00000100
00001000
00010000
00000000
00001000
00000000
00000100
00000000
,
00001000
00010000
01000000
00000000
00010000
00000000
00001000
00000000
,
00000100
00000010
00001000
00000100
,
00000010
00001000
00010000
01000000
,
01000000
00010000
00001000
00000000
00010000
00000000
01000000
00000000
,
00010000
00001000
00000100
00000000
00001000
00000000
00010000
00000000
,
01000000
00000000
01000000
00000000
,
10000000
00000000
10000000
00000000
,
00110000
11000000
00010000
00001000
,
00000100
00000001
00000010
00000000
00000001
00000000
00000100
00000000
,
00001000
00010000
01000000
10000000
,
00100000
10000000
01000000
00000000
10010000
00000000
00000000
00000000
,
00100000
00010000
00001000
00000100
,
00001000
00000100
00000001
00000000
00000110
00000000
00000001
00000000
,
00000010
00001000
00010000
01000000
,
10000000
01000000
00010000
00000000
01100000
00000000
00000000
00000000
,
10000000
10000000
00100000
00100000
,
00010000
00010000
00001000
00000100
,
00000101
00001010
00010010
00001010
,
00000001
00000100
00001000
00000000
00010000
00000000
01000000
00000000
,
10000000
10000000
01000000
01000000
,
00010000
00010000
00001000
00000010
,
00000110
00001100
00000011
00000101
,
00001000
00000010
00000001
00000000
00000110
00000000
00000101
00000000
,
00001100
00000000
00001001
00000000
;

//---------------dance-double - ----------------
#NOTES:
     dance-double:
     :
     Hard:
     9:
     0.662,0.679,0.353,0.000,0.000: // measure 1
00000000
00000000
00000000
00000000
,  // measure 2
00000000
00000000
00000000
00000000
,  // measure 3
00000000
00000000
00000000
00000000
,  // measure 4
00000000
00000000
00000000
00000000
,  // measure 5
00000000
00000000
00000000
00000000
,  // measure 6
00000001
00000100
00001000
00000000
00001000
00000100
00000001
00000000
,  // measure 7
00000001
00000100
00000010
00001000
00000001
00000100
00000010
00000000
,  // measure 8
00000001
00000100
00001000
00010000
,  // measure 9
00001000
00010000
01000000
10000000
,  // measure 10
01000000
00000000
00100000
00001000
00010000
00000000
00101000
00000000
,  // measure 11
00110000
00000000
10000000
00010000
00100000
00000000
01000000
00000000
,  // measure 12
00010000
00000000
00001000
00000100
00000001
00000000
00000110
00000000
,  // measure 13
00000001
00000000
00001000
00000010
00000001
00000000
00000110
00000000
,  // measure 14
00001000
00000000
00010000
00001000
00000100
00000000
00001000
00000000
,  // measure 15
00010000
00000000
01000000
10000000
00010000
00000000
01010000
00000000
,  // measure 16
00100000
00000000
01000000
00001000
00010000
00000000
01001000
00000000
,  // measure 17
00011000
00000000
00001000
00000100
00000001
00000000
00001001
00000000
,  // measure 18
00000000
00000000
00000001
00000100
00000001
00000100
00001000
00000100
,  // measure 19
00001000
00010000
01000000
10000000
01000000
10000000
00100000
00010000
,  // measure 20
00001000
00000010
00001000
00000010
00000001
00000100
00001000
00000100
,  // measure 21
00001000
00010000
01000000
10000000
01000000
10000000
00100000
00010000
,  // measure 22
00001000
00000010
00001000
00000010
00000001
00000100
00001000
00000100
,  // measure 23
00001000
00010000
01000000
00010000
01000000
10000000
01000000
00100000
,  // measure 24
00010000
10000000
00100000
01000000
00010000
00100000
01000000
00010000
,  // measure 25
01000000
10000000
00100000
10000000
01000000
00000000
00000000
00000000
,  // measure 26
00100000
00010000
10000000
00000000
01000000
10000000
00000000
01000000
,  // measure 27
00100000
00000000
01000000
00010000
00000000
00001000
00000100
00000000
,  // measure 28
00000100
00000001
00000000
00000100
00000010
00000000
00000100
00001000
,  // measure 29
00000000
00010000
01000000
00000000
00100000
00010000
10000000
00000000
,  // measure 30
00100000
10000000
01000000
00000000
00100000
00010000
00000000
00010000
,  // measure 31
01000000
00000000
00100000
00010000
00000000
00001000
00000100
00000000
,  // measure 32
00000100
00000001
00000000
00000001
00000010
00000000
00000001
00001000
,  // measure 33
00000000
00001000
00000001
00000000
00000010
00000001
00000100
00000000
,  // measure 34
00000100
00000001
00001000
00000000
00000010
00000001
00000000
00000010
,  // measure 35
00000100
00000000
00000010
00001000
00000000
00000001
00000100
00000000
,  // measure 36
00001000
00010000
00000000
00100000
01000000
00000000
00010000
01000000
,  // measure 37
00000000
10000000
01000000
00000000
00100000
10000000
00010000
00000000
,  // measure 38
10000000
01000000
00100000
00000000
00010000
00100000
01000000
00000000
,  // measure 39
00010000
00001000
00000100
00000000
00000010
00010000
00001000
00000000
,  // measure 40
00001000
00000100
00000001
00000000
00001000
00000010
00000001
00000000
,  // measure 41
00000010
00000100
00000001
00000000
00000010
00000100
00001000
00000000
,  // measure 42
00000010
00001000
00000000
00000010
00000001
00000100
00001000
00000000
,  // measure 43
00010000
01000000
10000000
00000000
10010000
00000000
00000000
00000000
,  // measure 44
00100000
00010000
00000000
00100000
10000000
01000000
00010000
00000000
,  // measure 45
00001000
00000100
00000001
00000000
00001001
00000000
00000000
00000000
,  // measure 46
00000010
00001000
00000000
00000010
00000001
00000100
00001000
00000000
,  // measure 47
00010000
01000000
10000000
00000000
10010000
00000000
00000000
00000000
,  // measure 48
00100000
00010000
00000000
00100000
10000000
01000000
00010000
00000000
,  // measure 49
00001000
00000100
00000001
00000000
00001001
00000000
00000000
00000000
,  // measure 50
00000100
00001000
00010000
00000000
00000100
00010000
00001000
00000100
,  // measure 51
00001000
00000000
00000100
00000001
00000010
00001000
00010000
00000000
,  // measure 52
01000000
00010000
00001000
00000000
01000000
00001000
00010000
01000000
,  // measure 53
00010000
00000000
01000000
10000000
00100000
00010000
00001000
00000000
,  // measure 54
00000010
00001000
00010000
00000000
00100000
00010000
00001000
00000010
,  // measure 55
00001000
00000000
00010000
00001000
00000100
00001000
00010000
00000000
,  // measure 56
00100000
00010000
00001000
00000000
00000010
00001000
00010000
00100000
,  // measure 57
00010000
00000000
00001000
00010000
01000000
00010000
00001000
00000000
,  // measure 58
00001000
00000100
00000010
00001000
00000010
00000100
00000001
00000000
,  // measure 59
00000001
00000100
00001000
00000000
00000100
00001000
00010000
00000000
,  // measure 60
00001000
00010000
01000000
00000000
00010000
01000000
10000000
00000000
,  // measure 61
00100000
10000000
01000000
00000000
00100000
10000000
01000000
00000000
,  // measure 62
00110000
11000000
00010000
00001000
,  // measure 63
00000101
00001010
00000001
00000100
,  // measure 64
00001000
00000000
00001000
00000000
,  // measure 65
00000001
00000000
00000001
00000000
,  // measure 66
00000011
00001000
00001010
00000001
,  // measure 67
00000010
00001000
00010000
00000000
00010010
00000000
00011000
00000000
,  // measure 68
00101000
00011000
00101000
00110000
,  // measure 69
10000000
01000000
00010000
00000000
10010000
00000000
00000000
00000000
,  // measure 70
10100000
00010000
00110000
10000000
,  // measure 71
00100000
00010000
00001000
00000000
00101000
00000000
00011000
00000000
,  // measure 72
00010010
00011000
00010010
00001010
,  // measure 73
00000001
00000100
00001000
00000000
00001001
00000000
00000000
00000000
,  // measure 74
00000001
00000100
00000001
00000100
00001000
00010000
01000000
00010000
,  // measure 75
01000000
10000000
00100000
10000000
00100000
00010000
00001000
00000010
,  // measure 76
00000001
00000100
00001000
00000100
00000001
00000100
00001000
00000100
,  // measure 77
00000001
00000100
00001000
00010000
00001000
00010000
01000000
00000000
,  // measure 78
01000000
10000000
01000000
00010000
01000000
10000000
00100000
01000000
,  // measure 79
00100000
00010000
00100000
01000000
00100000
10000000
01000000
00010000
,  // measure 80
00001000
00000010
00001000
00000010
00000001
00000100
00000001
00000010
,  // measure 81
00000001
00000100
00001000
00000100
00001000
00010000
01000000
00000000
,  // measure 82
01100000
00000000
10010000
00000000
;

//---------------dance-double - ----------------
#NOTES:
     dance-double:
     :
     Challenge:
     9:
     0.686,0.689,0.461,0.020,0.015: // measure 1
00000000
00000000
00000000
00000000
,  // measure 2
00000000
00000000
00000000
00000000
,  // measure 3
00000000
00000000
00000000
00000000
,  // measure 4
00000000
00000000
00000000
00000000
,  // measure 5
00000000
00000000
00000000
00000000
,  // measure 6
00000001
00000100
00001000
00000000
00001000
00000100
00000001
00000000
,  // measure 7
00000001
00000100
00000010
00001000
00000001
00000100
00000010
00000000
,  // measure 8
00000001
00000100
00001000
00010000
,  // measure 9
00001000
00010000
01000000
10010000
,  // measure 10
01010000
00000000
00100000
00001000
00010000
00000000
00101000
00000000
,  // measure 11
00110000
00000000
10000000
00010000
00100000
00000000
01010000
00000000
,  // measure 12
00011000
00000000
00001000
00000100
00000001
00000000
00000110
00000000
,  // measure 13
00000101
00000000
00001000
00000010
00000001
00000000
00000110
00000000
,  // measure 14
00001100
00000000
00010000
00001000
00000100
00000000
00011000
00000000
,  // measure 15
00110000
00000000
01000000
10000000
00010000
00000000
01010000
00000000
,  // measure 16
01100000
00000000
01000000
00001000
00010000
00000000
01001000
00000000
,  // measure 17
00011000
00000000
00001000
00000100
00000001
00000000
00001001
00001000
,  // measure 18
00000001
00000000
00000001
00000100
00000001
00000100
00001000
00000100
,  // measure 19
00001000
00010000
01000000
10000000
01000000
10000000
00100000
00010000
,  // measure 20
00001000
00000010
00001000
00000010
00000001
00000100
00001000
00000100
,  // measure 21
00001000
00010000
01000000
10000000
01000000
10000000
00100000
00010000
,  // measure 22
00001000
00000010
00001000
00000010
00000001
00000100
00001000
00000100
,  // measure 23
00001000
00010000
01000000
00010000
01000000
10000000
01000000
00100000
,  // measure 24
00010000
10000000
00100000
01000000
00010000
00100000
01000000
00010000
,  // measure 25
01000000
00000000
10000000
00000000
00100000
00000000
10000000
00000000
00000000
01000000
00000000
00000000
,  // measure 26
00100000
00010000
00000000
10000000
01000000
00000000
10000000
01000000
,  // measure 27
00000000
00100000
01000000
00000000
00010000
00001000
00000000
00000100
,  // measure 28
00000001
00000000
00000100
00000010
00000000
00000100
00001000
00000000
,  // measure 29
00010000
01000000
00000000
00100000
00010000
00000000
10000000
00100000
,  // measure 30
10000000
01000000
00100000
00010000
01000000
00000000
00100000
00010000
,  // measure 31
00000000
00001000
00000100
00000000
00000100
00000001
00000000
00000001
,  // measure 32
00000010
00000000
00000001
00001000
00000000
00001000
00000001
00000000
,  // measure 33
00000010
00000001
00000000
00000100
00000100
00000001
00001000
00000010
,  // measure 34
00000001
00000010
00000000
00000100
00000010
00000000
00001000
00000001
,  // measure 35
00000000
00000100
00001000
00000000
00010000
00100000
00000000
01000000
,  // measure 36
00010000
00000000
01000000
10000000
00000000
01000000
00100000
00000000
,  // measure 37
10000000
00010000
00000000
10000000
01000000
00000000
00100000
00010000
,  // measure 38
00100000
01000000
00000000
00010000
00001000
00000000
00000100
00000010
,  // measure 39
00000000
00010000
00001000
00000000
00000100
00000001
00000000
00001000
,  // measure 40
00000010
00000000
00000001
00000010
00000000
00000100
00000001
00000000
,  // measure 41
00000010
00000100
00000000
00001000
00000001
00000100
00000010
00001000
,  // measure 42
00000010
00000000
00001000
00000000
00000010
00000000
00000001
00000100
,  // measure 43
00001000
00010000
01000000
00000000
10010000
00000000
00000000
00000000
,  // measure 44
00100000
00000000
00010000
00000000
00100000
00000000
10000000
01000000
,  // measure 45
00010000
00001000
00000100
00000000
00001001
00000000
00000000
00000000
,  // measure 46
00000010
00000000
00001000
00000000
00000010
00000000
00000001
00000100
,  // measure 47
00001000
00010000
01000000
00000000
10010000
00000000
00000000
00000000
,  // measure 48
00000000
00100000
00000000
00010000
00000000
00100000
10000000
01000000
,  // measure 49
00010000
00001000
00000100
00000000
00001001
00000000
00000000
00000000
,  // measure 50
00000100
00001000
00010000
00000000
00000100
00010000
00001000
00000100
,  // measure 51
00001000
00000000
00000100
00000001
00000010
00001000
00010000
00000000
,  // measure 52
01000000
00010000
00001000
00000000
01000000
00001000
00010000
01000000
,  // measure 53
00010000
00000000
01000000
10000000
00100000
00010000
00001000
00000000
,  // measure 54
00000010
00001000
00010000
00000000
00100000
00010000
00001000
00000010
,  // measure 55
00001000
00000000
00010000
00001000
00000100
00001000
00010000
00000000
,  // measure 56
00100000
00010000
00001000
00000000
00000010
00001000
00010000
00100000
,  // measure 57
00010000
00000000
00001000
00010000
01000000
00010000
00001000
00000000
,  // measure 58
00001000
00000100
00000010
00001000
00000010
00000100
00000001
00000000
,  // measure 59
00000001
00000100
00001000
00000000
00000100
00001000
00010000
00000000
,  // measure 60
00001000
00010000
01000000
00000000
00010000
01000000
10000000
00000000
,  // measure 61
00100000
10000000
01000000
00000000
00100000
10000000
01000000
00000000
,  // measure 62
00010000
00110000
00000000
11000000
00000000
00010000
00000000
00001000
,  // measure 63
00000000
00000101
00000000
00000000
00000000
00000000
00000000
00000000
,  // measure 64
00000000
00001010
00000000
00000001
00000000
00000100
00000000
00001000
,  // measure 65
00000000
00011000
00000000
00001100
00000000
00000101
00000000
00000001
,  // measure 66
00000011
00000000
00000000
00000000
00001000
00000000
00000000
00000000
00001010
00000000
00000000
00000000
00000001
00000000
00000010
00000001
,  // measure 67
00000010
00001000
00010000
00000000
00010010
00000000
00011000
00000000
,  // measure 68
00101000
00011000
00101000
00110000
,  // measure 69
10000000
01000000
00010000
00000000
10010000
00000000
00000000
00000000
,  // measure 70
10100000
00010000
00110000
10000000
,  // measure 71
00100000
00010000
00001000
00000000
00101000
00000000
00011000
00000000
,  // measure 72
00010010
00011000
00010010
00001010
,  // measure 73
00000001
00000100
00001000
00000000
00001001
00000000
00000000
00000000
,  // measure 74
00000001
00000100
00000001
00000100
00001000
00010000
01000000
00010000
,  // measure 75
01000000
10000000
00100000
10000000
00100000
00010000
00001000
00000010
,  // measure 76
00000001
00000100
00001000
00000100
00000001
00000100
00001000
00000100
,  // measure 77
00000001
00000100
00001000
00010000
00001000
00010000
01000000
00100000
,  // measure 78
01000000
10000000
01000000
00010000
01000000
10000000
00100000
01000000
,  // measure 79
00100000
00010000
00100000
01000000
00100000
10000000
01000000
00010000
,  // measure 80
00001000
00000010
00001000
00000010
00000001
00000100
00000001
00000010
,  // measure 81
00000001
00000100
00001000
00000100
00001000
00010000
01000000
00100000
,  // measure 82
00000000
00000000
20020000
00000000
,  // measure 83
00000000
00000000
00000000
30030000
;
