#TITLE:AA;
#SUBTITLE:;
#ARTIST:D.J.Amuro;
#TITLETRANSLIT:;
#SUBTITLETRANSLIT:;
#ARTISTTRANSLIT:;
#CREDIT:;
#BANNER:AA.png;
#BACKGROUND:AA-bg.png;
#LYRICSPATH:;
#CDTITLE:./CDTITLES/beatmaniaIIDX.png;
#MUSIC:AA.mp3;
#OFFSET:-0.061;
#SAMPLESTART:12.500;
#SAMPLELENGTH:15.000;
#SELECTABLE:YES;
#BPMS:0.000=154.010;
#STOPS:;
#BGCHANGES:;

//---------------dance-single - ----------------
#NOTES:
     dance-single:
     :
     Easy:
     4:
     0.319,0.374,0.193,0.043,0.000:
0000
0000
0000
0000
,
0000
0000
0000
0000
,
0000
0000
0000
0000
,
0000
0000
0000
0000
,
1000
0000
1000
0000
,
0001
0000
0001
0000
,
0100
0000
0100
0000
,
0010
0010
1000
0001
,
0100
0000
0100
0010
,
1000
0000
1000
0001
,
0100
0000
1000
0001
,
0100
0010
1000
1001
,
0010
0000
0010
0100
,
1000
0000
1000
0001
,
0010
0000
1000
0001
,
0010
0100
1000
1001
,
0100
0010
1000
1000
,
0100
0010
0001
0001
,
0010
0100
1000
1000
,
0010
0100
0001
0001
,
1000
0001
0010
0010
,
0001
1000
0100
0100
,
1000
0001
0100
0100
,
0110
1000
0110
0001
,
2002
0000
0000
3003
,
0100
0000
0100
0000
,
0010
0000
0010
0000
,
1000
0000
1000
0000
,
0001
0000
0001
0000
,
0100
0100
0000
0000
,
0010
0010
0000
0000
,
1000
1000
0001
0001
,
1001
0010
1001
0100
,
1000
0010
0100
0001
,
0001
0010
0100
1000
,
1000
0100
0010
0001
,
0100
1001
0010
1001
,
1000
0010
0100
0001
,
0001
0010
0100
1000
,
1000
0100
0010
0001
,
0100
1001
0010
1001
,
0100
0010
1000
1000
,
0100
0010
0001
0001
,
0010
0100
1000
1000
,
0010
0100
0001
0001
,
1000
0001
0010
0010
,
0001
1000
0100
0100
,
1000
0001
0100
0100
,
0110
1000
0110
0001
,
1000
0010
0100
0001
,
0001
0010
0100
1000
,
1000
0100
0010
0001
,
0100
1001
0010
1001
,
1000
0010
0100
0001
,
0001
0010
0100
1000
,
1000
0100
0010
0001
,
0100
1001
0010
1001
,
0220
0000
0000
0000
,
0330
0000
0000
0000
;

//---------------dance-single - ----------------
#NOTES:
     dance-single:
     :
     Medium:
     7:
     0.500,0.498,0.505,0.043,0.156:
0000
0000
0000
0000
,
0000
0000
0000
0000
,
0000
0000
0000
0000
,
0000
0000
0000
0000
,
1000
1000
1000
1000
,
0001
0001
0001
0001
,
0100
0100
0100
0100
,
0010
0000
0010
0000
1000
0100
0010
0001
,
1000
0100
1000
0000
1100
0000
1001
0000
,
0001
0100
0001
0000
0101
0000
1001
0000
,
1000
0001
1000
0000
0110
0000
1001
0000
,
1000
0010
1000
0000
0001
0100
0001
0000
,
1000
0010
1000
0000
1010
0000
1001
0000
,
0001
0010
0001
0000
0011
0000
1001
0000
,
1000
0001
1000
0000
0110
0000
1001
0000
,
1000
0100
1000
0000
0001
0010
0001
0000
,
0010
0000
0000
0001
0000
0000
0100
0000
0010
0000
0000
1000
0000
0000
0100
0000
,
0010
0000
0000
0100
0000
0000
1000
0000
0010
0000
0000
0100
0000
0000
0001
0000
,
0010
0000
0000
0001
0000
0000
1000
0000
0010
0000
0000
1000
0000
0000
0001
0000
,
0100
0000
0000
0001
0000
0000
1000
0000
0100
0000
0000
1000
0000
0000
0001
0000
,
0010
0000
0000
0001
0000
0000
0100
0000
0010
0000
0000
1000
0000
0000
0100
0000
,
0010
0000
0000
0100
0000
0000
1000
0000
0010
0000
0000
0100
0000
0000
0001
0000
,
0010
0000
0000
0001
0000
0000
1000
0000
0010
0000
0000
1000
0000
0000
0001
0000
,
1000
0100
1000
0000
0001
0010
0001
0000
,
2002
0000
0000
3003
,
0100
0000
0000
0000
0000
0100
0010
0010
,
0010
0000
0000
0001
0000
0000
0001
0000
0000
0000
0100
0000
0000
0000
0010
0000
,
0010
0000
0000
0100
0000
0010
0000
0001
,
0000
1000
0000
0001
0000
0100
0000
0010
,
1000
1000
1000
1000
,
0001
0001
0001
0001
,
0100
0010
0100
0000
0001
1000
0001
0000
,
0011
1001
1100
0110
,
0001
0010
0001
0000
1000
0100
1000
0000
,
1100
1001
0101
0110
,
1000
0010
1000
0000
0001
0100
0001
0000
,
0101
1001
1100
0110
,
0001
1000
0001
0000
0010
0100
0010
0000
,
0011
1100
1001
0110
,
1000
0001
1000
0000
0100
0010
0100
0000
,
0010
0001
1000
0100
0010
0000
1001
0000
,
0010
0000
0000
0001
0000
0000
0100
0000
0010
0000
0000
1000
0000
0000
0100
0000
,
0010
0000
0000
0100
0000
0000
1000
0000
0010
0000
0000
0100
0000
0000
0001
0000
,
0010
0000
0000
0001
0000
0000
1000
0000
0010
0000
0000
1000
0000
0000
0001
0000
,
0100
0000
0000
0001
0000
0000
1000
0000
0100
0000
0000
1000
0000
0000
0001
0000
,
0010
0000
0000
0001
0000
0000
0100
0000
0010
0000
0000
1000
0000
0000
0100
0000
,
0010
0000
0000
0100
0000
0000
1000
0000
0010
0000
0000
0100
0000
0000
0001
0000
,
0010
0000
0000
0001
0000
0000
1000
0000
0010
0000
0000
1000
0000
0000
0001
0000
,
1000
0100
1000
0000
0001
0010
0001
0000
,
0100
0010
0100
0000
0001
1000
0001
0000
,
0011
1001
1100
0110
,
0001
0010
0001
0000
1000
0100
1000
0000
,
1100
1001
0101
0110
,
1000
0010
1000
0000
0001
0100
0001
0000
,
0101
1001
1100
0110
,
0001
1000
0001
0000
0010
0100
0010
0000
,
0011
1100
1001
0110
,
2002
0000
0000
0000
,
3003
0000
0000
0000
;

//---------------dance-single - ----------------
#NOTES:
     dance-single:
     :
     Hard:
     9:
     0.620,0.685,0.150,0.043,0.435:
0000
0000
0000
0000
,
0000
0000
0000
0000
,
0000
0000
0000
0000
,
0000
0000
0000
0000
,
1000
1000
1000
1000
,
0001
0001
0001
0001
,
0100
0100
0100
0100
,
0010
1000
0100
0010
0001
0100
0010
0000
,
0001
0100
0001
0000
1001
0000
0101
0000
,
1000
0010
1000
0000
1001
0000
1010
0000
,
0001
1000
0001
0000
1001
0000
0110
0000
,
1000
0001
1000
0001
0010
0100
0010
0100
,
1000
0010
1000
0000
1001
0000
1010
0000
,
0001
0100
0001
0000
1001
0000
0101
0000
,
1000
0001
1000
0000
1001
0000
0110
0000
,
0001
1000
0001
1000
0100
0010
0100
0010
,
0001
1000
0000
0100
0000
0000
0010
0000
0001
0000
0000
1000
0000
0000
0100
0000
,
1000
0001
0000
0100
0000
0010
0100
0000
0001
1000
0000
0001
0000
0000
0100
0000
,
0001
1000
0000
0010
0000
0000
0100
0000
0001
0000
0000
1000
0000
0000
0010
0000
,
1000
0001
0000
0010
0000
0100
0010
0000
0001
1000
0000
0001
0000
0010
0000
0000
,
0001
1000
0000
0100
0000
0000
0010
0000
0001
0000
0000
1000
0000
0000
0100
0000
,
1000
0001
0000
0100
0000
0010
0100
0000
0001
1000
0000
0001
0000
0000
0100
0000
,
0001
1000
0000
0010
0000
0000
0100
0000
0001
0000
0000
1000
0000
0000
0010
0000
,
1000
0100
1000
0000
0001
1000
0001
0000
0010
0001
0010
0000
0100
0000
0100
0000
,
2002
0000
0000
3003
,
0100
0000
0000
0000
0000
0100
0010
0010
,
0010
0000
0000
0001
0000
0000
0001
0000
0000
0000
0100
0000
0000
0000
0010
0000
,
0010
0000
0000
0100
0000
0010
0000
0001
,
0000
0000
1000
0000
0000
0000
0001
0000
0000
0000
0100
0000
0000
0000
0010
0001
,
0010
0000
0100
0000
1000
0100
0010
0001
,
0000
1000
0000
1000
0000
0100
0010
0000
,
0001
0100
0001
0000
1000
0010
1000
0000
,
0010
0000
0001
0000
0010
0000
1000
0000
0010
0000
0100
0000
0001
1000
0001
0000
,
1000
0100
0010
0100
0001
0100
0010
0100
,
1000
0100
0010
0100
0001
0100
0010
0100
,
0010
1000
0010
0100
0010
0001
0010
0100
,
0010
0000
1000
0000
0010
0000
0100
0000
1000
0100
1000
0000
0001
0010
0001
0000
,
1000
0100
0001
0100
1000
0100
0001
0100
,
1000
0010
0001
0010
1000
0010
0001
0010
,
1000
0100
0001
0100
1000
0100
0001
0100
,
1000
0000
0010
0000
0001
0000
0010
0000
1000
0100
1000
0000
0001
0010
0001
0000
,
1000
0001
0000
0100
0000
0000
0010
0000
1000
0000
0000
0001
0000
0000
0100
0000
,
0001
1000
0000
0100
0000
0010
0100
0000
1000
0001
0000
1000
0000
0000
0100
0000
,
1000
0001
0000
0010
0000
0000
0100
0000
1000
0000
0000
0001
0000
0000
0010
0000
,
0001
1000
0000
0010
0000
0100
0010
0000
1000
0001
0000
1000
0000
0010
0000
0000
,
1000
0001
0000
0100
0000
0000
0010
0000
1000
0000
0000
0001
0000
0000
0100
0000
,
0001
1000
0000
0100
0000
0010
0100
0000
1000
0001
0000
1000
0000
0000
0100
0000
,
1000
0001
0000
0010
0000
0000
0100
0000
1000
0000
0000
0001
0000
0000
0010
0000
,
0001
0100
0001
0000
1000
0001
1000
0000
0010
1000
0010
0000
0100
0000
0100
0000
,
0001
1000
0001
0000
0100
0000
0100
0000
0001
1000
0001
0000
0010
0000
0010
0000
,
0001
0100
0010
1000
0100
0010
0001
0001
,
1000
0001
1000
0000
0100
0000
0100
0000
1000
0001
1000
0000
0010
0000
0010
0000
,
1000
0000
0100
0000
0010
0000
0001
0000
0100
0001
0100
0000
0010
1000
0010
0000
,
0100
0001
0100
0000
0010
0000
0010
0000
0100
1000
0100
0000
0010
0000
0010
0000
,
0100
0010
1000
0001
0010
0100
1000
0001
,
0010
0001
0010
0000
0100
0000
0100
0000
0010
1000
0010
0000
0100
0000
0100
0000
,
0010
0000
0100
0000
1000
0000
0001
0000
0100
0010
0100
0000
0001
1000
0001
0000
,
2002
0000
0000
0000
,
3003
0000
0000
0000
;

//---------------dance-double - ----------------
#NOTES:
     dance-double:
     :
     Easy:
     4:
     0.319,0.374,0.193,0.043,0.000:
00000000
00000000
00000000
00000000
,
00000000
00000000
00000000
00000000
,
00000000
00000000
00000000
00000000
,
00000000
00000000
00000000
00000000
,
10000000
00000000
10000000
00000000
,
01000000
00000000
01000000
00000000
,
00010000
00000000
00010000
00000000
,
00001000
00000010
00000001
00001000
,
00000001
00000000
00000001
00000100
,
00001000
00000000
00001000
00010000
,
00100000
00000000
00100000
10000000
,
01000000
00100000
00010000
01010000
,
10000000
00000000
10000000
01000000
,
00010000
00000000
00010000
00001000
,
00000010
00000000
00000010
00000001
,
00000100
00000010
00001000
00001100
,
00000001
00000100
00001000
00001000
,
00010000
01000000
10000000
10000000
,
00100000
00010000
00001000
00001000
,
00000010
00000001
00001000
00001000
,
00000001
00000010
00001000
00001000
,
00010000
00100000
10000000
10000000
,
01000000
00010000
00001000
00001000
,
00000110
00000001
00000110
00001000
,
00022000
00000000
00000000
00033000
,
00100000
00000000
00100000
00000000
,
10000000
00000000
10000000
00000000
,
00100000
00000000
00100000
00000000
,
00010000
00000000
00010000
00000000
,
00001000
00001000
00000000
00000000
,
00000010
00000010
00000000
00000000
,
00000001
00000001
00001000
00001000
,
00001001
00000010
00001001
00000100
,
00000001
00000100
00001000
00010000
,
00010000
01000000
10000000
00100000
,
00100000
00010000
00001000
00010000
,
01000000
10010000
00100000
10010000
,
10000000
01000000
00010000
00001000
,
00001000
00000100
00000001
00000010
,
00000010
00001000
00010000
00001000
,
00000100
00001001
00000010
00001001
,
00000001
00000100
00001000
00001000
,
00010000
01000000
10000000
10000000
,
00100000
00010000
00001000
00001000
,
00000010
00000001
00001000
00001000
,
00000001
00000010
00001000
00001000
,
00010000
00100000
10000000
10000000
,
01000000
00010000
00001000
00001000
,
00000110
00000001
00000110
00001000
,
00000001
00000100
00001000
00010000
,
00010000
01000000
10000000
00100000
,
00100000
00010000
00001000
00010000
,
01000000
10010000
00100000
10010000
,
10000000
01000000
00010000
00001000
,
00001000
00000100
00000001
00000010
,
00000010
00001000
00010000
00001000
,
00000100
00001001
00000010
00001001
,
00000220
00000000
00000000
00000000
,
00000330
00000000
00000000
00000000
;

//---------------dance-double - ----------------
#NOTES:
     dance-double:
     :
     Medium:
     7:
     0.502,0.498,0.537,0.043,0.156:
00000000
00000000
00000000
00000000
,
00000000
00000000
00000000
00000000
,
00000000
00000000
00000000
00000000
,
00000000
00000000
00000000
00000000
,
10000000
10000000
10000000
10000000
,
01000000
01000000
01000000
01000000
,
00010000
00010000
00010000
00010000
,
00001000
00000000
00001000
00000000
00000010
00000001
00000010
00000100
,
00000010
00000001
00000010
00000000
00001001
00000000
00000101
00000000
,
00000100
00001000
00000100
00000000
00011000
00000000
00110000
00000000
,
00100000
10000000
00100000
00000000
10010000
00000000
11000000
00000000
,
01000000
00010000
01000000
00000000
01000000
10000000
01000000
00000000
,
00100000
10000000
00100000
00000000
10010000
00000000
11000000
00000000
,
01000000
00010000
01000000
00000000
00011000
00000000
00001010
00000000
,
00000010
00000001
00000010
00000000
00001001
00000000
00000101
00000000
,
00000100
00001000
00000100
00000000
00000100
00000001
00000100
00000000
,
00001000
00000000
00000000
00010000
00000000
00000000
00100000
00000000
10000000
00000000
00000000
01000000
00000000
00000000
10000000
00000000
,
00100000
00000000
00000000
00010000
00000000
00000000
00001000
00000000
00010000
00000000
00000000
01000000
00000000
00000000
01000000
00000000
,
00010000
00000000
00000000
00001000
00000000
00000000
00000010
00000000
00000001
00000000
00000000
00000100
00000000
00000000
00000001
00000000
,
00000010
00000000
00000000
00001000
00000000
00000000
00010000
00000000
00001000
00000000
00000000
00000100
00000000
00000000
00000100
00000000
,
00001000
00000000
00000000
00010000
00000000
00000000
01000000
00000000
10000000
00000000
00000000
00100000
00000000
00000000
10000000
00000000
,
01000000
00000000
00000000
00010000
00000000
00000000
00001000
00000000
00010000
00000000
00000000
00100000
00000000
00000000
00100000
00000000
,
00010000
00000000
00000000
00001000
00000000
00000000
00000100
00000000
00000001
00000000
00000000
00000010
00000000
00000000
00000001
00000000
,
00000100
00000010
00000100
00000000
00001000
00010000
00001000
00000000
,
00022000
00000000
00000000
00033000
,
00100000
00000000
00000000
00000000
00000000
00100000
00001000
00001000
,
00001000
00000000
00000000
00010000
00000000
00000000
00010000
00000000
00000000
00000000
01000000
00000000
00000000
00000000
00100000
00000000
,
00100000
00000000
00000000
10000000
00000000
00100000
00000000
01000000
,
00000000
10000000
00000000
00010000
00000000
01000000
00000000
00001000
,
00010000
00010000
00010000
00010000
,
00001000
00001000
00001000
00001000
,
00000010
00000001
00000010
00000000
00000100
00001000
00000100
00000000
,
00000011
00001001
00000110
00001100
,
00010000
00001000
00010000
00000000
00100000
10000000
00100000
00000000
,
10010000
11000000
00101000
00011000
,
00001000
00010000
00001000
00000000
00000010
00000001
00000010
00000000
,
00001001
00000101
00010010
00011000
,
00010000
00001000
00010000
00000000
01000000
10000000
01000000
00000000
,
10010000
10100000
01001000
00011000
,
00001000
00010000
00001000
00000000
00000100
00000001
00000100
00000000
,
00001001
00000011
00010100
00011000
,
00001000
00000000
00000000
00010000
00000000
00000000
00100000
00000000
10000000
00000000
00000000
01000000
00000000
00000000
10000000
00000000
,
00100000
00000000
00000000
00010000
00000000
00000000
00001000
00000000
00010000
00000000
00000000
01000000
00000000
00000000
01000000
00000000
,
00010000
00000000
00000000
00001000
00000000
00000000
00000010
00000000
00000001
00000000
00000000
00000100
00000000
00000000
00000001
00000000
,
00000010
00000000
00000000
00001000
00000000
00000000
00010000
00000000
00001000
00000000
00000000
00000100
00000000
00000000
00000100
00000000
,
00001000
00000000
00000000
00010000
00000000
00000000
01000000
00000000
10000000
00000000
00000000
00100000
00000000
00000000
10000000
00000000
,
01000000
00000000
00000000
00010000
00000000
00000000
00001000
00000000
00010000
00000000
00000000
00100000
00000000
00000000
00100000
00000000
,
00010000
00000000
00000000
00001000
00000000
00000000
00000100
00000000
00000001
00000000
00000000
00000010
00000000
00000000
00000001
00000000
,
00000100
00000010
00000100
00000000
00001000
00010000
00001000
00000000
,
00010000
00001000
00010000
00000000
01000000
00100000
01000000
00000000
,
10010000
10100000
01001000
00011000
,
00001000
00010000
00001000
00000000
00000100
00000010
00000100
00000000
,
00001001
00000011
00010100
00011000
,
00010000
00001000
00010000
00000000
00100000
01000000
00100000
00000000
,
10010000
11000000
00101000
00011000
,
00001000
00010000
00001000
00000000
00000010
00000100
00000010
00000000
,
00001001
00000101
00010010
00011000
,
00022000
00000000
00000000
00000000
,
00033000
00000000
00000000
00000000
;

//---------------dance-double - ----------------
#NOTES:
     dance-double:
     :
     Hard:
     9:
     0.591,0.623,0.161,0.043,0.328:
00000000
00000000
00000000
00000000
,
00000000
00000000
00000000
00000000
,
00000000
00000000
00000000
00000000
,
00000000
00000000
00000000
00000000
,
10000000
10000000
10000000
10000000
,
01000000
01000000
01000000
01000000
,
00010000
00010000
00010000
00010000
,
00001000
00000010
00000001
00000010
00000100
00010000
00001000
00010000
,
01000000
00100000
01000000
00000000
11000000
00000000
10010000
00000000
,
10000000
00100000
00010000
00000000
00011000
00000000
00010100
00000000
,
00000100
00000010
00000001
00000000
00001001
00000000
00000101
00000000
,
00000100
00001000
00010000
00100000
00010000
00001000
00000100
00000001
,
00000100
00000010
00000100
00000000
00000101
00000000
00001001
00000000
,
00000001
00000010
00001000
00000000
00011000
00000000
01001000
00000000
,
01000000
00100000
10000000
00000000
10010000
00000000
11000000
00000000
,
01000000
00010000
00001000
00000010
00001000
00010000
01000000
00100000
,
00001000
00010000
00000000
00001000
00000000
00000000
00000100
00000000
00000010
00000000
00000000
00001000
00000000
00000000
00000100
00000000
,
00010000
00001000
00000000
00010000
00000000
01000000
00100000
00000000
00010000
10000000
00000000
01000000
00000000
00000000
00100000
00000000
,
00001000
00010000
00000000
00001000
00000000
00000000
00000010
00000000
00000100
00000000
00000000
00001000
00000000
00000000
00000010
00000000
,
00010000
00001000
00000000
00010000
00000000
00100000
01000000
00000000
00010000
10000000
00000000
00100000
00000000
00000000
01000000
00000000
,
00001000
00010000
00000000
00001000
00000000
00000000
00000100
00000000
00000010
00000000
00000000
00001000
00000000
00000000
00000100
00000000
,
00010000
00001000
00000000
00010000
00000000
01000000
00100000
00000000
00010000
10000000
00000000
01000000
00000000
00000000
00100000
00000000
,
00001000
00010000
00000000
00001000
00000000
00000000
00000010
00000000
00000100
00000000
00000000
00001000
00000000
00000000
00000010
00000000
,
00000100
00000001
00000100
00000000
00000010
00001000
00000010
00000000
00010000
00000100
00010000
00000000
00001000
00000000
00010000
00000000
,
00022000
00000000
00000000
00033000
,
00100000
00000000
00000000
00000000
00000000
00100000
00001000
00001000
,
00001000
00000000
00000000
00010000
00000000
00000000
00010000
00000000
00000000
00000000
01000000
00000000
00000000
00000000
00100000
00000000
,
00100000
00000000
00000000
10000000
00000000
00100000
00000000
01000000
,
00000000
10000000
00000000
00010000
00000000
01000000
00000000
00001000
,
00001000
00000000
00000000
01000000
00100000
00010000
00001000
00000000
,
00000000
00000100
00000000
00000100
00000000
00000010
00001000
00000000
,
00000001
00000100
00000001
00000000
00000010
00001000
00000010
00000000
,
00000010
00000100
00001000
00010000
00001000
00000000
00011000
00000000
,
00010000
00100000
10000000
00100000
00010000
00001000
00000100
00000001
,
00000100
00001000
00010000
00100000
10000000
00100000
00010000
00001000
,
00010000
01000000
10000000
01000000
00010000
00001000
00000010
00000001
,
00000010
00001000
00010000
01000000
10000000
01000000
00010000
00010000
,
00001000
00000100
00000001
00000100
00001000
00010000
00100000
10000000
,
00100000
00010000
00001000
00000100
00000001
00000100
00001000
00010000
,
00001000
00000010
00000001
00000010
00001000
00010000
01000000
10000000
,
01000000
00010000
00001000
00000010
00000001
00000010
00001000
00001000
,
00010000
00001000
00000000
00010000
00000000
00000000
01000000
00000000
00100000
00000000
00000000
00010000
00000000
00000000
01000000
00000000
,
00001000
00010000
00000000
00001000
00000000
00000100
00000010
00000000
00001000
00000001
00000000
00000100
00000000
00000000
00000010
00000000
,
00010000
00001000
00000000
00010000
00000000
00000000
00100000
00000000
01000000
00000000
00000000
00010000
00000000
00000000
00100000
00000000
,
00001000
00010000
00000000
00001000
00000000
00000010
00000100
00000000
00001000
00000001
00000000
00000010
00000000
00000000
00000100
00000000
,
00010000
00001000
00000000
00010000
00000000
00000000
01000000
00000000
00100000
00000000
00000000
00010000
00000000
00000000
01000000
00000000
,
00001000
00010000
00000000
00001000
00000000
00000100
00000010
00000000
00001000
00000001
00000000
00000100
00000000
00000000
00000010
00000000
,
00010000
00001000
00000000
00010000
00000000
00000000
00100000
00000000
01000000
00000000
00000000
00010000
00000000
00000000
00100000
00000000
,
01000000
10000000
01000000
00000000
00100000
00010000
00100000
00000000
00001000
01000000
00001000
00000000
00010000
00000000
00001000
00000000
,
00010000
00100000
00010000
00001000
00010000
01000000
00010000
00001000
,
00010000
00100000
10000000
00100000
00010000
00001000
00010000
00010000
,
00001000
00000010
00001000
00010000
00001000
00000100
00001000
00010000
,
00001000
00000010
00000001
00000010
00001000
00010000
00001000
00001000
,
00010000
01000000
00010000
00001000
00010000
00100000
00010000
00001000
,
00010000
01000000
10000000
01000000
00010000
00001000
00010000
00010000
,
00001000
00000100
00001000
00010000
00001000
00000010
00001000
00010000
,
00001000
00000100
00000001
00000100
00001000
00010000
00001000
00001000
,
00022000
00000000
00000000
00000000
,
00033000
00000000
00000000
00000000
;

//---------------dance-single - ----------------
#NOTES:
     dance-single:
     :
     Beginner:
     1:
     0.167,0.153,0.011,0.000,0.000:
0000
0000
0000
0000
,
0000
0000
0000
0000
,
0000
0000
0000
0000
,
0000
0000
0000
0000
,
1000
0000
1000
0000
,
0001
0000
0001
0000
,
0100
0000
0100
0000
,
0010
0010
0000
0001
,
0000
0000
0100
0000
,
1000
0000
1000
0000
,
0100
0000
1000
0000
,
0100
0000
1000
0000
,
0010
0000
0010
0000
,
1000
0000
1000
0000
,
0010
0000
1000
0000
,
0010
0000
1000
0000
,
0100
0000
1000
1000
,
0000
0010
0000
0001
,
0000
0100
0000
1000
,
0000
0100
0000
0001
,
0000
0001
0000
0010
,
0000
1000
0000
0100
,
0000
0001
0000
0100
,
0000
1000
0000
0001
,
0000
0000
0000
0000
,
0100
0000
0100
0000
,
0010
0000
0010
0000
,
1000
0000
1000
0000
,
0001
0000
0001
0000
,
0100
0100
0000
0000
,
0010
0010
0000
0000
,
1000
1000
0000
0001
,
0000
0010
0000
0100
,
0000
0010
0000
0001
,
0001
0000
0100
0000
,
1000
0000
0010
0000
,
0100
0000
0010
0000
,
1000
0000
0100
0000
,
0001
0000
0100
0000
,
1000
0000
0010
0000
,
0100
0000
0010
0000
,
0100
0000
1000
1000
,
0000
0010
0000
0001
,
0000
0100
0000
1000
,
0000
0100
0000
0001
,
0000
0001
0000
0010
,
0000
1000
0000
0100
,
0000
0001
0000
0100
,
0000
1000
0000
0001
,
0000
0010
0000
0001
,
0001
0000
0100
0000
,
1000
0000
0010
0000
,
0100
0000
0010
0000
,
1000
0000
0100
0000
,
0001
0000
0100
0000
,
1000
0000
0010
0000
,
0100
0000
0010
0000
,
0110
0000
0000
0000
;

//---------------dance-single - ----------------
#NOTES:
     dance-single:
     :
     Challenge:
     9:
     0.723,0.821,0.241,0.098,0.673:
0000
0000
0000
0000
,
1001
0000
0000
0000
1000
0100
1000
0100
1000
0000
0001
0000
0100
0000
0010
0000
,
1001
0000
0000
0000
0001
0100
0001
0100
0001
0000
1000
0000
0100
0000
0010
0000
,
1001
0100
0010
0001
0100
0010
1000
0100
,
0010
0000
0010
0000
0010
0000
0010
0000
0010
0000
0010
0001
0100
0000
0010
0000
,
1000
0000
1000
0000
1000
0000
1000
0000
1000
0000
1000
0010
0100
0000
1000
0000
,
0100
0000
0100
0000
0100
0000
0100
0000
0100
0000
0100
0001
0010
0000
0100
0000
,
1000
0001
1000
0001
1000
0001
1000
0001
1000
0001
1000
0001
1000
0001
1000
0001
,
1000
0010
0100
0001
,
0010
0000
0000
0000
1000
0000
0000
0000
0100
0000
0000
0000
0001
0000
0000
0100
,
0010
0000
0000
0000
1000
0000
0000
0000
0100
0000
0000
0000
0010
0000
0000
0001
,
0100
0000
0000
0010
1000
0000
0000
0100
0010
0000
0000
0001
1000
0000
0010
0000
,
0100
1000
0100
0010
,
0001
0000
0000
0000
0010
0000
0000
0000
1000
0000
0000
0000
0100
0000
0000
0100
,
0001
0000
0000
0000
0100
0000
0000
0000
1000
0000
0000
0000
0010
0000
0000
1000
,
0001
0000
0000
0000
0100
0000
0000
0000
0010
0100
0000
0100
0010
0000
0100
0000
,
0001
1000
0000
0100
0000
0010
0001
0000
1000
0100
0000
1000
0000
0000
0001
0100
,
0001
0100
0000
0010
0000
1000
0001
0000
1000
0100
0000
0010
0000
0000
0001
0000
,
0100
0010
0000
0100
0000
0001
1000
0000
0100
0000
0000
1000
0000
0000
0001
0100
,
0001
0100
0000
0001
0000
0001
1000
0000
0100
0010
0000
0001
0000
1000
0000
0000
,
0001
0100
0000
0001
0000
1000
0100
0000
1000
0000
0000
0010
0000
0010
0100
0000
,
0001
1000
0000
0100
0000
1000
0100
1000
0100
1000
0000
0001
0000
0000
1000
0000
,
0100
0010
0000
0001
0000
0001
0100
0000
0010
1000
0000
0001
0000
0000
1000
0000
,
0001
1000
0001
1000
0001
1000
0001
1000
0001
1000
0001
1000
0001
1000
0001
0000
,
2002
0000
3003
0100
,
0010
0000
2000
0000
3000
0000
0010
0010
,
0010
0000
0000
0001
0000
0000
0001
0000
0000
0000
0100
0000
0000
0000
1000
0001
,
1000
0000
0100
0010
0000
1000
0000
0100
,
0000
0000
0001
0000
0000
0000
1000
0000
0000
0000
0100
0000
0000
0000
0001
0100
,
0001
0000
0110
0000
1000
0001
0100
0010
,
0000
1001
0000
1001
0000
0000
0000
1000
,
0001
0010
0001
0000
1000
0100
1000
0000
,
0002
0203
2300
3200
,
0310
1000
0100
1000
0001
0100
1000
0100
,
0010
1000
0001
0010
0100
0001
0100
1000
,
0100
0001
0100
0010
0001
1000
0010
0100
,
1000
0100
0001
1000
0100
1000
0010
0010
,
0010
0100
0001
1000
0100
0001
0100
1000
,
0010
0001
0010
1000
0100
0010
0100
1000
,
0010
0100
0001
1000
0100
0010
1000
0010
,
0001
0000
0100
0000
1000
0000
0001
0000
0000
0100
0000
0100
1000
0000
0001
0000
,
0100
0010
0000
1000
0000
0001
0100
0000
1000
0100
0000
0010
0000
1000
0100
1000
,
0100
1000
0000
0001
0000
0100
0010
0000
1000
0100
0000
1000
0000
0000
0001
0000
,
1000
0100
0000
0001
0000
0100
1000
0000
0001
0000
0000
0100
0000
0010
1000
0010
,
1000
0010
0000
0100
0000
0100
0001
0000
0001
1000
0000
0100
0000
0010
0000
0000
,
0001
1000
0000
0010
0000
0000
0100
0001
0100
0001
0000
1000
0000
0000
0010
0000
,
0100
0010
0000
1000
0000
0000
0100
1000
0100
1000
0000
0001
0000
0000
0010
0000
,
0100
1000
0000
0010
0000
0000
1000
0001
1000
0001
0000
0100
0000
0000
0010
0000
,
1000
0001
1000
0001
0100
0001
0100
0001
1000
0010
1000
0010
0100
0001
1000
0100
,
0010
0100
1000
0010
0100
0001
1000
0100
,
1100
1010
0011
0101
,
1000
0001
0100
0010
1000
0100
0001
0100
,
0101
0011
1010
1100
,
1000
0001
1001
0000
0001
0100
0101
0000
,
0010
1000
1010
0000
0100
0010
0110
0000
,
1000
0100
0101
0000
1000
0001
0101
0000
,
1000
0000
0010
0000
0100
0000
0001
0000
1000
0001
0100
0001
0100
0000
0100
0000
,
0220
0000
0000
0330
;
