#TITLE:A Stupid Barber;
#SUBTITLE:;
#ARTIST:Sho-T;
#TITLETRANSLIT:;
#SUBTITLETRANSLIT:;
#ARTISTTRANSLIT:;
#CREDIT:;
#BANNER:A Stupid Barber.png;
#BACKGROUND:A Stupid Barber-bg.png;
#LYRICSPATH:;
#CDTITLE:./CDTITLES/DANCE DANCE REVOLUTION HOME VERSION.PNG;
#MUSIC:A Stupid Barber.mp3;
#OFFSET:-1.872;
#SAMPLESTART:70.440;
#SAMPLELENGTH:15.000;
#SELECTABLE:YES;
#DISPLAYBPM:132.000;
#BPMS:0.000=132.070;
#STOPS:;
#BGCHANGES:;

//---------------dance-single - ----------------
#NOTES:
     dance-single:
     :
     Easy:
     4:
     0.254,0.266,0.090,0.161,0.000:
0000
0000
0000
0000
,
0000
0000
0000
0000
,
0000
0000
0000
0000
,
1000
0100
0001
0100
,
0100
0000
0100
0001
,
0001
0100
1000
0100
,
0002
0003
2000
3000
,
0010
1000
0000
1000
,
0100
0001
0000
0001
,
1000
0100
0001
0100
,
2000
3000
1001
0100
,
0001
0100
1000
0100
,
0100
0000
0100
1000
,
1000
0100
0001
0100
,
2000
3000
0002
0003
,
0010
0001
0000
0001
,
0100
1000
0000
1000
,
0001
0100
1000
0100
,
0002
0003
1001
0100
,
0200
0000
0000
0300
,
0001
0000
0001
1001
,
0000
0000
0010
0100
,
0010
0000
0100
0110
,
0000
0000
1000
0001
,
2000
3000
0100
0000
,
0001
0100
1000
0100
,
0002
0003
0100
0000
,
1000
0100
0001
0100
,
1000
0100
1000
0100
,
0010
0010
0010
0010
,
0001
0010
0001
0010
,
0100
0100
0100
0100
,
0001
0100
0001
0100
,
0010
0010
0010
0010
,
1000
0010
1000
0010
,
0100
0100
0100
0100
,
0001
2000
3001
0000
,
0200
0000
0000
0300
,
1000
0000
1000
1001
,
0000
0000
0010
0100
,
0010
0000
0100
0110
,
0000
0000
0001
1000
,
0001
0100
1000
0010
,
0020
0000
0000
0030
,
0001
0000
0001
1001
,
0000
0000
0010
0100
,
0010
0000
0100
0110
,
0000
0000
1000
0001
,
2000
3000
0100
0000
,
0001
0100
1000
0100
,
0002
0003
0100
0000
,
1000
0100
0001
0100
,
2000
3002
0103
0000
,
1001
0000
0000
0000
;

//---------------dance-single - ----------------
#NOTES:
     dance-single:
     :
     Medium:
     6:
     0.373,0.349,0.302,0.151,0.020:
0000
0000
0000
0000
,
0000
0000
0000
0000
,
0000
0000
0000
0000
,
1000
0100
0001
0100
,
1000
1000
0001
0100
,
0010
1000
0100
0000
0001
0000
0001
0000
,
1000
0101
0001
1100
,
0010
1000
0100
0001
,
1000
0010
1000
0000
0100
0001
0100
0000
,
0101
1000
1100
0100
,
0001
0000
0101
0000
1000
0001
1000
0000
,
0001
0100
1000
0100
,
0001
0001
1000
0100
,
0010
0001
0100
0000
1000
0000
1000
0000
,
0001
1100
1000
0101
,
0010
0001
0100
1000
,
0001
0010
0001
0000
0100
1000
0100
0000
,
1100
0001
0101
0100
,
1000
0000
1100
0000
0001
1000
0001
0000
,
2002
0000
0000
3003
,
1000
0100
0001
0101
,
1000
0000
0100
0000
0001
0100
1000
0000
,
1000
0110
0001
1001
,
1000
0001
1000
0000
0100
0000
0001
1000
,
0002
0100
1003
0110
,
0020
1000
0130
1000
,
0200
0000
0010
0000
0301
1000
0001
1000
,
0200
0000
0000
0300
,
1000
0100
0001
0100
,
1000
0000
0001
0000
0001
1000
0100
0000
,
0010
1010
0001
0101
,
0001
0010
0011
1001
,
0001
0100
1000
0100
,
0001
0000
1000
0000
1000
0001
0100
0000
,
0010
0011
1000
1100
,
1000
0010
1010
1001
,
0100
0100
0001
0000
,
1000
0000
0000
0001
0000
0000
0000
0100
0000
0000
0000
0000
0000
0000
0000
0000
,
1000
0000
0100
0000
0001
0100
0001
0100
,
0010
2000
3100
1001
,
1000
0100
0001
0010
,
1000
0000
1100
0000
0001
1000
0100
0000
,
2000
0000
3001
0000
0010
0001
0100
0000
,
0200
0000
0020
0330
,
1000
0100
0001
0101
,
1000
0000
0100
0000
0001
0100
1000
0000
,
1000
0110
0001
1001
,
1000
0001
1000
0000
0100
0000
0001
1000
,
0002
0100
1003
0110
,
0020
1000
0130
1000
,
0200
0000
0010
0000
0301
1000
0001
1000
,
0200
0000
0000
0300
,
0002
0000
1003
0000
0010
1000
0100
0000
,
0001
0000
0000
1000
0000
0000
0000
1001
0000
0000
0000
0000
0000
0000
0000
0000
;

//---------------dance-single - ----------------
#NOTES:
     dance-single:
     :
     Hard:
     7:
     0.445,0.403,0.141,0.251,0.065:
0000
0000
0000
0000
,
0000
0000
0000
0000
,
0000
0000
0000
0000
,
0001
0100
0001
0000
1000
0010
0100
0000
,
1000
0010
1000
0000
0001
0100
0010
1000
,
0001
0001
1000
0100
,
0010
0000
0001
0000
1000
0001
0100
0000
,
1000
0100
0001
0100
,
0010
0001
0100
0010
1000
0100
1000
0001
,
0100
1000
0100
0001
,
1000
0001
1000
0000
0010
1000
0100
0000
,
1000
0100
1000
0000
0001
0010
0100
0000
,
0001
0010
0001
0000
1000
0100
0010
0001
,
1000
1000
0001
0100
,
0010
0000
1000
0000
0001
1000
0100
0000
,
0001
0100
1000
0100
,
0010
1000
0100
0010
0001
0100
0001
1000
,
0100
0001
0100
1000
,
0001
1000
0001
0001
0010
0001
0100
0000
,
0200
0000
0020
0330
,
0010
0000
0000
0000
1001
0000
0000
0000
0001
0100
0000
0000
0100
0000
0000
0000
,
0001
0100
0001
1000
0020
0000
0130
0000
,
0100
0000
0000
0000
0110
0000
0000
0000
1000
0100
0000
0000
0100
0000
0000
0000
,
0010
0001
0010
0001
2000
0000
3100
0000
,
0001
0010
0002
0000
1000
0000
0103
0000
,
2000
3002
0023
0230
,
1300
0010
2000
0000
0001
0000
3100
0000
,
0002
0000
2003
0000
3001
1000
1001
0000
,
0001
0010
0001
0100
0010
0001
1000
0000
,
0001
0100
0001
0000
1000
0100
1000
0000
,
0001
0100
0001
0100
0010
1000
0100
0000
,
0001
1001
0110
1001
,
1000
0010
1000
0100
0010
1000
0001
0000
,
1000
0100
1000
0000
0001
0100
0001
0000
,
1000
0100
1000
0100
0010
0001
0100
0000
,
1000
1001
0110
1001
,
0010
1000
0001
0000
,
1000
0000
1000
0001
0000
1000
0000
0001
0000
0000
0000
0000
0000
0000
0000
0000
,
0010
0000
0000
0000
1001
0000
0000
0000
1000
0100
0000
0000
0100
0000
0000
0000
,
1000
0100
1000
0001
0020
0000
0130
0000
,
0100
0000
0000
0000
0110
0000
0000
0000
0001
0100
0000
0000
0100
0000
0000
0000
,
0010
1000
0010
1000
0002
0000
0103
0000
,
2000
0000
0000
0000
3010
0000
0000
0000
0001
0100
0000
0000
0100
0000
0000
0000
,
0001
0000
1000
0000
0001
1000
0001
1000
,
0010
0000
0000
0000
1001
0000
0000
0000
0001
0100
0000
0000
0100
0000
0000
0000
,
0001
0100
0001
1000
0020
0000
0130
0000
,
0100
0000
0000
0000
0110
0000
0000
0000
1000
0100
0000
0000
0100
0000
0000
0000
,
0010
0001
0010
0001
2000
0000
3100
0000
,
0001
0010
0002
0000
1000
0000
0103
0000
,
2000
3002
0023
0230
,
1300
0010
2000
0000
0001
0000
3100
0000
,
0002
0000
2003
0000
3001
1000
0001
1000
,
0010
0000
0000
0000
0001
0000
0000
0000
1000
0100
0000
0000
0100
0000
0000
0000
,
0010
0000
0000
0100
0000
0000
0000
0110
0000
0000
0000
0000
0000
0000
0000
0000
;

//---------------dance-double - ----------------
#NOTES:
     dance-double:
     :
     Easy:
     3:
     0.220,0.350,0.211,0.060,0.000:
00000000
00000000
00000000
00000000
,
00000000
00000000
00000000
00000000
,
00000000
00000000
00000000
00000000
,
00000001
00000000
00000000
00000000
,
00001000
00000000
00000000
00000000
,
00010000
00000000
00000000
00000000
,
10000000
00000000
00000000
00000000
,
10010000
00000000
01000000
00000000
,
10010000
00000000
01000000
00000000
,
01000000
00000000
00010000
00000000
,
00011000
00000000
00000000
00000000
,
00011000
00001000
00001000
00000000
,
00000010
00000010
00000010
00000000
,
00000001
00000001
00000001
00000000
,
00001000
00001000
00001000
00001000
,
00001001
00000000
00000100
00000000
,
00001000
00001000
00010000
00000000
,
00010000
00010000
00100000
00000000
,
10000000
10000000
00010000
10000000
,
02200000
00000000
00000000
03300000
,
10010000
00000000
00010000
00000000
,
10000000
01000000
00010000
00000000
,
00001000
00000000
00001000
00010000
,
00001000
00000100
00000001
00000000
,
00001001
00000000
00001000
00000000
,
00000001
00000100
00001000
00000000
,
00010000
00000000
00010000
00001000
,
00010000
01000000
10000000
00000000
,
10010000
00000000
00000000
00000000
,
01000000
00000000
01000000
01000000
,
01100000
00000000
00000000
00000000
,
00010000
00000000
00010000
00010000
,
00022000
00000000
00000000
00000000
,
00000000
00033000
00001000
00010000
,
00001000
00000000
00000010
00000000
,
00000001
00000010
00001000
00000100
,
00001001
00001001
00001001
00000000
,
00001001
00000100
00001001
00000000
,
00000110
00000000
00000001
00000000
,
00000100
00001000
00010000
00000000
,
00011000
00000000
00010000
00000000
,
00100000
01000000
01000000
00000000
,
00010000
10000000
00010000
00000000
,
00100000
01000000
00100000
01000000
,
20020000
00000000
00000000
00000000
,
00000000
00000000
00000000
30030000
,
10000000
10000000
01000000
01000000
,
00010000
00001000
00010000
00000000
,
00011000
00001000
00001000
00000000
,
00001000
00000100
00000001
00000000
,
00001000
00001000
00001000
00001000
,
00000010
00000001
00000100
00000010
,
00001001
00000000
00000000
00000000
,
00000001
00000000
00001000
00000001
00001000
00000000
00000000
00000000
;

//---------------dance-double - ----------------
#NOTES:
     dance-double:
     :
     Medium:
     7:
     0.372,0.430,0.231,0.111,0.000:
00000000
00000000
00000000
00000000
,
00000000
00000000
00000000
00000000
,
00000000
00000000
00000000
00000000
,
10000000
00000000
00010000
00000000
,
10000000
00000000
00010000
00010000
,
00010000
00000000
10000000
00000000
,
01000000
00000000
00010000
00010000
,
00011000
00001000
00000010
00000010
,
00000001
00000001
00001000
00001000
,
00000010
00000010
00000100
00000100
,
00001001
00000000
00000001
00000000
00000100
00001000
00010000
00000000
,
00011000
00010000
00100000
00100000
,
10000000
10000000
00010000
00010000
,
10000000
10000000
00100000
00100000
,
01000000
01000000
00010000
00010000
,
10010000
10000000
01000000
01000000
,
00010000
00010000
00001000
00001000
,
00000010
00000010
00000001
00000001
,
00001000
00000001
00001000
00000000
00000110
00000000
00001001
00000000
,
00000220
00000000
00000330
00000000
00001000
00000001
00001000
00000000
,
00001001
00000001
00000100
00001000
,
00010000
00000000
00010000
00100000
10000000
00000000
10000000
00000000
,
10000000
10000000
01000000
00010000
,
00001000
00000000
00001000
00000010
00000001
00000000
00000001
00001000
,
00001001
00000001
00000010
00001000
,
00010000
00000000
00010000
01000000
10000000
00000000
10000000
00000000
,
10000000
10000000
00100000
00010000
,
00001000
00000000
00001000
00000100
00000001
00001000
00000100
00000000
,
00000201
00000001
00000001
00000301
,
00001000
00000010
00000100
00000100
,
00001200
00001000
00001000
00001300
,
00010000
00001000
01000000
01000000
,
00110000
01000000
10000000
10000000
,
00010000
00100000
01000000
10000000
,
10000000
00100000
00010000
00001000
,
00000010
00000001
00000100
00000000
00000010
00001000
00000100
00000000
,
00001001
00000000
00000110
00000000
00000001
00001000
00000010
00000000
,
00000010
00000100
00000010
00002000
00000002
00000000
00003003
00000000
,
00000210
00000000
00001300
00000000
00000001
00000100
00001000
00000000
,
00010000
00000000
00010000
01000000
10000000
00000000
10000000
00000000
,
02100000
00000000
03010000
00000000
10000000
01000000
00010000
00000000
,
00010000
00000000
01000000
10000000
00010000
00000000
00010000
00000000
,
01100000
00000000
10000000
00000000
10000000
00100000
00010000
00000000
,
00010000
00001000
00000100
00000000
00000001
00000010
00000100
00000000
,
00000100
00000000
00001001
00000000
00000010
00000100
00000010
00000000
,
00001000
00000000
00000001
00000000
00000010
00000100
00001000
00000000
,
00000010
00000000
00001001
00000000
00000001
00000100
00001000
00000000
,
00010000
00001000
00010000
00000000
00010000
01000000
10000000
00000000
,
01010000
11000000
00100000
00010000
,
01000000
00000000
01000000
00100000
01000000
00000000
00100000
00000000
,
01000000
10010000
00100000
00010000
,
00001000
00000100
00000001
00000000
00000010
00000100
00000010
00000000
,
00002002
00003003
00000020
00000130
,
00000001
00000010
00000100
00001000
00000001
00000000
00000000
00000000
;

//---------------dance-double - ----------------
#NOTES:
     dance-double:
     :
     Hard:
     8:
     0.442,0.457,0.302,0.070,0.035:
00000000
00000000
00000000
00000000
,
00000000
00000000
00000000
00000000
,
00000000
00000000
00000000
00000000
,
00000001
00000000
00000001
00000000
00001000
00000001
00001000
00000000
,
00000010
00000000
00000010
00000000
00000100
00000010
00000100
00000000
,
00000001
00000000
00000001
00000000
00000100
00001000
00010000
00000000
,
00100000
00000000
00100000
00000000
01000000
00100000
01000000
00000000
,
10010000
00000000
01000000
00000000
00100000
10000000
01000000
00000000
,
10010000
00000000
01000000
00000000
00100000
00010000
01000000
00000000
,
11000000
00000000
00010000
00000000
00001000
00010000
00001000
00000000
,
00011000
00000000
00000100
00000000
00000010
00000001
00000100
00000000
,
00001000
00000001
00000100
00000000
00000010
00000000
00001000
00000000
,
00000001
00000010
00001000
00000000
00010000
00000000
00100000
00000000
,
10000000
00010000
01000000
00000000
00100000
00000000
10000000
00000000
,
00010000
00100000
01000000
00000000
10000000
00000000
01010000
00000000
,
11000000
00000000
00010000
00000000
00100000
01000000
00100000
00000000
,
01010000
00000000
10000000
00000000
00100000
00010000
00001000
00000000
,
00011000
00000000
00001000
00000000
00001000
00000100
00000001
00000000
,
00000010
00000100
00000010
00000001
00001000
00000010
00000100
00000001
,
00000202
00000000
00000303
00000000
00001000
00000001
00001000
00000000
,
00000210
00000301
00000210
00001300
,
00000001
00000000
00000000
00000100
00001000
00000000
00010000
00000000
01000000
00000000
00000000
00000000
10000000
00000000
00000000
00000000
,
01020000
10030000
21000000
30010000
,
00100000
00000000
00000000
01000000
00100000
00000000
00010000
00000000
10000000
00000000
00000000
00000000
00100000
00000000
00000000
00000000
,
01010000
00000000
00001000
00000000
00010000
00001000
00000010
00000000
,
00000100
00000000
00000000
00001000
00000001
00000000
00000100
00000000
00000010
00000000
00000000
00000000
00000010
00000000
00000000
00000000
,
00001001
00000000
00000100
00000010
00000100
00000000
00000100
00000000
,
00001001
00000100
00000010
00000001
00000100
00001000
00010000
00001000
,
00010000
00010000
00010000
00010000
,
00010000
01000000
10000000
00010000
00010000
00000000
00010000
00000000
,
10000000
10000000
10000000
10000000
,
10000000
00100000
00010000
00001000
00001000
00000000
00001000
00000000
,
00000010
00000001
00000001
00000001
,
00000001
00000100
00001000
00010000
00010000
00000000
00010000
00000000
,
00001000
00001000
00001000
00001000
,
00001000
00010000
01000000
10000000
10000000
00000000
10000000
00000000
,
01010000
00000000
00000000
00000000
11000000
00000000
00000000
00000000
00100000
01000000
00000000
00000000
00010000
00000000
00000000
00000000
,
11000000
00000000
00000000
00010000
01000000
00000000
00100000
00000000
01000000
00000000
00000000
00000000
00000000
00000000
00000000
00000000
,
10010000
00000000
01000000
00000000
00010000
00001000
00010000
00000000
,
00000010
00000100
00000001
00001000
,
00000110
00000000
00001000
00000000
00000001
00000100
00001000
00000000
,
00000100
00000001
00000010
00001000
,
00000110
00000000
00001001
00000000
00000010
00001000
00010000
00000000
,
00001000
00010000
01000000
10000000
00100000
01000000
00100000
01000000
,
10010000
00000000
01100000
00000000
10000000
00010000
00100000
00000000
,
00100000
01000000
10000000
00000000
10000000
00100000
00010000
00000000
,
01100000
00000000
11000000
00000000
01000000
00010000
00001000
00000000
,
00010000
00000100
00000010
00000000
00000010
00000100
00001000
00000000
,
00000011
00000000
00001100
00000000
00000010
00000100
00000001
00000000
,
00000001
00000010
00000100
00001000
00000001
00000100
00001000
00000000
,
01010000
00000000
00100000
10000000
00010000
00100000
01000000
00000000
,
10000000
01000000
00010000
00001000
00010000
00000100
00000010
00000001
,
00000200
00000000
00000000
00000000
00000310
00000000
00000000
00000000
00001000
00000001
00000000
00000000
00000010
00000000
00000100
00000000
,
00001000
00000000
00000000
00000010
00000100
00000000
00000001
00000000
00001000
00000000
00000000
00000000
00000000
00000000
00000000
00000000
;

//---------------dance-single - ----------------
#NOTES:
     dance-single:
     :
     Beginner:
     1:
     0.168,0.266,0.090,0.000,0.000:
0000
0000
0000
0000
,
0000
0000
0000
0000
,
0000
0000
0000
0000
,
1000
0000
0000
0000
,
1000
0000
0010
0000
,
0100
0000
0001
0000
,
0001
0000
0010
0000
,
0100
0000
1000
1000
,
1000
0000
0100
0000
,
0010
0000
0001
0000
,
0001
0000
0100
0000
,
1000
1000
1000
0000
,
0010
0000
0000
0000
,
0000
0000
0000
0000
,
0100
0000
0000
0000
,
0000
0000
0010
0010
,
0010
0000
0000
0000
,
0000
0000
0000
0000
,
0001
0000
1000
0000
,
0001
0001
0001
0001
,
0001
0000
0000
0000
,
1000
1000
1000
0000
,
0001
0000
0100
0000
,
0001
0001
0001
0000
,
0100
0000
0001
0001
,
0001
0001
0001
0000
,
1000
0000
0100
0000
,
1000
1000
1000
0000
,
0100
0000
0000
0000
,
0001
0000
1000
1000
,
1000
0000
0000
0000
,
1000
0000
0001
0001
,
0001
0000
0000
0000
,
0010
0000
0100
0100
,
0100
0000
0000
0000
,
0100
0000
0010
0010
,
0010
0000
0000
0000
,
1001
0000
0100
0000
,
1001
1001
1001
0000
,
0000
0000
0000
0000
,
1000
0000
0100
0000
,
1000
1000
1000
0000
,
0001
0000
0100
0000
,
0001
0001
0001
0000
,
0100
0000
0001
0001
,
0001
0001
0001
0000
,
1000
0000
0100
0000
,
1000
1000
1000
0000
,
0100
0000
0001
0000
,
0001
0001
0001
0000
,
1000
0000
0100
0000
,
0010
0010
0010
0000
,
1001
1001
1001
1001
,
1001
0000
0000
0000
;

//---------------dance-double - ----------------
#NOTES:
     dance-double:
     :
     Beginner:
     1:
     0.168,0.340,0.090,0.000,0.000:
00000000
00000000
00000000
00000000
,
00000000
00000000
00000000
00000000
,
10000000
00000000
00000000
00000000
,
10000000
00000000
00100000
00000000
,
01000000
00000000
00010000
00000000
,
00010000
00000000
00100000
00000000
,
01000000
00000000
10000000
10000000
,
10000000
00000000
01000000
00000000
,
00100000
00000000
00010000
00000000
,
00010000
00000000
01000000
00000000
,
10000000
10000000
10000000
00000000
,
00100000
00000000
00000000
00000000
,
00000000
00000000
00000000
00000000
,
01000000
00000000
00000000
00000000
,
00000000
00000000
00100000
00100000
,
00100000
00000000
00000000
00000000
,
00000000
00000000
00000000
00000000
,
00010000
00000000
10000000
00000000
,
00010000
00010000
00010000
00010000
,
00010000
00000000
00000000
00000000
,
10000000
10000000
10000000
00000000
,
00010000
00000000
01000000
00000000
,
00010000
00010000
00010000
00000000
,
01000000
00000000
00010000
00010000
,
00010000
00010000
00010000
00000000
,
10000000
00000000
01000000
00000000
,
10000000
10000000
10000000
00000000
,
01000000
00000000
00000000
00000000
,
00010000
00000000
10000000
10000000
,
10000000
00000000
00000000
00000000
,
10000000
00000000
00010000
00010000
,
00010000
00000000
00000000
00000000
,
00100000
00000000
01000000
01000000
,
01000000
00000000
00000000
00000000
,
01000000
00000000
00100000
00100000
,
00100000
00000000
00000000
00000000
,
10010000
00000000
01000000
00000000
,
10010000
10010000
10010000
00000000
,
00000000
00000000
00000000
00000000
,
10000000
00000000
01000000
00000000
,
10000000
10000000
10000000
00000000
,
00010000
00000000
01000000
00000000
,
00010000
00010000
00010000
00000000
,
01000000
00000000
00010000
00010000
,
00010000
00010000
00010000
00000000
,
10000000
00000000
01000000
00000000
,
10000000
10000000
10000000
00000000
,
01000000
00000000
00010000
00000000
,
00010000
00010000
00010000
00000000
,
10000000
00000000
01000000
00000000
,
00100000
00100000
00100000
00000000
,
10010000
10010000
10010000
10010000
,
10010000
00000000
00000000
00000000
,
00000000
00000000
00000000
00000000
,
00000000
00000000
00000000
00000000
;

//---------------dance-single - ----------------
#NOTES:
     dance-single:
     :
     Challenge:
     8:
     0.543,0.645,0.322,0.161,0.447: // measure 1
0000
0000
0000
0000
,  // measure 2
0000
0000
0000
0000
,  // measure 3
0000
0000
0000
0000
,  // measure 4
2000
3000
0002
0003
,  // measure 5
0200
0300
0020
0030
,  // measure 6
2000
3000
0002
0003
,  // measure 7
0200
0300
0020
0030
,  // measure 8
1000
0000
0000
1000
0000
0000
0001
0000
1000
0000
0000
1000
0000
0000
0001
0000
,  // measure 9
0100
0000
0000
0100
0000
0000
0100
0000
0010
0000
0000
0010
0000
0000
1000
0000
,  // measure 10
0010
0000
0000
0010
0000
0000
0100
0000
0001
0000
0000
0001
0000
0000
1000
0000
,  // measure 11
0100
0000
0000
0100
0000
0000
1000
0000
0010
0000
0000
0010
0000
0000
0010
0000
,  // measure 12
1000
0000
0010
1000
0000
0000
0010
0000
1000
0000
0001
1000
0000
0000
0001
0000
,  // measure 13
0100
0000
0001
1000
0000
0000
0100
0000
0010
0000
0001
1000
0000
0000
0100
0000
,  // measure 14
0010
0000
0001
0010
0000
0000
0001
0000
1000
0000
0010
0100
0000
0000
0100
0000
,  // measure 15
0001
0000
1000
0100
0000
0000
1000
0000
0010
0000
0100
0001
0000
0000
0001
0000
,  // measure 16
1000
0000
0100
1000
0000
0000
1000
0000
0001
0000
0100
0010
0000
0000
0010
0000
,  // measure 17
1000
0000
0100
1000
0000
0000
0001
0000
0010
0000
0100
0010
0000
0000
0010
0000
,  // measure 18
0001
0000
0100
1000
0000
0000
1000
0000
0100
0000
0010
1000
0000
0000
0100
0000
,  // measure 19
0001
0000
0100
1000
0000
0000
1000
0000
0010
0000
0100
0001
0000
0000
0001
0000
,  // measure 20
2000
0000
0000
0000
0000
0000
0000
0000
3010
0000
0010
0100
0000
0100
0001
0000
,  // measure 21
1001
0000
0000
0000
1100
0000
0000
0000
1000
0001
0000
0000
0100
0000
0001
0000
,  // measure 22
2000
0000
0000
0100
0000
0100
0000
3100
0000
0000
0000
0000
0000
1000
0001
0000
,  // measure 23
0110
0000
0000
0000
0011
0000
0000
0000
0001
1000
0000
0000
0100
0000
1000
0000
,  // measure 24
0002
0000
0000
0100
0000
0100
0000
0103
0000
0000
0000
0000
0000
0000
0000
0000
,  // measure 25
0110
0000
0000
0000
0110
0000
0000
0000
1000
0100
0000
0000
0010
0000
0001
0000
,  // measure 26
0200
0000
0000
0010
0000
0010
0000
0310
0000
0000
0000
0000
0000
0001
0010
0000
,  // measure 27
0110
0000
0000
0000
1100
0000
0000
0000
1000
0010
0000
0000
0100
0000
0001
0000
,  // measure 28
0020
0000
0000
0100
0000
0100
0000
0130
0000
0000
0000
0000
0000
0000
0000
0000
,  // measure 29
1000
0000
0000
0100
0000
0000
1000
0000
0000
0100
0000
0000
1000
0000
0100
0000
,  // measure 30
1000
0000
0000
0100
0000
0000
1000
0000
0000
0000
0000
0000
0000
0000
0000
0000
,  // measure 31
0001
0000
0000
0100
0000
0000
0001
0000
0000
0100
0000
0000
0001
0000
0100
0000
,  // measure 32
0001
0000
0000
0100
0000
0000
0001
0000
0000
0000
0000
0000
0000
0000
0000
0000
,  // measure 33
0001
0000
0001
0010
0000
0010
0100
0000
0100
1000
0000
0001
0010
0001
1000
0001
,  // measure 34
0100
0000
0010
1000
0000
0010
1000
0000
0000
0000
0000
0000
0000
0000
0000
0000
,  // measure 35
1000
0000
0010
1000
0000
0001
0100
0000
0001
1000
0000
1000
0100
1000
0010
1000
,  // measure 36
0001
0000
0010
0001
0000
1000
0100
0000
0010
0000
0010
0000
0100
0000
0010
0000
,  // measure 37
1001
0110
2002
3003
,  // measure 38
0010
0000
0010
1000
0000
0001
0000
0100
0000
0000
0000
0000
0000
0001
0010
0000
,  // measure 39
1100
0000
0000
0000
0101
0000
0000
0000
0100
1000
0000
0000
0010
0000
0100
0000
,  // measure 40
0001
0000
1000
0100
0000
0010
0000
0010
0000
1000
0100
0000
0000
0000
0000
0000
,  // measure 41
0011
0000
0000
0000
0011
0000
0000
0000
1000
0010
0000
0000
0100
0000
0001
0000
,  // measure 42
0010
0000
0100
1000
0000
0010
0000
0010
0000
0000
0000
0000
0000
0010
0100
0000
,  // measure 43
1001
0000
0000
0000
1100
0000
0000
0000
0001
0010
0000
0000
0100
0000
1000
0000
,  // measure 44
0010
0000
0010
0000
0010
0000
0010
0000
0010
0000
0010
0000
0010
1000
0010
1000
,  // measure 45
0010
0100
0001
1000
0100
1000
0100
0010
,  // measure 46
0001
0100
0001
0100
0010
1000
1010
1001
,  // measure 47
1010
0010
0100
0001
0010
1000
0010
0001
,  // measure 48
0100
0010
1010
1100
0110
0001
0101
0110
,  // measure 49
1100
0100
0001
1000
0100
1000
0010
0100
,  // measure 50
0001
0010
0100
1000
0010
0100
1001
0110
,  // measure 51
1001
0010
1000
0100
0001
0100
1000
0010
,  // measure 52
0110
0000
0100
0000
0101
0000
1100
0000
0100
0000
0100
0000
0100
0001
0100
0001
,  // measure 53
0100
0000
0000
0000
0001
0000
0000
0000
1000
0100
0000
0000
0001
0000
0010
0000
,  // measure 54
2000
0000
0000
0100
0000
0100
0000
3100
0000
0000
0000
0000
0000
0000
0000
0000
;
