#TITLE:lifework;
#SUBTITLE:;
#ARTIST:ああああ;
#TITLETRANSLIT:;
#SUBTITLETRANSLIT:;
#ARTISTTRANSLIT:Luze;
#GENRE:;
#CREDIT:;
#BANNER:lifework-bn.png;
#BACKGROUND:lifework-bg.png;
#LYRICSPATH:;
#CDTITLE:;
#MUSIC:lifework.mp3;
#OFFSET:-0.087;
#SAMPLESTART:91.772;
#SAMPLELENGTH:10.787;
#SELECTABLE:YES;
#BPMS:0.000=89.000
,16.000=178.000
,80.000=356.000
,128.000=712.000
,128.333=237.333
,128.667=712.000
,129.000=237.333
,129.333=712.000
,129.667=237.333
,130.000=712.000
,130.333=237.333
,130.667=712.000
,131.000=237.333
,131.333=712.000
,131.667=237.333
,132.000=356.000
,208.000=178.000
,272.000=356.000
,400.000=178.000
,432.000=356.000
,488.000=178.000
,492.000=356.000
,588.000=712.000
,652.000=89.000
;
#STOPS:
;
#BGCHANGES:;
#KEYSOUNDS:;
#ATTACKS:;

//---------------dance-single - Blank----------------
#NOTES:
     dance-single:
     :
     Challenge:
     99:
     1.000,1.000,1.000,1.000,1.000,1396.000,159.000,392.000,1183.000,41.000,0.000,1.000,1.000,1.000,1.000,1.000,1396.000,159.000,392.000,1183.000,41.000,0.000: // measure 0
M100
0000
0100
0000
0000
0000
0000
0000
0000
0000
0001
0000
0000
0000
0001
0000
0M00
0000
1000
0000
1000
0000
0000
0000
0000
0000
0010
1000
0001
0000
0100
0000
,  // measure 1
01M0
0000
0100
0000
0000
0000
0000
0000
0000
0000
0001
0001
1000
0000
0001
0000
001M
0000
0010
0000
0000
0000
1000
0000
0000
0000
1000
0000
0001
0000
0001
0000
,  // measure 2
100M
1000
1000
0010
0001
1000
0010
0001
00M1
0001
0001
0010
1000
0001
0010
1000
,  // measure 3
1M00
1000
1000
0010
0100
1000
0010
0100
M001
0001
0001
0010
0100
0001
0010
0100
,  // measure 4
1001
0000
1000
0000
0011
0000
0010
0001
1000
0000
0001
0000
0101
0000
0100
0000
,  // measure 5
0100
0000
0100
0000
1001
0000
1000
0100
0010
0001
0100
0000
0110
0000
0010
0000
,  // measure 6
0010
0000
0000
0000
1100
0000
0010
0001
0010
0000
0001
0000
0011
0000
0010
0100
,  // measure 7
1000
0000
0001
0000
0110
0000
0100
0001
1000
0010
0100
0001
2000
0000
3002
0000
,  // measure 8
1003
0000
0000
0000
0101
0000
1000
0010
0100
0000
0001
0000
0011
0000
1000
0000
,  // measure 9
1000
0000
0000
0000
1001
0000
1000
0001
0100
0000
0010
0000
1001
0000
1000
0000
,  // measure 10
0001
0000
0000
0000
0011
0000
0010
0000
0011
0000
0000
0000
1000
0100
0001
0100
,  // measure 11
1000
0000
0000
0000
1000
0000
0001
0000
1000
0010
0200
0000
0320
0000
1030
0001
,  // measure 12
1001
0000
0000
0000
0010
0000
0100
0010
0100
0001
0010
0000
1000
0000
0010
0000
,  // measure 13
0001
0000
0000
0000
1100
0000
0010
0001
1000
0000
0002
0003
0000
0000
0002
0003
,  // measure 14
0100
0000
0000
0000
0000
0000
0010
0000
0000
1000
0100
0010
0001
0000
0000
0001
0000
0000
1000
0000
0000
0001
0000
0000
,  // measure 15
0001
0000
0000
0000
1000
0000
0010
0100
0001
0100
0001
0000
0010
0000
0100
0000
,  // measure 16
0100
0000
0000
0000
1000
0000
0001
1000
0001
0000
0001
0000
1000
0000
0001
0000
,  // measure 17
0001
0000
0000
0000
0000
0000
0000
0000
0000
0000
0000
0000
0010
0000
0000
0000
0000
0000
0100
0000
1000
0000
0100
0000
1000
0000
0000
0000
0000
0000
0002
0000
0000
0023
0000
0000
0032
0000
0000
0000
0000
0000
2003
0000
0000
0000
0000
0000
,  // measure 18
3001
0000
0000
0000
1010
0000
0100
0010
0100
0000
0001
0000
1000
0000
0100
0000
,  // measure 19
2M02
0000
0000
0000
0000
0000
0000
0000
00M0
0000
0000
0000
0000
0000
0000
0000
0M00
0000
0000
0000
00M0
0000
0000
0000
0M00
0000
0000
0000
00M0
0000
0000
0000
0M00
0000
00M0
0000
0M00
0000
00M0
0000
0M00
0000
00M0
0000
0M00
0000
00M0
0000
0M00
00M0
0M00
00M0
0M00
00M0
0M00
00M0
3M03
0000
0000
0000
0000
0000
0000
0000
,  // measure 20
2020
0000
0000
0M0M
0000
0000
3030
0000
0000
0000
0000
0000
0202
0000
0000
M0M0
0000
0000
0303
0000
0000
0000
0000
0000
1000
0000
0000
0000
0100
0000
0000
0000
0010
0000
0000
0000
M001
0000
0000
0000
0010
0000
0000
0000
0100
0000
0000
0000
,  // measure 21
1000
0000
0000
0001
0000
0000
0100
0000
0000
0010
0000
0000
1M00
0000
00M1
0000
1M00
0000
00M1
0000
1M00
0000
00M1
0000
,  // measure 22
2000
0000
3020
0000
0130
0000
0002
0000
2003
0000
3010
0000
0100
0000
0001
0010
,  // measure 23
M001
0000
0100
0000
M001
0000
0010
0000
M001
0000
0010
0000
01M0
0000
1000
0100
,  // measure 24
1000
0000
0000
0001
0000
0000
0100
0000
0000
0001
0000
0000
111M
0000
0000
0000
111M
0000
0000
0000
111M
0000
0000
0000
,  // measure 25
1000
0000
0000
0010
0000
0000
1000
0000
0000
0010
0000
0000
M111
0000
0000
0000
M111
0000
0000
0000
M111
0000
0000
0000
,  // measure 26
1000
0000
0100
0000
0010
0000
0001
0000
0020
0000
0230
0000
130M
01M0
100M
01M0
,  // measure 27
100M
0000
0020
0000
0230
0000
0301
0000
0010
0000
0100
0000
0010
0100
0010
0100
,  // measure 28
0010
0001
0100
0010
1000
0M10
M001
0M10
,  // measure 29
100M
0000
0000
0000
0000
0000
0000
0000
0000
0000
0000
0000
0M10
0000
0000
0000
0000
0000
0000
0000
0000
0000
0000
0000
200M
3000
0000
0000
0000
0000
0000
0000
0000
0000
0000
0000
0000
0000
0000
0000
0000
0000
0000
0000
0000
0000
0000
0000
M001
0000
0000
0000
0000
0000
0000
0000
0000
0000
0000
0000
01M0
0000
0000
0000
0000
0000
0000
0000
0000
0000
0000
0000
M002
0003
0000
0000
0000
0000
0000
0000
0000
0000
0000
0000
0000
0000
0000
0000
0000
0000
0000
0000
0000
0000
0000
0000
0M10
0000
0000
0000
0000
0000
0000
0000
0000
0000
0000
0000
M002
0003
0000
0000
0000
0000
0000
0000
0000
0000
0000
0000
0M10
0000
0000
0000
0000
0000
0000
0000
0000
0000
0000
0000
0000
0000
0000
0000
0000
0000
0000
0000
0000
0000
0000
0000
02M0
0300
0000
0000
0000
0000
0000
0000
0000
0000
0000
0000
100M
0000
0000
0000
0000
0000
0000
0000
0000
0000
0000
0000
01M0
0000
0000
0000
0000
0000
0000
0000
0000
0000
0000
0000
0000
0000
0000
0000
0000
0000
0000
0000
0000
0000
0000
0000
,  // measure 30
200M
3100
M0M1
0200
13MM
0100
M0M2
0103
,  // measure 31
10MM
0200
0310
0100
0020
0031
0100
2000
3100
0010
0200
0301
,  // measure 32
200M
3001
020M
0301
002M
0031
020M
0301
200M
3001
020M
0301
,  // measure 33
1000
0000
0010
0000
0100
0000
0010
0000
100M
0M10
100M
0M10
100M
0M10
100M
0M10
,  // measure 34
100M
0001
0010
0100
1000
0010
0100
0010
,  // measure 35
0001
0010
1000
0100
MM22
MM00
MM00
MM33
,  // measure 36
11MM
0000
0000
0M10
M001
0M10
1100
0000
0000
M001
0M10
M001
,  // measure 37
1100
0000
0000
0000
0000
0000
0M10
0000
0M01
0000
1M00
0000
0M10
0000
1M00
0000
0M01
0000
0M10
0000
0M01
0000
1M00
0001
,  // measure 38
1MM0
0010
0010
M10M
0001
0001
1MM0
0001
,  // measure 39
1M00
M1M0
0M1M
M0M1
1M0M
M1M0
0M1M
00M1
,  // measure 40
M000
0010
0100
0001
00M0
0100
M000
0100
,  // measure 41
1000
0000
0000
0100
0000
0000
00M0
0000
0000
0001
0000
0000
1000
0000
0001
0000
M000
0000
0001
0000
1000
0000
000M
0000
,  // measure 42
1MMM
1MMM
MM1M
MM1M
M1MM
M1MM
MM1M
MM1M
,  // measure 43
M1MM
M1MM
MMM1
MMM1
1MMM
1MMM
MMM1
MMM1
,  // measure 44
M10M
M01M
1MM0
0MM1
M10M
M01M
1MM0
0MM1
,  // measure 45
100M
0000
0100
0000
1000
0000
01M0
0000
0000
0010
0000
0000
M001
0000
0000
0010
0000
0000
01M0
0000
0000
1000
0000
0000
,  // measure 46
M001
0000
0010
0000
0001
0000
0M10
0000
0000
0100
0000
0000
100M
0000
0000
0100
0000
0000
0M10
0000
0000
0001
0000
0000
,  // measure 47
1MM0
0001
1000
M01M
0100
0010
0MM1
1000
0001
M10M
0010
0100
,  // measure 48
10MM
010M
M010
MM01
M010
010M
10MM
010M
,  // measure 49
M010
MM01
M010
010M
10MM
010M
M010
MM01
,  // measure 50
M010
010M
10MM
010M
M010
MM01
M010
010M
10MM
010M
M010
MM01
,  // measure 51
M01M
0000
M10M
0000
M01M
0000
M10M
0000
M01M
0000
M10M
0000
M01M
0000
M10M
0000
M01M
0000
M10M
0000
M01M
0000
M10M
0000
M01M
M10M
M01M
M10M
M01M
M10M
M01M
M10M
,  // measure 52
0010
0000
0000
0000
1001
0000
0100
0010
1000
0000
1000
0000
0001
0000
1000
0000
,  // measure 53
1000
0000
0001
0010
0100
1000
0100
0010
0100
0001
0100
1000
0001
0010
0100
1000
,  // measure 54
1001
0000
0000
0000
0010
0000
1001
0000
0010
0100
0010
0100
1001
0000
0000
0000
,  // measure 55
0100
0010
1000
0100
0010
0001
0100
1000
0100
0010
1000
0100
0001
0100
0010
0001
,  // measure 56
2200
0000
3300
0022
0000
0033
2200
3300
,  // measure 57
0010
0000
0001
0010
0100
1000
0010
0100
0010
0100
0001
1000
0010
0100
1000
0100
,  // measure 58
0002
0000
0000
0000
1003
0000
0110
0000
1000
0100
0010
0001
2002
0000
3003
0000
,  // measure 59
1000
0010
0100
1000
0100
0010
0001
1000
0100
0001
0010
1000
0010
0100
1000
0010
,  // measure 60
0101
0000
0000
0000
1010
0000
0100
0001
0100
0000
0100
0000
0110
0000
0000
0000
,  // measure 61
0100
0010
1000
0100
0010
1000
0010
0001
0100
1000
0100
0001
0010
1000
0010
0100
,  // measure 62
1010
0000
0000
0000
0001
0000
1010
0000
1000
0001
0100
0010
0200
0000
0300
0000
,  // measure 63
1000
0100
0010
0001
0100
0010
1000
0100
0010
0001
0100
0010
1000
0001
0100
0010
,  // measure 64
0220
0330
0110
2002
3003
1001
0220
0330
,  // measure 65
0000
0000
0010
0100
1000
0001
0200
0000
0310
1000
0001
0010
0200
1300
0001
0100
,  // measure 66
1010
0000
0000
0000
0101
0000
1010
0000
0100
0001
1000
0010
0200
0000
0300
0000
,  // measure 67
M220
0000
0000
0000
0000
0000
0000
0000
000M
0000
0000
0000
0000
0000
0000
0000
M000
0000
0000
0000
000M
0000
0000
0000
M000
0000
0000
0000
000M
0000
0000
0000
M000
0000
000M
0000
M000
0000
000M
0000
M000
0000
000M
0000
M000
0000
000M
0000
M000
000M
M000
000M
M000
000M
M000
000M
M330
0000
0000
0000
0000
0000
0000
0000
,  // measure 68
2MM2
3003
0100
0010
2MM2
3003
0010
0100
,  // measure 69
2M2M
3030
M2M2
0303
MM22
0033
22MM
3300
,  // measure 70
2MM2
0000
3003
0000
M22M
0000
0330
0000
2M2M
3030
2M2M
3030
0000
0000
M2M2
0303
,  // measure 71
M2M2
0303
2M2M
3030
M2M2
0303
2M2M
3030
,  // measure 72
2MM2
0000
0000
3003
0000
0000
M22M
0000
0000
0330
0000
0000
2MM2
0000
3003
0000
2MM2
0000
3003
0000
2MM2
0000
3003
0000
,  // measure 73
M22M
0000
0330
0000
2MM2
0000
3003
0000
M22M
0330
M22M
0330
M22M
0330
0000
0000
,  // measure 74
2M2M
3030
22MM
3300
MM22
0033
M2M2
0303
,  // measure 75
2MM2
0000
0000
3003
0000
0000
M22M
0000
0000
0330
0000
0000
2MM2
0000
3003
0000
2MM2
0000
3003
0000
2MM2
0000
3003
0000
,  // measure 76
2MMM
0000
3020
0000
0230
0000
0302
0000
MM23
0032
0023
0000
0230
0000
2300
0000
,  // measure 77
3M2M
0000
0230
0000
0302
0023
0032
0000
2MM3
0000
3020
0000
2030
3002
0203
0000
,  // measure 78
M32M
2030
3200
0320
MM32
0203
2300
3200
,  // measure 79
M32M
2030
32MM
0302
M2M3
2300
3M2M
0032
,  // measure 80
MM23
0230
0302
2003
32MM
0320
2030
3020
,  // measure 81
M23M
0320
0032
0023
MM32
2003
3002
2003
,  // measure 82
3MM2
0023
0032
0000
2MM3
3020
0230
0000
M3M2
0023
0230
0000
M32M
0032
2003
0000
,  // measure 83
3M2M
0230
0320
0000
M23M
0320
0230
0000
M3M2
2003
3002
0000
2MM3
3002
2003
0000
,  // measure 84
3MM2
0023
M23M
2300
3MM2
0023
M23M
2300
,  // measure 85
3MM2
0000
0023
0000
M23M
0000
2300
0000
3MM2
0023
M23M
2300
3MM2
0023
M23M
2300
,  // measure 86
3002
MM23
0230
M32M
0032
2MM3
3020
M23M
,  // measure 87
0320
2M3M
3200
M32M
0230
23MM
3020
M23M
,  // measure 88
M3M2
0000
0000
0000
0023
0000
MM32
0000
2003
0000
3020
0000
MM0M
0000
2030
3002
,  // measure 89
2MM3
3200
0320
MM32
0203
0320
2M3M
3200
,  // measure 90
M32M
0032
0203
M32M
2032
3003
2MM2
3003
,  // measure 91
2MMM
0000
3200
0000
0320
0000
0032
0000
0000
2MM3
0000
0000
3220
0000
0000
0330
0000
0000
M22M
0000
0000
0330
0000
0000
,  // measure 92
2M22
0M00
3M33
2M22
0M00
3M33
22M2
00M0
,  // measure 93
33M3
22M2
00M0
33M3
222M
000M
333M
M222
,  // measure 94
M000
M333
222M
000M
333M
M222
M000
M333
,  // measure 95
2M2M
3M3M
MM22
MM33
2M2M
3M3M
MM22
MM33
,  // measure 96
100M
0M10
100M
0M10
100M
0000
0000
0000
M001
01M0
M001
01M0
M001
0000
0000
0000
,  // measure 97
0M10
M001
0M10
M001
0M10
0000
0000
0000
01M0
100M
01M0
100M
01M0
0000
0000
0000
,  // measure 98
1MM0
0MM1
1MM0
0MM1
1MM0
0MM1
1MM0
0000
M01M
M10M
M01M
M10M
M01M
M10M
M01M
0000
,  // measure 99
1MM0
0000
0MM1
0000
1MM0
0000
0MM1
0000
1MM0
0000
0MM1
0000
1MM0
0000
0MM1
0000
1MM0
0000
0MM1
0000
1MM0
0000
0MM1
0000
1MM0
0MM1
1MM0
0MM1
1MM0
0MM1
1MM0
0MM1
,  // measure 100
1000
1000
0000
0001
0001
0000
1000
1000
,  // measure 101
0000
0000
0001
0010
0100
0000
0010
0000
0001
0000
0100
0000
0010
0000
1000
0000
,  // measure 102
0001
0001
0000
1000
1000
0000
0001
0001
,  // measure 103
0000
0000
1000
0100
0010
0000
0100
0000
1000
0000
0100
0000
0010
0000
0001
0000
,  // measure 104
1001
0000
1000
0000
0000
0000
0001
0010
0001
0000
0000
0000
1000
0000
1000
0000
,  // measure 105
0000
0000
0001
0010
0001
0000
0010
0000
0001
0010
0100
0000
1000
0100
0010
0000
,  // measure 106
0001
0010
0001
0000
1000
0000
0100
0000
1000
0010
1000
0000
0001
0000
0100
0000
,  // measure 107
2M02
0000
0000
0000
0000
0000
0000
0000
00M0
0000
0000
0000
0000
0000
0000
0000
0M00
0000
0000
0000
00M0
0000
0000
0000
0M00
0000
0000
0000
00M0
0000
0000
0000
0M00
0000
00M0
0000
0M00
0000
00M0
0000
0M00
0000
00M0
0000
0M00
0000
00M0
0000
0M00
00M0
0M00
00M0
0M00
00M0
0M00
00M0
3M03
0000
0000
0000
0000
0000
0000
0000
,  // measure 108
1M1M
0000
0100
0001
0100
0001
0000
MM11
,  // measure 109
0000
0000
11MM
0000
0000
0000
1MM1
0000
0000
0000
0001
1000
0100
0000
0000
0000
,  // measure 110
1000
0000
0010
0000
0100
0000
0010
0000
100M
01M0
100M
0000
0010
0000
0100
0000
,  // measure 111
0000
0100
0000
0100
0010
0000
1MM1
0000
,  // measure 112
M11M
0000
0000
0000
0000
0000
0100
0000
0010
0000
1000
0000
0M01
0000
0000
M010
0000
0000
010M
0000
0000
10M0
0000
0000
,  // measure 113
0M01
0000
M010
0000
010M
0000
10M0
0000
0100
0000
0010
0000
0100
0000
M010
010M
,  // measure 114
100M
01M0
0M10
M001
01M0
0M10
1MM1
0000
,  // measure 115
100M
0000
0000
0M10
0000
0000
01M0
0000
0000
M001
0000
0000
100M
0000
0010
0000
0100
0000
M001
0000
0010
0000
0100
0000
,  // measure 116
100M
0100
M001
0100
0010
M002
0003
200M
,  // measure 117
3000
0020
0130
0002
0003
100M
01M0
0M10
,  // measure 118
M001
0020
0030
0001
0010
M10M
0010
0002
,  // measure 119
0003
1MM0
0MM1
1MM0
0MM1
1MM0
0MM1
0MM1
,  // measure 120
100M
0000
010M
0000
001M
0000
010M
0000
0000
MMMM
0000
0000
M010
0000
M001
0000
M100
0000
M010
0000
0000
0000
0000
0000
,  // measure 121
1MM0
0MM1
M10M
M01M
1MM0
0MM1
M01M
M10M
,  // measure 122
20MM
3M01
MM02
10M3
20MM
3M01
MM02
10M3
,  // measure 123
10M0
01M0
00M1
01M0
22MM
3300
1000
2M2M
,  // measure 124
3030
0010
M22M
0330
0100
M2M2
0303
0001
,  // measure 125
MM22
0033
MMMM
22MM
3300
MMMM
2M2M
3030
,  // measure 126
MMMM
M2M2
0303
MMMM
2M00
30M1
M22M
0330
,  // measure 127
0100
0010
2M00
3MM1
0000
2M00
3M1M
0000
,  // measure 128
2M00
3MM1
0000
MMM1
M01M
M10M
1MMM
0010
,  // measure 129
222M
333M
MMMM
M222
M333
MMMM
222M
333M
,  // measure 130
MMMM
M222
M333
MMMM
20M0
3M02
20M3
3M02
,  // measure 131
1003
0000
01M0
0000
0M10
0000
0001
0000
0M10
M001
0M10
0000
01M0
100M
01M0
0000
,  // measure 132
100M
0010
M001
0010
0100
M001
0010
100M
,  // measure 133
0010
0100
1000
0001
M100
001M
M100
0001
,  // measure 134
1MM0
0000
0000
0MM1
0000
0000
1MM0
0000
0MM1
0000
1MM0
0000
0MM1
0000
1MM0
0000
0MM1
0000
1MM0
0000
0000
0MM1
0000
0000
,  // measure 135
1M1M
M1M1
MM11
11MM
,  // measure 136
1MM1
M11M
1MM1
M11M
,  // measure 137
111M
11M1
1M11
M111
,  // measure 138
1111
MMMM
MMMM
1111
MMMM
MMMM
1220
0331
,  // measure 139
100M
01M0
0M10
M001
M10M
M01M
M10M
M01M
,  // measure 140
1000
M100
MM10
MMM1
MM10
M100
1MM0
0MM1
,  // measure 141
1M0M
0M1M
1M0M
0000
MMMM
0000
MM01
MM10
MM01
0000
MMMM
0000
1M0M
0M1M
1M0M
0000
,  // measure 142
MMMM
0000
MM01
MM10
MM01
0000
MMMM
0000
1MM0
0MM1
1MM0
0000
0MM1
1MM0
0MM1
0000
,  // measure 143
2MM0
3000
2MM0
3000
0MM2
0000
0MM3
0000
0MM2
0003
0MM2
0003
0MM0
0000
0MM2
0003
,  // measure 144
1MMM
0100
M001
0010
100M
0100
M010
0001
,  // measure 145
10MM
M0M1
01M0
M0M1
10MM
01M0
10MM
M0M1
,  // measure 146
01M0
0000
0000
M0M1
0000
0000
10MM
0000
0000
01M0
0000
0000
10M0
0000
0M01
0000
10M0
0000
0M01
0000
10M0
0000
0M01
0000
,  // measure 147
1MMM
0000
MMM1
0000
100M
01M0
0M10
M001
,  // measure 148
1MMM
MM1M
MMM1
MM1M
,  // measure 149
100M
0010
0100
M001
0010
0001
10MM
01MM
,  // measure 150
10MM
0000
01MM
0000
0010
0000
0001
0000
0M10
M001
0M10
M001
100M
01M0
100M
01M0
,  // measure 151
10MM
0000
010M
0000
M010
0000
MM01
0000
M010
0000
010M
0000
10MM
0000
0000
0M1M
0000
0000
1000
0000
0000
01MM
0000
0000
,  // measure 152
1000
0100
0010
0001
2000
0200
0020
0002
3333
0000
0000
0000
1MM0
0MM1
1MM0
0MM1
,  // measure 153
2000
3001
0200
0310
2000
3001
0020
0130
1111
0000
0000
0000
1111
0000
0000
0000
,  // measure 154
1M1M
0000
0100
0001
0100
0000
MM11
0000
0100
1000
0100
0000
1M1M
0000
0100
0001
,  // measure 155
0100
0000
MM11
0000
01MM
10MM
01MM
0000
1000
0100
0010
0001
1111
0000
0000
0000
,  // measure 156
2222
0300
0200
3330
2220
0300
0200
3333
2222
0300
0200
3330
2220
0300
0200
3333
,  // measure 157
10M0
01M0
00M1
01M0
10M0
01M0
00M1
01M0
1010
0101
1010
0101
1010
0101
1010
0101
,  // measure 158
10MM
0000
0MM1
0000
MM10
0000
0MM1
0000
10MM
0000
0010
0000
10M0
0M01
10M0
0M01
,  // measure 159
10M0
0M10
1000
0001
01M0
0001
0010
M001
0010
0100
100M
0100
,  // measure 160
0010
0000
0000
0000
01M0
0000
0000
0000
1000
0000
0000
0000
0001
0000
0000
0000
01M0
0000
0000
0000
0010
0000
0000
0000
1M0M
0000
0000
0M10
0000
0000
MM01
0000
0000
M010
0000
0000
M100
0000
0000
M001
0000
0000
MM10
0000
0000
0M01
0000
0000
,  // measure 161
1M00
001M
M10M
001M
100M
01M0
M0M1
M100
M010
0M01
1M00
001M
M100
M001
MM10
0M01
,  // measure 162
100M
0100
0010
M001
0100
0010
100M
0100
0010
M001
0100
0010
100M
0100
0010
M001
0100
0010
100M
0100
0010
M001
0100
0010
,  // measure 163
2000
0000
3000
0000
;
